Subcategories
Tags
Language
Tags

Erasure - Wonderland (1986) [2CD Special Edition 2011]

Posted By: gribovar
Erasure - Wonderland (1986) [2CD Special Edition 2011]

Erasure - Wonderland (1986) [2CD Special Edition 2011]
EAC Rip | FLAC (tracks+.cue+log) - 864 MB | MP3 CBR 320 kbps (LAME 3.93) - 286 MB | Covers - 70 MB
Genre: Synthpop | RAR 3% Rec. | Label: Mute (LCDSTUMM25)

The duo's full debut was a sparkling collection of synth-pop tunes that made up in enthusiasm and immediate catchiness what it lacked in overall variety or any sense of artistic progression from Clarke's past. Though the production, one of Flood's earliest high-profile efforts, is detailed and often lush, anyone who had followed Clarke's career wouldn't be surprised by anything on Wonderland. Bell's vocals merely tie the connections to the past further, his at-times too-shrill-for-comfort falsetto inevitably echoing Yaz's Alison Moyet as well as one-time Assembly vocalist Feargal Sharkey. Allowing for all these inevitable reminders, though, still means Wonderland is well worth a listen. The key reason is the smash U.K. single "Oh l'Amour," which rapidly became a staple for American modern rock stations as well. A lovely a cappella opening and instantly catchy hook, not to mention sprightly performances from Clarke and Bell both (the latter wisely undersings rather than pushing the flamboyance, letting loose more on the chorus), ensured its classic status. The two other singles, "Who Needs Love Like That" and "Heavenly Action," aren't quite as strong but work in the general formula quite well regardless. Other album cuts are a touch more scattered in quality; nothing is awful, but there are some definite highlights. The slightly slower "Cry So Easy" has a great chorus, giving Bell a chance to show his chops, while "March on Down the Line" moves with a fine positive energy, an anthem without calling attention to itself as such. "Say What" is an interesting mostly instrumental, aside from a gang shout or two of the title, letting Clarke's compositional abilities come to the fore on their own.
CD 1 Tracklist (Original album):
01. Who Needs Love Like That
02. Reunion
03. Cry So Easy
04. Push Me Shove Me (Tacos Mix Edit)
05. Heavenly Action
06. Say What
07. Love Is A Loser
08. Senseless
09. My Heart… So Blue
10. Oh L’Amour
11. Pistol
12. Say What (Remix)
13. March On Down The Line (Remix)
14. Senseless (Remix)

Total time: 59:08

CD 2 Tracklist (B-sides & mixes):
01. Who Needs Love Like That (Mexican Mix)
02. Push Me Shove Me (Extended As Far As Possible Mix)
03. Don't Say No (Ruby Red Mix)
04. Heavenly Action (12" Mix)
05. March On Down The Line
06. Oh L'Amour (PWL Funky Sisters Say 'Ooh La La')
07. Gimme! Gimme! Gimme! (Remix)

BBC Radio One Session: Bruno Brookes, 15/11/85
08. Cry So Easy
09. Who Needs Love Like That

BBC Radio One Session 5/12/85
10. Senseless
11. Heavenly Action
12. Say What?
13. Push Me Shove Me

Total time: 59:27

Exact Audio Copy V1.3 from 2. September 2016

EAC extraction logfile from 9. August 2019, 8:08

Erasure / Wonderland (Special Edition)

Used drive : PIONEER DVD-RW DVR-221L Adapter: 1 ID: 1

Read mode : Secure
Utilize accurate stream : Yes
Defeat audio cache : Yes
Make use of C2 pointers : No

Read offset correction : 6
Overread into Lead-In and Lead-Out : No
Fill up missing offset samples with silence : Yes
Delete leading and trailing silent blocks : No
Null samples used in CRC calculations : Yes
Used interface : Native Win32 interface for Win NT & 2000
Gap handling : Appended to previous track

Used output format : User Defined Encoder
Selected bitrate : 1024 kBit/s
Quality : High
Add ID3 tag : No
Command line compressor : C:\Program Files (x86)\Exact Audio Copy\FLAC\FLAC.EXE
Additional command line options : -6 -V -T "COMMENT=Ripped by RRC" -T "ARTIST=%artist%" -T "TITLE=%title%" -T "ALBUM=%albumtitle%" -T "DATE=%year%" -T "TRACKNUMBER=%tracknr%" -T "GENRE=%genre%" -T "BAND=%albuminterpret%" -T "ALBUMARTIST=%albuminterpret%" -T "COMPOSER=%composer%" %haslyrics%–tag-from-file=LYRICS="%lyricsfile%"%haslyrics% -T "DISCNUMBER=%cdnumber%" -T "TOTALDISCS=%totalcds%" -T "TOTALTRACKS=%numtracks%" %hascover%–picture="%coverfile%"%hascover% %source%


TOC of the extracted CD

Track | Start | Length | Start sector | End sector
––––––––––––––––––––––––––––-
1 | 0:00.00 | 3:19.21 | 0 | 14945
2 | 3:19.21 | 3:25.18 | 14946 | 30338
3 | 6:44.39 | 3:35.71 | 30339 | 46534
4 | 10:20.35 | 5:10.63 | 46535 | 69847
5 | 15:31.23 | 3:30.46 | 69848 | 85643
6 | 19:01.69 | 3:56.17 | 85644 | 103360
7 | 22:58.11 | 3:02.23 | 103361 | 117033
8 | 26:00.34 | 3:26.52 | 117034 | 132535
9 | 29:27.11 | 4:31.14 | 132536 | 152874
10 | 33:58.25 | 3:04.11 | 152875 | 166685
11 | 37:02.36 | 3:30.02 | 166686 | 182437
12 | 40:32.38 | 7:22.08 | 182438 | 215595
13 | 47:54.46 | 6:07.23 | 215596 | 243143
14 | 54:01.69 | 5:06.52 | 243144 | 266145


Track 1

Filename E:\RRCLtd Rip\01-Who Needs Love (Like That).wav

Pre-gap length 0:00:02.00

Peak level 100.0 %
Extraction speed 2.5 X
Track quality 100.0 %
Test CRC 6FC7FC57
Copy CRC 6FC7FC57
Accurately ripped (confidence 39) [E4ADF2F6] (AR v2)
Copy OK

Track 2

Filename E:\RRCLtd Rip\02-Reunion.wav

Peak level 98.8 %
Extraction speed 2.7 X
Track quality 100.0 %
Test CRC CDC5A643
Copy CRC CDC5A643
Accurately ripped (confidence 38) [074C3D39] (AR v2)
Copy OK

Track 3

Filename E:\RRCLtd Rip\03-Cry So Easy.wav

Pre-gap length 0:00:03.17

Peak level 98.8 %
Extraction speed 3.0 X
Track quality 100.0 %
Test CRC 2761D5AB
Copy CRC 2761D5AB
Accurately ripped (confidence 38) [EE07FF54] (AR v2)
Copy OK

Track 4

Filename E:\RRCLtd Rip\04-Push Me Shove Me.wav

Pre-gap length 0:00:01.01

Peak level 98.8 %
Extraction speed 3.4 X
Track quality 100.0 %
Test CRC 80525103
Copy CRC 80525103
Accurately ripped (confidence 38) [BCE96BF6] (AR v2)
Copy OK

Track 5

Filename E:\RRCLtd Rip\05-Heavenly Action.wav

Pre-gap length 0:00:02.38

Peak level 98.8 %
Extraction speed 3.5 X
Track quality 100.0 %
Test CRC DFD1301D
Copy CRC DFD1301D
Accurately ripped (confidence 38) [A2B91406] (AR v2)
Copy OK

Track 6

Filename E:\RRCLtd Rip\06-Say What.wav

Pre-gap length 0:00:02.09

Peak level 94.4 %
Extraction speed 3.7 X
Track quality 100.0 %
Test CRC D3C596C7
Copy CRC D3C596C7
Accurately ripped (confidence 38) [44820F3B] (AR v2)
Copy OK

Track 7

Filename E:\RRCLtd Rip\07-Love Is A Loser.wav

Peak level 98.8 %
Extraction speed 3.8 X
Track quality 100.0 %
Test CRC D9C99F10
Copy CRC D9C99F10
Accurately ripped (confidence 38) [FCC1A221] (AR v2)
Copy OK

Track 8

Filename E:\RRCLtd Rip\08-Senseless.wav

Pre-gap length 0:00:01.09

Peak level 98.8 %
Extraction speed 4.0 X
Track quality 100.0 %
Test CRC 8E690B76
Copy CRC 8E690B76
Accurately ripped (confidence 38) [9A897CAA] (AR v2)
Copy OK

Track 9

Filename E:\RRCLtd Rip\09-My Heart…So Blue.wav

Pre-gap length 0:00:02.24

Peak level 98.8 %
Extraction speed 4.3 X
Track quality 100.0 %
Test CRC D30C55E7
Copy CRC D30C55E7
Accurately ripped (confidence 38) [A50AC78E] (AR v2)
Copy OK

Track 10

Filename E:\RRCLtd Rip\10-Oh L'Amour.wav

Pre-gap length 0:00:03.56

Peak level 98.8 %
Extraction speed 4.2 X
Track quality 100.0 %
Test CRC 7D7FCA09
Copy CRC 7D7FCA09
Accurately ripped (confidence 38) [5270C041] (AR v2)
Copy OK

Track 11

Filename E:\RRCLtd Rip\11-Pistol.wav

Pre-gap length 0:00:02.70

Peak level 98.8 %
Extraction speed 4.5 X
Track quality 100.0 %
Test CRC F5DA00D2
Copy CRC F5DA00D2
Accurately ripped (confidence 38) [DCA1926E] (AR v2)
Copy OK

Track 12

Filename E:\RRCLtd Rip\12-Say What (Remix).wav

Pre-gap length 0:00:03.36

Peak level 98.8 %
Extraction speed 5.1 X
Track quality 100.0 %
Test CRC CEC2CB9F
Copy CRC CEC2CB9F
Accurately ripped (confidence 37) [B4C1A8F0] (AR v2)
Copy OK

Track 13

Filename E:\RRCLtd Rip\13-March On Down The Line (Remix).wav

Pre-gap length 0:00:01.17

Peak level 98.8 %
Extraction speed 5.3 X
Track quality 100.0 %
Test CRC 2A838869
Copy CRC 2A838869
Accurately ripped (confidence 37) [619AB40B] (AR v2)
Copy OK

Track 14

Filename E:\RRCLtd Rip\14-Senseless (Remix).wav

Pre-gap length 0:00:03.55

Peak level 98.8 %
Extraction speed 5.4 X
Track quality 100.0 %
Test CRC 12464370
Copy CRC 12464370
Accurately ripped (confidence 37) [2608C6A4] (AR v2)
Copy OK


All tracks accurately ripped

No errors occurred

End of status report

–– CUETools DB Plugin V2.1.6

[CTDB TOCID: CtYqbrJqnvRoHflX9DKi2kzP.0E-] found
Submit result: CtYqbrJqnvRoHflX9DKi2kzP.0E- has been confirmed
Track | CTDB Status
1 | (52/52) Accurately ripped
2 | (52/52) Accurately ripped
3 | (52/52) Accurately ripped
4 | (52/52) Accurately ripped
5 | (52/52) Accurately ripped
6 | (52/52) Accurately ripped
7 | (52/52) Accurately ripped
8 | (52/52) Accurately ripped
9 | (52/52) Accurately ripped
10 | (52/52) Accurately ripped
11 | (52/52) Accurately ripped
12 | (52/52) Accurately ripped
13 | (52/52) Accurately ripped
14 | (52/52) Accurately ripped


==== Log checksum 3D64F5D2D3AD63BF2EB4E19CA878A70A0712AEC3559B19DC0523F7330D2DC89B ====

[CUETools log; Date: 28.03.2020 13:32:25; Version: 2.1.4]
[CTDB TOCID: CtYqbrJqnvRoHflX9DKi2kzP.0E-] found.
Track | CTDB Status
1 | (60/60) Accurately ripped
2 | (60/60) Accurately ripped
3 | (60/60) Accurately ripped
4 | (60/60) Accurately ripped
5 | (60/60) Accurately ripped
6 | (60/60) Accurately ripped
7 | (60/60) Accurately ripped
8 | (60/60) Accurately ripped
9 | (60/60) Accurately ripped
10 | (60/60) Accurately ripped
11 | (60/60) Accurately ripped
12 | (60/60) Accurately ripped
13 | (60/60) Accurately ripped
14 | (59/60) Accurately ripped
[AccurateRip ID: 001be138-012db763-a20ddc0e] found.
Track [ CRC | V2 ] Status
01 [d8f737b7|e4adf2f6] (05+43/48) Accurately ripped
02 [4383e866|074c3d39] (05+42/47) Accurately ripped
03 [0d9990da|ee07ff54] (05+42/47) Accurately ripped
04 [dc25e363|bce96bf6] (05+42/47) Accurately ripped
05 [9162ab7b|a2b91406] (05+42/47) Accurately ripped
06 [f3de1561|44820f3b] (05+42/47) Accurately ripped
07 [a621adbd|fcc1a221] (05+42/47) Accurately ripped
08 [83c2355b|9a897caa] (05+42/47) Accurately ripped
09 [907708e8|a50ac78e] (05+42/47) Accurately ripped
10 [fd7099e0|5270c041] (05+42/47) Accurately ripped
11 [121cdd8f|dca1926e] (05+42/47) Accurately ripped
12 [0380c920|b4c1a8f0] (05+41/46) Accurately ripped
13 [6e5a4b77|619ab40b] (05+41/46) Accurately ripped
14 [95e7f12a|2608c6a4] (05+41/46) Accurately ripped

Track Peak [ CRC32 ] [W/O NULL] [ LOG ]
– 100,0 [D8B6732C] [3729A4F8]
01 100,0 [6FC7FC57] [FF9F75AF] CRC32
02 98,8 [CDC5A643] [ADB75F01] CRC32
03 98,8 [2761D5AB] [CACD14FE] CRC32
04 98,8 [80525103] [17283320] CRC32
05 98,8 [DFD1301D] [EA8FA1B6] CRC32
06 94,4 [D3C596C7] [BD20068A] CRC32
07 98,8 [D9C99F10] [7D3D87D7] CRC32
08 98,8 [8E690B76] [50315257] CRC32
09 98,8 [D30C55E7] [2B186A5F] CRC32
10 98,8 [7D7FCA09] [332B296A] CRC32
11 98,8 [F5DA00D2] [BA818E0D] CRC32
12 98,8 [CEC2CB9F] [31B52C42] CRC32
13 98,8 [2A838869] [CD5A9A93] CRC32
14 98,8 [12464370] [EA8DEED6] CRC32

Exact Audio Copy V1.3 from 2. September 2016

EAC extraction logfile from 9. August 2019, 8:54

Erasure / Wonderland (Special Edition) (CD2)

Used drive : PIONEER DVD-RW DVR-221L Adapter: 1 ID: 1

Read mode : Secure
Utilize accurate stream : Yes
Defeat audio cache : Yes
Make use of C2 pointers : No

Read offset correction : 6
Overread into Lead-In and Lead-Out : No
Fill up missing offset samples with silence : Yes
Delete leading and trailing silent blocks : No
Null samples used in CRC calculations : Yes
Used interface : Native Win32 interface for Win NT & 2000
Gap handling : Appended to previous track

Used output format : User Defined Encoder
Selected bitrate : 1024 kBit/s
Quality : High
Add ID3 tag : No
Command line compressor : C:\Program Files (x86)\Exact Audio Copy\FLAC\FLAC.EXE
Additional command line options : -6 -V -T "COMMENT=Ripped by RRC" -T "ARTIST=%artist%" -T "TITLE=%title%" -T "ALBUM=%albumtitle%" -T "DATE=%year%" -T "TRACKNUMBER=%tracknr%" -T "GENRE=%genre%" -T "BAND=%albuminterpret%" -T "ALBUMARTIST=%albuminterpret%" -T "COMPOSER=%composer%" %haslyrics%–tag-from-file=LYRICS="%lyricsfile%"%haslyrics% -T "DISCNUMBER=%cdnumber%" -T "TOTALDISCS=%totalcds%" -T "TOTALTRACKS=%numtracks%" %hascover%–picture="%coverfile%"%hascover% %source%


TOC of the extracted CD

Track | Start | Length | Start sector | End sector
––––––––––––––––––––––––––––-
1 | 0:00.00 | 6:11.16 | 0 | 27840
2 | 6:11.16 | 4:09.08 | 27841 | 46523
3 | 10:20.24 | 6:09.57 | 46524 | 74255
4 | 16:30.06 | 6:11.07 | 74256 | 102087
5 | 22:41.13 | 3:46.46 | 102088 | 119083
6 | 26:27.59 | 7:17.23 | 119084 | 151881
7 | 33:45.07 | 4:58.46 | 151882 | 174277
8 | 38:43.53 | 3:43.18 | 174278 | 191020
9 | 42:26.71 | 3:33.39 | 191021 | 207034
10 | 46:00.35 | 3:32.29 | 207035 | 222963
11 | 49:32.64 | 3:38.43 | 222964 | 239356
12 | 53:11.32 | 3:25.38 | 239357 | 254769
13 | 56:36.70 | 2:50.40 | 254770 | 267559


Track 1

Filename E:\RRCLtd Rip\01-Who Needs Love (Like That) (Mexican Mix).wav

Pre-gap length 0:00:02.00

Peak level 98.8 %
Extraction speed 2.8 X
Track quality 100.0 %
Test CRC C81288CB
Copy CRC C81288CB
Accurately ripped (confidence 34) [4EEA37EA] (AR v2)
Copy OK

Track 2

Filename E:\RRCLtd Rip\02-Push Me Shove Me (Extended As Far As Possible Mix).wav

Pre-gap length 0:00:02.51

Peak level 98.8 %
Extraction speed 3.1 X
Track quality 100.0 %
Test CRC 61ECD89C
Copy CRC 61ECD89C
Accurately ripped (confidence 34) [DFB4DC01] (AR v2)
Copy OK

Track 3

Filename E:\RRCLtd Rip\03-Don't Say No (Ruby Red Mix).wav

Pre-gap length 0:00:03.66

Peak level 98.8 %
Extraction speed 3.5 X
Track quality 100.0 %
Test CRC 882218BD
Copy CRC 882218BD
Accurately ripped (confidence 34) [A705C91E] (AR v2)
Copy OK

Track 4

Filename E:\RRCLtd Rip\04-Heavenly Action (12'' Mix).wav

Pre-gap length 0:00:03.41

Peak level 98.8 %
Extraction speed 3.9 X
Track quality 100.0 %
Test CRC 2DBD808B
Copy CRC 2DBD808B
Accurately ripped (confidence 34) [1E002476] (AR v2)
Copy OK

Track 5

Filename E:\RRCLtd Rip\05-March On Down The Line.wav

Pre-gap length 0:00:03.03

Peak level 98.8 %
Extraction speed 3.9 X
Track quality 100.0 %
Test CRC DB001076
Copy CRC DB001076
Accurately ripped (confidence 35) [71E227A3] (AR v2)
Copy OK

Track 6

Filename E:\RRCLtd Rip\06-Oh L'Amour (PWL Funky Sisters Say ''Ooh La La'').wav

Pre-gap length 0:00:03.18

Peak level 94.4 %
Extraction speed 4.5 X
Track quality 100.0 %
Test CRC FD042568
Copy CRC FD042568
Accurately ripped (confidence 34) [4EC112E2] (AR v2)
Copy OK

Track 7

Filename E:\RRCLtd Rip\07-Gimme! Gimme! Gimme! (Remix).wav

Pre-gap length 0:00:03.21

Peak level 98.8 %
Extraction speed 4.6 X
Track quality 100.0 %
Test CRC CE79F240
Copy CRC CE79F240
Accurately ripped (confidence 34) [F56F64E5] (AR v2)
Copy OK

Track 8

Filename E:\RRCLtd Rip\08-Cry So Easy (Radio One Session - Bruno Brookes).wav

Pre-gap length 0:00:04.34

Peak level 98.8 %
Extraction speed 4.6 X
Track quality 100.0 %
Test CRC C5D55891
Copy CRC C5D55891
Accurately ripped (confidence 34) [7C123990] (AR v2)
Copy OK

Track 9

Filename E:\RRCLtd Rip\09-Who Needs Love (Like That) (Radio One Session - Bruno Brookes).wav

Pre-gap length 0:00:01.58

Peak level 98.8 %
Extraction speed 4.7 X
Track quality 100.0 %
Test CRC 4BCFAA8E
Copy CRC 4BCFAA8E
Accurately ripped (confidence 34) [ACA1BCD5] (AR v2)
Copy OK

Track 10

Filename E:\RRCLtd Rip\10-Senseless (Radio One Session).wav

Pre-gap length 0:00:02.66

Peak level 98.8 %
Extraction speed 4.8 X
Track quality 100.0 %
Test CRC A2CCD014
Copy CRC A2CCD014
Accurately ripped (confidence 34) [EE227BD5] (AR v2)
Copy OK

Track 11

Filename E:\RRCLtd Rip\11-Heavenly Action (Radio One Session).wav

Pre-gap length 0:00:03.52

Peak level 96.6 %
Extraction speed 5.1 X
Track quality 100.0 %
Test CRC 9AA43A56
Copy CRC 9AA43A56
Accurately ripped (confidence 33) [1CB65E79] (AR v2)
Copy OK

Track 12

Filename E:\RRCLtd Rip\12-Say What (Radio One Session).wav

Pre-gap length 0:00:02.70

Peak level 98.8 %
Extraction speed 3.8 X
Track quality 99.9 %
Test CRC 6552F384
Copy CRC 6552F384
Accurately ripped (confidence 34) [CB660DA6] (AR v2)
Copy OK

Track 13

Filename E:\RRCLtd Rip\13-Push Me Shove Me (Radio One Session).wav

Pre-gap length 0:00:03.03

Peak level 98.8 %
Extraction speed 5.1 X
Track quality 100.0 %
Test CRC 68990D1A
Copy CRC 68990D1A
Accurately ripped (confidence 34) [7EDFAF5F] (AR v2)
Copy OK


All tracks accurately ripped

No errors occurred

End of status report

–– CUETools DB Plugin V2.1.6

[CTDB TOCID: 7gqZGDeJszjnDRIfj3JEDlTvAp0-] found
Submit result: 7gqZGDeJszjnDRIfj3JEDlTvAp0- has been confirmed
Track | CTDB Status
1 | (51/51) Accurately ripped
2 | (51/51) Accurately ripped
3 | (50/51) Accurately ripped
4 | (51/51) Accurately ripped
5 | (51/51) Accurately ripped
6 | (50/51) Accurately ripped
7 | (51/51) Accurately ripped
8 | (51/51) Accurately ripped
9 | (51/51) Accurately ripped
10 | (51/51) Accurately ripped
11 | (49/51) Accurately ripped
12 | (51/51) Accurately ripped
13 | (51/51) Accurately ripped


==== Log checksum 67B451AADB70DF8D92A6672F885E92B09CAFFCA74925E5B6323D0BB5EE8E0456 ====

[CUETools log; Date: 28.03.2020 13:33:18; Version: 2.1.4]
[CTDB TOCID: 7gqZGDeJszjnDRIfj3JEDlTvAp0-] found.
Track | CTDB Status
1 | (58/58) Accurately ripped
2 | (58/58) Accurately ripped
3 | (57/58) Accurately ripped
4 | (57/58) Accurately ripped
5 | (58/58) Accurately ripped
6 | (57/58) Accurately ripped
7 | (58/58) Accurately ripped
8 | (58/58) Accurately ripped
9 | (58/58) Accurately ripped
10 | (58/58) Accurately ripped
11 | (56/58) Accurately ripped
12 | (58/58) Accurately ripped
13 | (57/58) Accurately ripped
[AccurateRip ID: 001fb7c4-01367812-c90def0d] found.
Track [ CRC | V2 ] Status
01 [84b3d708|4eea37ea] (05+38/43) Accurately ripped
02 [c2bfb617|dfb4dc01] (05+38/43) Accurately ripped
03 [e5fc7250|a705c91e] (05+38/43) Accurately ripped
04 [c623391d|1e002476] (05+38/43) Accurately ripped
05 [1ffb8a8a|71e227a3] (05+39/44) Accurately ripped
06 [9ec95ff9|4ec112e2] (05+38/43) Accurately ripped
07 [4291f383|f56f64e5] (05+38/43) Accurately ripped
08 [d07679f5|7c123990] (05+38/43) Accurately ripped
09 [1298c825|aca1bcd5] (05+38/43) Accurately ripped
10 [1608d62f|ee227bd5] (05+38/43) Accurately ripped
11 [e9d02ec8|1cb65e79] (05+37/42) Accurately ripped
12 [3548dc0d|cb660da6] (05+38/43) Accurately ripped
13 [bfde41a0|7edfaf5f] (05+38/43) Accurately ripped

Track Peak [ CRC32 ] [W/O NULL] [ LOG ]
– 98,8 [30D9904F] [2FB022DD]
01 98,8 [C81288CB] [B73BBC96] CRC32
02 98,8 [61ECD89C] [D6FE4364] CRC32
03 98,8 [882218BD] [30F3B3C4] CRC32
04 98,8 [2DBD808B] [A602AF61] CRC32
05 98,8 [DB001076] [5BAAC6D6] CRC32
06 94,4 [FD042568] [E83DFD8B] CRC32
07 98,8 [CE79F240] [2A8C3447] CRC32
08 98,8 [C5D55891] [0777D69D] CRC32
09 98,8 [4BCFAA8E] [898F79F4] CRC32
10 98,8 [A2CCD014] [253FD031] CRC32
11 96,6 [9AA43A56] [67AC1D4F] CRC32
12 98,8 [6552F384] [29650712] CRC32
13 98,8 [68990D1A] [058A7DF8] CRC32

Thanks to RRC

See also: