Subcategories
Tags
Language
Tags

Erasure - World Be Live (2018)

Posted By: gribovar
Erasure - World Be Live (2018)

Erasure - World Be Live (2018)
EAC Rip | FLAC (tracks+.cue+log) - 674 MB | MP3 CBR 320 kbps (LAME 3.93) - 237 MB | Covers - 139 MB
Genre: Synthpop | RAR 3% Rec. | Label: Mute (CDSTUMM435)

While live Erasure albums are hardly a rarity, especially if one counts items like limited-edition souvenir LPs, sorting through which ones are still in print or available on streaming sites is another matter entirely. At the time of its release, 2018's World Be Live is their first widely available live album since 2007's On the Road to Nashville, which captured an acoustic show at Ryman Auditorium. The third in a trilogy of releases led by their 2017 studio LP World Be Gone, it follows March 2018's World Beyond, a re-recording of the album by singer Andy Bell and the Echo Collective chamber ensemble. Arriving a few months later, World Be Live was taken from two sold-out, fully electronic 2017 shows at London's Eventim Apollo (formerly Hammersmith Apollo) during the U.K. leg of an extensive world tour. Featuring 24 tracks and a playing time of over 90 minutes, World Be Live is a well-curated mix of career-spanning hits alongside five selections from the album they were promoting, which was notably their first U.K. Top Ten album in 20 years. Given the more somber nature of the record, songs like the romantic "Sweet Summer Loving" and the spare, anguished "Take Me Out of Myself" coincide with periodic breaks from the full-on dance party that constitutes the majority of the show. Per usual, however, Bell's emotive performances make these contrasting moments - which also include goldies like 1988's "Ship of Fools" and 1997's "In My Arms" - engaging ones. In the other extreme, rollicking club hits include opener "Oh l'Amour" and "Stop!," one of the few tracks here that allows us to hear the crowd singing along. Another is closer "A Little Respect," which has Bell still nailing those high notes 30 years on. If there's a single highlight of the album that might make it worth the effort for those still on the fence, it's "Atomic," a pulsating cover of the Blondie U.K. number one that's right in Vince Clarke's wheelhouse.
CD 1 Tracklist:
01. Oh L'Amour
02. Ship Of Fools
03. Breathe
04. Mad As We Are
05. Just A Little Love
06. In My Arms
07. Chains Of Love
08. Sacred
09. Sweet Summer Loving
10. I Love Saturday
11. Victim Of Love
12. Phantom Bride
13. World Be Gone

Total time: 51:38

CD 2 Tracklist:
01. Who Needs Love (Like That)
02. Take Me Out Of Myself
03. Blue Savannah
04. Atomic
05. Drama!
06. Stop!
07. Love You To The Sky
08. Always
09. Here I Go Impossible Again
10. Sometimes
11. A Little Respect

Total time: 44:49

Exact Audio Copy V1.3 from 2. September 2016

EAC extraction logfile from 1. August 2018, 21:39

Erasure / World Be Live (CD1)

Used drive : PIONEER DVD-RW DVR-221L Adapter: 1 ID: 1

Read mode : Secure
Utilize accurate stream : Yes
Defeat audio cache : Yes
Make use of C2 pointers : No

Read offset correction : 6
Overread into Lead-In and Lead-Out : No
Fill up missing offset samples with silence : Yes
Delete leading and trailing silent blocks : No
Null samples used in CRC calculations : Yes
Used interface : Native Win32 interface for Win NT & 2000
Gap handling : Appended to previous track

Used output format : User Defined Encoder
Selected bitrate : 1024 kBit/s
Quality : High
Add ID3 tag : No
Command line compressor : C:\Program Files (x86)\Exact Audio Copy\FLAC\FLAC.EXE
Additional command line options : -6 -V -T "COMMENT=Ripped by RRC for new-team org" -T "ARTIST=%artist%" -T "TITLE=%title%" -T "ALBUM=%albumtitle%" -T "DATE=%year%" -T "TRACKNUMBER=%tracknr%" -T "GENRE=%genre%" -T "BAND=%albuminterpret%" -T "ALBUMARTIST=%albuminterpret%" -T "COMPOSER=%composer%" %haslyrics%–tag-from-file=LYRICS="%lyricsfile%"%haslyrics% -T "DISCNUMBER=%cdnumber%" -T "TOTALDISCS=%totalcds%" -T "TOTALTRACKS=%numtracks%" %hascover%–picture="%coverfile%"%hascover% %source%


TOC of the extracted CD

Track | Start | Length | Start sector | End sector
––––––––––––––––––––––––––––-
1 | 0:00.00 | 3:52.23 | 0 | 17422
2 | 3:52.23 | 4:04.59 | 17423 | 35781
3 | 7:57.07 | 3:35.47 | 35782 | 51953
4 | 11:32.54 | 3:57.05 | 51954 | 69733
5 | 15:29.59 | 3:37.24 | 69734 | 86032
6 | 19:07.08 | 3:41.50 | 86033 | 102657
7 | 22:48.58 | 4:00.46 | 102658 | 120703
8 | 26:49.29 | 4:40.56 | 120704 | 141759
9 | 31:30.10 | 4:20.41 | 141760 | 161300
10 | 35:50.51 | 3:52.58 | 161301 | 178758
11 | 39:43.34 | 4:17.63 | 178759 | 198096
12 | 44:01.22 | 3:47.22 | 198097 | 215143
13 | 47:48.44 | 3:50.04 | 215144 | 232397


Track 1

Filename E:\RRCLtd Rip\01-Oh L'Amour.wav

Pre-gap length 0:00:02.00

Peak level 98.0 %
Extraction speed 2.6 X
Track quality 100.0 %
Test CRC 2412903A
Copy CRC 2412903A
Accurately ripped (confidence 1) [E65A32A0] (AR v2)
Copy OK

Track 2

Filename E:\RRCLtd Rip\02-Ship Of Fools.wav

Peak level 97.8 %
Extraction speed 3.0 X
Track quality 100.0 %
Test CRC FCA0C851
Copy CRC FCA0C851
Accurately ripped (confidence 1) [E654B042] (AR v2)
Copy OK

Track 3

Filename E:\RRCLtd Rip\03-Breathe.wav

Peak level 97.8 %
Extraction speed 3.2 X
Track quality 100.0 %
Test CRC FB360552
Copy CRC FB360552
Accurately ripped (confidence 1) [32AC49A2] (AR v2)
Copy OK

Track 4

Filename E:\RRCLtd Rip\04-Mad As We Are.wav

Peak level 97.8 %
Extraction speed 2.7 X
Track quality 99.9 %
Test CRC 827206FC
Copy CRC 827206FC
Accurately ripped (confidence 1) [4707962B] (AR v2)
Copy OK

Track 5

Filename E:\RRCLtd Rip\05-Just A Little Love.wav

Peak level 97.7 %
Extraction speed 3.6 X
Track quality 100.0 %
Test CRC A6C04D14
Copy CRC A6C04D14
Accurately ripped (confidence 1) [BDE02629] (AR v2)
Copy OK

Track 6

Filename E:\RRCLtd Rip\06-In My Arms.wav

Peak level 97.8 %
Extraction speed 3.7 X
Track quality 100.0 %
Test CRC 9E85E779
Copy CRC 9E85E779
Accurately ripped (confidence 1) [DBF29490] (AR v2)
Copy OK

Track 7

Filename E:\RRCLtd Rip\07-Chains Of Love.wav

Peak level 98.0 %
Extraction speed 4.0 X
Track quality 100.0 %
Test CRC 3DF603AE
Copy CRC 3DF603AE
Accurately ripped (confidence 1) [BD4869CE] (AR v2)
Copy OK

Track 8

Filename E:\RRCLtd Rip\08-Sacred.wav

Peak level 98.2 %
Extraction speed 4.3 X
Track quality 100.0 %
Test CRC 0EBA54C6
Copy CRC 0EBA54C6
Accurately ripped (confidence 1) [7ECBE6B5] (AR v2)
Copy OK

Track 9

Filename E:\RRCLtd Rip\09-Sweet Summer Loving.wav

Peak level 97.7 %
Extraction speed 4.4 X
Track quality 100.0 %
Test CRC D441F7CA
Copy CRC D441F7CA
Accurately ripped (confidence 1) [6280C722] (AR v2)
Copy OK

Track 10

Filename E:\RRCLtd Rip\10-I Love Saturday.wav

Peak level 98.3 %
Extraction speed 4.6 X
Track quality 100.0 %
Test CRC 6CDF3FC0
Copy CRC 6CDF3FC0
Accurately ripped (confidence 1) [1A0C86B2] (AR v2)
Copy OK

Track 11

Filename E:\RRCLtd Rip\11-Victim Of Love.wav

Peak level 98.2 %
Extraction speed 4.8 X
Track quality 100.0 %
Test CRC 104A58C8
Copy CRC 104A58C8
Accurately ripped (confidence 1) [7E13DD5D] (AR v2)
Copy OK

Track 12

Filename E:\RRCLtd Rip\12-Phantom Bride.wav

Peak level 98.1 %
Extraction speed 4.9 X
Track quality 100.0 %
Test CRC 7594EC77
Copy CRC 7594EC77
Accurately ripped (confidence 1) [5F9EF3E6] (AR v2)
Copy OK

Track 13

Filename E:\RRCLtd Rip\13-World Be Gone.wav

Peak level 97.7 %
Extraction speed 3.9 X
Track quality 99.9 %
Test CRC 584F9D96
Copy CRC 584F9D96
Accurately ripped (confidence 1) [18EF4573] (AR v2)
Copy OK


All tracks accurately ripped

No errors occurred

End of status report

–– CUETools DB Plugin V2.1.6

[CTDB TOCID: c4ySeLWAki_C1hhyc.Kd7McpPoQ-] found
Submit result: c4ySeLWAki_C1hhyc.Kd7McpPoQ- has been confirmed
Track | CTDB Status
1 | (12/12) Accurately ripped
2 | (12/12) Accurately ripped
3 | (12/12) Accurately ripped
4 | (12/12) Accurately ripped
5 | (12/12) Accurately ripped
6 | (12/12) Accurately ripped
7 | (12/12) Accurately ripped
8 | (12/12) Accurately ripped
9 | (12/12) Accurately ripped
10 | (12/12) Accurately ripped
11 | (12/12) Accurately ripped
12 | (12/12) Accurately ripped
13 | (12/12) Accurately ripped


==== Log checksum 813B92F2713D9D1B2114AA319AF5B93FAF4CDC31AA32E0C6C901D424F8C78A8A ====

[CUETools log; Date: 07.04.2020 14:08:21; Version: 2.1.4]
[CTDB TOCID: c4ySeLWAki_C1hhyc.Kd7McpPoQ-] found.
Track | CTDB Status
1 | (48/48) Accurately ripped
2 | (48/48) Accurately ripped
3 | (48/48) Accurately ripped
4 | (48/48) Accurately ripped
5 | (48/48) Accurately ripped
6 | (48/48) Accurately ripped
7 | (48/48) Accurately ripped
8 | (48/48) Accurately ripped
9 | (48/48) Accurately ripped
10 | (48/48) Accurately ripped
11 | (48/48) Accurately ripped
12 | (48/48) Accurately ripped
13 | (48/48) Accurately ripped
[AccurateRip ID: 001897e3-00f6eaa2-b20c1a0d] found.
Track [ CRC | V2 ] Status
01 [cca481ea|e65a32a0] (00+14/24) Accurately ripped
02 [5c92973e|e654b042] (00+14/24) Accurately ripped
03 [16feb102|32ac49a2] (00+14/24) Accurately ripped
04 [ebca5cf9|4707962b] (00+14/24) Accurately ripped
05 [60ff7f10|bde02629] (00+14/24) Accurately ripped
06 [c5302a55|dbf29490] (00+14/24) Accurately ripped
07 [49f24ab2|bd4869ce] (00+14/24) Accurately ripped
08 [6deeb461|7ecbe6b5] (00+14/24) Accurately ripped
09 [62cf928a|6280c722] (00+14/24) Accurately ripped
10 [7023db24|1a0c86b2] (00+14/24) Accurately ripped
11 [e4b45e5f|7e13dd5d] (00+14/24) Accurately ripped
12 [565a9f69|5f9ef3e6] (00+14/24) Accurately ripped
13 [fffc182b|18ef4573] (00+14/24) Accurately ripped
Offsetted by -12:
01 [db854bf0] (00/24) No match (V2 was not tested)
02 [faf21021] (00/24) No match (V2 was not tested)
03 [a670e75d] (00/24) No match (V2 was not tested)
04 [8147e963] (00/24) No match (V2 was not tested)
05 [cbf04c18] (00/24) No match (V2 was not tested)
06 [a8089e7a] (00/24) No match (V2 was not tested)
07 [c520cbd0] (00/24) No match (V2 was not tested)
08 [26e2a2fe] (00/24) No match (V2 was not tested)
09 [00837db2] (00/24) No match (V2 was not tested)
10 [96fb8df6] (00/24) No match (V2 was not tested)
11 [b64a5616] (00/24) No match (V2 was not tested)
12 [52baea65] (00/24) No match (V2 was not tested)
13 [c380ffca] (00/24) No match (V2 was not tested)

Track Peak [ CRC32 ] [W/O NULL] [ LOG ]
– 98,3 [2C54FFB7] [CFC1D532]
01 98,0 [2412903A] [F4B83FA7] CRC32
02 97,8 [FCA0C851] [DB1CE946] CRC32
03 97,8 [FB360552] [A81062DB] CRC32
04 97,8 [827206FC] [85202B6C] CRC32
05 97,7 [A6C04D14] [872DAF36] CRC32
06 97,8 [9E85E779] [1C6D6CEC] CRC32
07 98,0 [3DF603AE] [3AD4D858] CRC32
08 98,2 [0EBA54C6] [501FCFB9] CRC32
09 97,7 [D441F7CA] [9077227C] CRC32
10 98,3 [6CDF3FC0] [C52361BD] CRC32
11 98,2 [104A58C8] [525D9666] CRC32
12 98,1 [7594EC77] [43923FD1] CRC32
13 97,7 [584F9D96] [2CFB983A] CRC32

Exact Audio Copy V1.3 from 2. September 2016

EAC extraction logfile from 1. August 2018, 22:13

Erasure / World Be Live (CD2)

Used drive : PIONEER DVD-RW DVR-221L Adapter: 1 ID: 1

Read mode : Secure
Utilize accurate stream : Yes
Defeat audio cache : Yes
Make use of C2 pointers : No

Read offset correction : 6
Overread into Lead-In and Lead-Out : No
Fill up missing offset samples with silence : Yes
Delete leading and trailing silent blocks : No
Null samples used in CRC calculations : Yes
Used interface : Native Win32 interface for Win NT & 2000
Gap handling : Appended to previous track

Used output format : User Defined Encoder
Selected bitrate : 1024 kBit/s
Quality : High
Add ID3 tag : No
Command line compressor : C:\Program Files (x86)\Exact Audio Copy\FLAC\FLAC.EXE
Additional command line options : -6 -V -T "COMMENT=Ripped by RRC for new-team org" -T "ARTIST=%artist%" -T "TITLE=%title%" -T "ALBUM=%albumtitle%" -T "DATE=%year%" -T "TRACKNUMBER=%tracknr%" -T "GENRE=%genre%" -T "BAND=%albuminterpret%" -T "ALBUMARTIST=%albuminterpret%" -T "COMPOSER=%composer%" %haslyrics%–tag-from-file=LYRICS="%lyricsfile%"%haslyrics% -T "DISCNUMBER=%cdnumber%" -T "TOTALDISCS=%totalcds%" -T "TOTALTRACKS=%numtracks%" %hascover%–picture="%coverfile%"%hascover% %source%


TOC of the extracted CD

Track | Start | Length | Start sector | End sector
––––––––––––––––––––––––––––-
1 | 0:00.00 | 3:10.03 | 0 | 14252
2 | 3:10.03 | 5:32.05 | 14253 | 39157
3 | 8:42.08 | 4:46.09 | 39158 | 60616
4 | 13:28.17 | 4:37.29 | 60617 | 81420
5 | 18:05.46 | 4:12.72 | 81421 | 100392
6 | 22:18.43 | 3:23.68 | 100393 | 115685
7 | 25:42.36 | 4:17.74 | 115686 | 135034
8 | 30:00.35 | 3:53.42 | 135035 | 152551
9 | 33:54.02 | 3:31.12 | 152552 | 168388
10 | 37:25.14 | 3:30.66 | 168389 | 184204
11 | 40:56.05 | 3:53.03 | 184205 | 201682


Track 1

Filename E:\RRCLtd Rip\01-Who Needs Love (Like That).wav

Pre-gap length 0:00:02.00

Peak level 98.1 %
Extraction speed 2.5 X
Track quality 100.0 %
Test CRC 09167379
Copy CRC 09167379
Track not present in AccurateRip database
Copy OK

Track 2

Filename E:\RRCLtd Rip\02-Take Me Out Of Myself.wav

Peak level 97.8 %
Extraction speed 3.1 X
Track quality 100.0 %
Test CRC 34A9A1CE
Copy CRC 34A9A1CE
Track not present in AccurateRip database
Copy OK

Track 3

Filename E:\RRCLtd Rip\03-Blue Savannah.wav

Peak level 98.0 %
Extraction speed 3.3 X
Track quality 100.0 %
Test CRC 01B913D6
Copy CRC 01B913D6
Track not present in AccurateRip database
Copy OK

Track 4

Filename E:\RRCLtd Rip\04-Atomic.wav

Peak level 98.3 %
Extraction speed 3.6 X
Track quality 100.0 %
Test CRC F5881412
Copy CRC F5881412
Track not present in AccurateRip database
Copy OK

Track 5

Filename E:\RRCLtd Rip\05-Drama!.wav

Peak level 98.0 %
Extraction speed 3.0 X
Track quality 99.9 %
Test CRC B905014C
Copy CRC B905014C
Track not present in AccurateRip database
Copy OK

Track 6

Filename E:\RRCLtd Rip\06-Stop!.wav

Peak level 97.8 %
Extraction speed 3.9 X
Track quality 100.0 %
Test CRC D1DCD65F
Copy CRC D1DCD65F
Track not present in AccurateRip database
Copy OK

Track 7

Filename E:\RRCLtd Rip\07-Love You To The Sky.wav

Peak level 98.1 %
Extraction speed 3.3 X
Track quality 99.9 %
Test CRC 5F2C2568
Copy CRC 5F2C2568
Track not present in AccurateRip database
Copy OK

Track 8

Filename E:\RRCLtd Rip\08-Always.wav

Peak level 97.8 %
Extraction speed 4.3 X
Track quality 100.0 %
Test CRC EE770E1A
Copy CRC EE770E1A
Track not present in AccurateRip database
Copy OK

Track 9

Filename E:\RRCLtd Rip\09-Here I Go Impossible Again.wav

Peak level 97.8 %
Extraction speed 3.3 X
Track quality 99.9 %
Test CRC 71FEC00C
Copy CRC 71FEC00C
Track not present in AccurateRip database
Copy OK

Track 10

Filename E:\RRCLtd Rip\10-Sometimes.wav

Peak level 98.3 %
Extraction speed 4.7 X
Track quality 100.0 %
Test CRC C8588716
Copy CRC C8588716
Track not present in AccurateRip database
Copy OK

Track 11

Filename E:\RRCLtd Rip\11-A Little Respect.wav

Peak level 98.0 %
Extraction speed 3.7 X
Track quality 99.9 %
Test CRC 40177A9A
Copy CRC 40177A9A
Track not present in AccurateRip database
Copy OK


None of the tracks are present in the AccurateRip database

No errors occurred

End of status report

–– CUETools DB Plugin V2.1.6

[CTDB TOCID: s04PgN8XAW9_BvQMdQc1yGdJihI-] found
Submit result: s04PgN8XAW9_BvQMdQc1yGdJihI- has been confirmed
Track | CTDB Status
1 | (12/12) Accurately ripped
2 | (12/12) Accurately ripped
3 | (12/12) Accurately ripped
4 | (12/12) Accurately ripped
5 | (12/12) Accurately ripped
6 | (12/12) Accurately ripped
7 | (12/12) Accurately ripped
8 | (12/12) Accurately ripped
9 | (12/12) Accurately ripped
10 | (12/12) Accurately ripped
11 | (11/12) Accurately ripped


==== Log checksum 047247A363D4FCA068DA63F5B5CDCD1521F09748DE8ED494E2315153EDFF15A8 ====

[CUETools log; Date: 07.04.2020 14:08:54; Version: 2.1.4]
[CTDB TOCID: s04PgN8XAW9_BvQMdQc1yGdJihI-] found.
Track | CTDB Status
1 | (48/48) Accurately ripped
2 | (48/48) Accurately ripped
3 | (48/48) Accurately ripped
4 | (48/48) Accurately ripped
5 | (48/48) Accurately ripped
6 | (48/48) Accurately ripped
7 | (48/48) Accurately ripped
8 | (48/48) Accurately ripped
9 | (48/48) Accurately ripped
10 | (48/48) Accurately ripped
11 | (47/48) Accurately ripped
[AccurateRip ID: 00132010-00a4a987-800a810b] found.
Track [ CRC | V2 ] Status
01 [8d4645c0|1012029c] (00+14/24) Accurately ripped
02 [179e6978|75f7f029] (00+14/24) Accurately ripped
03 [f28e4e6e|8108ff48] (00+14/24) Accurately ripped
04 [07e3507c|d325f63c] (00+14/24) Accurately ripped
05 [06e08b73|3e3f046d] (00+14/24) Accurately ripped
06 [e849ad18|13de74aa] (00+14/24) Accurately ripped
07 [56d298d6|e19e474c] (00+14/24) Accurately ripped
08 [0d9df18f|6913ae85] (00+14/24) Accurately ripped
09 [2361782d|82c85db0] (00+14/24) Accurately ripped
10 [cd931d3f|33ef072b] (00+14/24) Accurately ripped
11 [a408024f|698d864b] (00+13/23) Accurately ripped
Offsetted by -12:
01 [a50bd484] (00/24) No match (V2 was not tested)
02 [99c37afa] (00/24) No match (V2 was not tested)
03 [8f4eb5cd] (00/24) No match (V2 was not tested)
04 [2a9c011c] (00/24) No match (V2 was not tested)
05 [ab52d362] (00/24) No match (V2 was not tested)
06 [341ec614] (00/24) No match (V2 was not tested)
07 [8d7f9376] (00/24) No match (V2 was not tested)
08 [e6be90d8] (00/24) No match (V2 was not tested)
09 [ddad7af2] (00/24) No match (V2 was not tested)
10 [bf35279f] (00/24) No match (V2 was not tested)
11 [0d1c404b] (00/23) No match (V2 was not tested)

Track Peak [ CRC32 ] [W/O NULL] [ LOG ]
– 98,3 [9947D33D] [79A4A343]
01 98,1 [09167379] [772C2517] CRC32
02 97,8 [34A9A1CE] [8F2E2FC4] CRC32
03 98,0 [01B913D6] [DA084F3C] CRC32
04 98,3 [F5881412] [C83AADE7] CRC32
05 98,0 [B905014C] [07745EEC] CRC32
06 97,8 [D1DCD65F] [54176FF8] CRC32
07 98,1 [5F2C2568] [FBF15C2F] CRC32
08 97,8 [EE770E1A] [43C0F35B] CRC32
09 97,8 [71FEC00C] [9E8A7CEF] CRC32
10 98,3 [C8588716] [F2E7E610] CRC32
11 98,0 [40177A9A] [1C36BCA8] CRC32

Thanks to RRC

See also: