Tags
Language
Tags

Étienne Meyer, Les Traversées Baroques - San Marco di Venezia: The Golden Age (2018)

Posted By: ArlegZ
Étienne Meyer, Les Traversées Baroques - San Marco di Venezia: The Golden Age (2018)

Étienne Meyer, Les Traversées Baroques - San Marco di Venezia: The Golden Age (2018)
EAC | FLAC | Image (Cue & Log) ~ 338 Mb | Total time: 72:28 | Scans included
Classical | Label: Pan Classics | ACC 24345 | Recorded: 2017

It is well known that in Venice a "Golden Age" of compositional, vocal, and instrumental musical creativity and virtuosity emerged, and then flourished during the mid-1500s to the mid-1700s. The 16th century experienced a substantial development in the cappella ducale of Saint Mark's, which, until the end of the 17th century, remained the leading center of musical activity in the city. Evidence of this comes from the profusion of significant musicians that it received in that "Golden Age": either as maestri di cappella, or as organists (Claudio Merulo, Andrea and Giovanni Gabrieli), or as virtuoso instrumentalists (the cornet player Giovanni Bassano). Claudio Merulo and Andrea Gabrieli played a decisive role in the simultaneous emergence of Venetian keyboard and stile concertato music. The latter's nephew Giovanni Gabrieli can be thought of as the standard-bearer of the Venetian School as a whole. The cornett virtuoso Giovanni Bassano composed magnificent polychoral motets in stile concertato for the idiosyncratic liturgy found at St Mark's. With such works Bassano emerges as the worthy successor of the Gabrielis. Les Traversees Baroques, on this release, explores all of these composers of the Golden Age.

Performer:
Les Traversées Baroques
Étienne Meyer

Track List:
Giovanni Gabrieli (1557–1612)
01. Confitebor tibi Domine
Giovanni Bassano (c.1558-1617)
02. Viri Sancti
Claudio Merulo (1533-1604)
03. Canzon alla francese, dita la Benvenuta
Giovanni Gabrieli
04. Miserere mei
05. Canzon prima
06. Vox Domini
Andrea Gabrieli (1510-1586)
07. Toccata del nono tono
Giovanni Bassano / Pierluigi da Palestrina
08. Ave Maria
Andrea Gabrieli
09. Eructavit cor meum
Giovanni Bassano
10. Quem vidistis pastores
Giovanni Bassano / Pierluigi da Palestrina
11. Veni dilecte mi
Giovanni Bassano
12. Nativitas tua
Giovanni Gabrieli
13. Canzon terza
14. O Jesu mi dulcissime
Claudio Merulo
15. Canzon a la francese, dita la Bovia
Giovanni Gabrieli
16. Exaudi Deus
Giovanni Bassano
17. Deus, qui beatum Marcum
18. Hodie Christus
19. Ave Regina


Exact Audio Copy V1.3 from 2. September 2016

EAC extraction logfile from 1. January 2020, 1:22

Les Traversées Baroques, Étienne Meyer / San Marco di Venezia - The Golden Age

Used drive : ASUS SDRW-08U7M-U Adapter: 1 ID: 0

Read mode : Secure
Utilize accurate stream : Yes
Defeat audio cache : Yes
Make use of C2 pointers : No

Read offset correction : 6
Overread into Lead-In and Lead-Out : No
Fill up missing offset samples with silence : Yes
Delete leading and trailing silent blocks : No
Null samples used in CRC calculations : Yes
Used interface : Native Win32 interface for Win NT & 2000

Used output format : User Defined Encoder
Selected bitrate : 128 kBit/s
Quality : High
Add ID3 tag : No
Command line compressor : C:\Program Files (x86)\Exact Audio Copy\Flac\flac.exe
Additional command line options : -V -8 -T "Date=%year%" -T "Genre=%genre%" %source%


TOC of the extracted CD

Track | Start | Length | Start sector | End sector
––––––––––––––––––––––––––––-
1 | 0:00.00 | 5:43.50 | 0 | 25774
2 | 5:43.50 | 2:40.41 | 25775 | 37815
3 | 8:24.16 | 3:01.41 | 37816 | 51431
4 | 11:25.57 | 3:55.39 | 51432 | 69095
5 | 15:21.21 | 2:28.58 | 69096 | 80253
6 | 17:50.04 | 5:46.72 | 80254 | 106275
7 | 23:37.01 | 5:38.20 | 106276 | 131645
8 | 29:15.21 | 4:45.73 | 131646 | 153093
9 | 34:01.19 | 3:15.65 | 153094 | 167783
10 | 37:17.09 | 3:09.32 | 167784 | 181990
11 | 40:26.41 | 4:31.02 | 181991 | 202317
12 | 44:57.43 | 3:01.23 | 202318 | 215915
13 | 47:58.66 | 2:28.62 | 215916 | 227077
14 | 50:27.53 | 6:36.41 | 227078 | 256818
15 | 57:04.19 | 2:55.51 | 256819 | 269994
16 | 59:59.70 | 3:29.49 | 269995 | 285718
17 | 63:29.44 | 2:49.48 | 285719 | 298441
18 | 66:19.17 | 2:21.50 | 298442 | 309066
19 | 68:40.67 | 3:00.27 | 309067 | 322593


Range status and errors

Selected range

Filename C:\temp\ACC 24345 - San Marco di Venezia - Les Traversees Baroques, Meyer - 2018\San Marco di Venezia.wav

Peak level 98.6 %
Extraction speed 5.1 X
Range quality 100.0 %
Test CRC B2C9003C
Copy CRC B2C9003C
Copy OK

No errors occurred


AccurateRip summary

Track 1 not present in database
Track 2 not present in database
Track 3 not present in database
Track 4 not present in database
Track 5 not present in database
Track 6 not present in database
Track 7 not present in database
Track 8 not present in database
Track 9 not present in database
Track 10 not present in database
Track 11 not present in database
Track 12 not present in database
Track 13 not present in database
Track 14 not present in database
Track 15 not present in database
Track 16 not present in database
Track 17 not present in database
Track 18 not present in database
Track 19 not present in database

None of the tracks are present in the AccurateRip database

End of status report

==== Log checksum A16D7F0C69973D6D99D3B585B7D48CD085FF50E1D0195087DEB955C748E55897 ====

Étienne Meyer, Les Traversées Baroques - San Marco di Venezia: The Golden Age (2018)

Thanks to the original releaser