Tags
Language
Tags

Evelyn "Champagne" King - Call On Me (1980) [2014, Remastered & Expanded Edition]

Posted By: BlondStyle
Evelyn "Champagne" King - Call On Me (1980) [2014, Remastered & Expanded Edition]

Evelyn "Champagne" King - Call On Me (1980) [2014, Remastered & Expanded Edition]
R&B, Funk/Soul, Quiet Storm, Disco | EAC Rip | FLAC, Img+CUE+LOG+Scans (PNG) | 01:07:36 | 621,95 Mb
Label: RCA/Sony Music/Funkytowngrooves (USA) | Cat.# FTG 359 | Released: 2014-01-01 (1980-09-08)
Evelyn "Champagne" King - Call On Me (1980) [2014, Remastered & Expanded Edition]

"Call on Me" is the 3rd album by the R&B singer Evelyn "Champagne" King, released on RCA Records in 1980. It was produced by Theodore Life and George Tindley. The album peaked at #58 on the R&B albums chart. It also reached #124 on the Billboard 200. It produced the single "Let's Get Funky Tonight". In addition to the eight songs that appeared on the original 1980 LP, the expanded edition of "Call on Me" offers five bonus tracks: the 12” version of “Let’s Get Funky Tonight” and four rarities from the ultra-obscure "Sweet Delight" LP.
~Wikipedia

Evelyn "Champagne" King - Call On Me (1980) [2014, Remastered & Expanded Edition]

King's strong, deep-voiced stylings and sensitive edge are the saving graces on her first album of the '80s. Despite overall sturdy production, many of the melodies simply linger on and on and the arrangements don't have much chance to take off. Besides the sassy "Let's Get Funky Tonight" and the warm, understated "Just a Little Bit of Love," there aren't any particularly memorable moments. The title track is a stale midtempo romp with an embarrassing guest vocal by producer T. Life; "Bedroom Eyes" is accordingly sleepy; and "Talk Don't Hurt Nobody" has a decent lyrical theme, but lacks the musical energy needed to get the lyric across. Whereas the previous year's Music Box relied on formulaic disco tracks, Call on Me tries to establish King in a funkier vein. But the material itself is so arid that the album quickly becomes musically ineffective.
~Review by Justin Kantor

Evelyn "Champagne" King - Call On Me (1980) [2014, Remastered & Expanded Edition]

Evelyn "Champagne" King - Call On Me (1980) [2014, Remastered & Expanded Edition]


Release of the album: 1980, September, 8 [LP RCA Victor, Cat.# AFL1-3543, USA]
Release of this CD: 2014, January, 1 [CD RCA/Sony Music/Funkytowngrooves (USA), Cat.# FTG 359 / UPC: 0810736020612]
℗ 2014 RCA Records, a division of Sony Music Entertainment.
This compilation © 2014 Funkytowngrooves USA.
Distributed by Funkytowngrooves USA.
Manufactured by Sony Music Entertainment


Credits:

Arranged By [Strings And Horns] – George Andrews
Art Direction – J. J. Stelmach
Backing Vocals – Cheryl Paschall Alexander, Garrie Daniels, Judith Spears, Crystal Davis, T. Life, Yolanda McCullough, Veronica Jones
Bass – Will Lee
Bass Guitar – Francisco Centeno
Co-producer – George Tindley (tracks: 1 to 4)
Coordinator [Album] – Karima D. Alibey, Sheila A. Adkins
Coordinator [RCA Album] – Nancy Parisi
Drums – Leo Adamian
Engineer [Assistant] – Ed Sullivan, Gray Russell, Julie Last, Mike Getlin, Steve Marcantonio
Engineer [Head] – Rick Rowe
Executive-Producer – T. Life
Guitar – T. Life
Guitar [Additional] – John Fitch, Thomas McNeil
Keyboards – Nat Lee, Steve Robbins
Lead Guitar – Steve Love
Management [Direction] – Sight & Sound Management
Percussion – Rubens Bassini
Photography By [Cover Photos] – Nick Sangiamo
Producer, Arranged By – T. Life


Tracklist:

01. "Let's Get Funky Tonight" (03:38)
(Evelyn "Champagne" King, Hassan Ali, Kwame Hadi, T. Life)
02. "Your Kind Of Loving'" (03:53)
(Frank Snowden, T. Life)
03. "Call On Me" (05:21)
(Nat Lee, T. Life, T. Life III)
04. "I Need Your Love" (06:30)
(Frank Austin, George Tindley, T. Life)
05. "Talk Don't Hurt Nobody" (06:46)
(Joe Freeman, T. Life)
06. "Just A Little Bit Of Love" (03:46)
(Brian Holland, Edward Holland)
07. "Bedroom Eyes" (04:43)
(W. Seidman, C. Faith)
08. "Universal Girl" (06:03)
(John Fitch, T. Life)

Bonus Tracks:

09. "Let's Get Funky Tonight" (12" Version) (06:43)
(Evelyn "Champagne" King, Hassan Ali, Kwame Hadi, T. Life)
10. "Sweet Delight" (from Deleted Album "Sweet Delight") (05:05)
(Reuben Cross, Howard Jackson)
11. "Long Time Waiting On You" (from Deleted Album "Sweet Delight") (04:58)
(T. Life, Thomas McNeil)
12. "Is It Good" (from Deleted Album "Sweet Delight") (06:03)
(T. Life, George Tindley)
13. "I Love You" (from Deleted Album "Sweet Delight") (04:07)
(Reuben Cross, Cyndy Perrene)

Exact Audio Copy V1.3 from 2. September 2016

EAC extraction logfile from 25. September 2021, 20:50

Evelyn ''Champagne'' King / Call On Me (Expanded Edition)

Used drive : PIONEER BD-RW BDR-208D Adapter: 1 ID: 0

Read mode : Secure
Utilize accurate stream : Yes
Defeat audio cache : Yes
Make use of C2 pointers : No

Read offset correction : 667
Overread into Lead-In and Lead-Out : No
Fill up missing offset samples with silence : Yes
Delete leading and trailing silent blocks : No
Null samples used in CRC calculations : Yes
Used interface : Native Win32 interface for Win NT & 2000

Used output format : Internal WAV Routines
Sample format : 44.100 Hz; 16 Bit; Stereo


TOC of the extracted CD

Track | Start | Length | Start sector | End sector
––––––––––––––––––––––––––––-
1 | 0:00.00 | 3:38.01 | 0 | 16350
2 | 3:38.01 | 3:53.13 | 16351 | 33838
3 | 7:31.14 | 5:20.58 | 33839 | 57896
4 | 12:51.72 | 6:30.25 | 57897 | 87171
5 | 19:22.22 | 6:45.70 | 87172 | 117616
6 | 26:08.17 | 3:45.48 | 117617 | 134539
7 | 29:53.65 | 4:43.00 | 134540 | 155764
8 | 34:36.65 | 6:02.67 | 155765 | 182981
9 | 40:39.57 | 6:42.55 | 182982 | 213186
10 | 47:22.37 | 5:04.56 | 213187 | 236042
11 | 52:27.18 | 4:58.17 | 236043 | 258409
12 | 57:25.35 | 6:03.24 | 258410 | 285658
13 | 63:28.59 | 4:07.24 | 285659 | 304207


Range status and errors

Selected range

Filename D:\BlondStyle\Call On Me (Expanded Edition).wav

Peak level 100.0 %
Extraction speed 7.5 X
Range quality 100.0 %
Test CRC EC818D06
Copy CRC EC818D06
Copy OK

No errors occurred


AccurateRip summary

Track 1 accurately ripped (confidence 8) [AC1BFE92] (AR v2)
Track 2 accurately ripped (confidence 9) [3E2278B1] (AR v2)
Track 3 accurately ripped (confidence 9) [23B2F485] (AR v2)
Track 4 accurately ripped (confidence 9) [6DBBDD8F] (AR v2)
Track 5 accurately ripped (confidence 9) [38E185D9] (AR v2)
Track 6 accurately ripped (confidence 8) [DC13E262] (AR v2)
Track 7 accurately ripped (confidence 8) [007B31A4] (AR v2)
Track 8 accurately ripped (confidence 9) [72FB16C0] (AR v2)
Track 9 accurately ripped (confidence 9) [6891D307] (AR v2)
Track 10 accurately ripped (confidence 8) [7F389C8E] (AR v2)
Track 11 accurately ripped (confidence 8) [95568B2C] (AR v2)
Track 12 accurately ripped (confidence 8) [C159092D] (AR v2)
Track 13 accurately ripped (confidence 7) [242D82AB] (AR v2)

All tracks accurately ripped

End of status report

–– CUETools DB Plugin V2.1.6

[CTDB TOCID: FAkTvGOV0LsCH3tltwoNTEuUeYI-] found
Submit result: FAkTvGOV0LsCH3tltwoNTEuUeYI- has been confirmed
Track | CTDB Status
1 | (6/6) Accurately ripped
2 | (6/6) Accurately ripped
3 | (6/6) Accurately ripped
4 | (6/6) Accurately ripped
5 | (6/6) Accurately ripped
6 | (6/6) Accurately ripped
7 | (6/6) Accurately ripped
8 | (6/6) Accurately ripped
9 | (6/6) Accurately ripped
10 | (6/6) Accurately ripped
11 | (6/6) Accurately ripped
12 | (6/6) Accurately ripped
13 | (6/6) Accurately ripped


==== Log checksum CEE9E8B0C8ED9F06BFA8EDA976A35634901D28228550F4E5BACF56640EA118C9 ====

––––––––––––––––––––––––––––––––––––––––
Analyzed: Evelyn ''Champagne'' King / Call On Me (Expanded Edition)
––––––––––––––––––––––––––––––––––––––––

DR Peak RMS Duration Track
––––––––––––––––––––––––––––––––––––––––
DR10 0.00 dB -11.05 dB 3:38 01-Let's Get Funky Tonight
DR10 0.00 dB -11.62 dB 3:53 02-Your Kind Of Loving
DR11 0.00 dB -12.35 dB 5:21 03-Call On Me
DR11 0.00 dB -13.21 dB 6:30 04-I Need Your Love
DR10 0.00 dB -11.69 dB 6:46 05-Talk Don't Hurt Nobody
DR9 0.00 dB -11.13 dB 3:46 06-Just A Little Bit Of Love
DR10 0.00 dB -11.77 dB 4:43 07-Bedroom Eyes
DR9 0.00 dB -11.09 dB 6:03 08-Universal Girl
DR11 0.00 dB -12.76 dB 6:43 09-Let's Get Funky Tonight (12'' Version) (Bonus Track)
DR10 -0.11 dB -11.75 dB 5:05 10-Sweet Delight (Bonus Track)
DR11 -0.15 dB -12.10 dB 4:58 11-Long Time Waiting On You (Bonus Track)
DR10 -0.13 dB -11.89 dB 6:03 12-Is It Good (Bonus Track)
DR10 -0.09 dB -11.55 dB 4:07 13-I Love You (Bonus Track)
––––––––––––––––––––––––––––––––––––––––

Number of tracks: 13
Official DR value: DR10

Samplerate: 44100 Hz
Channels: 2
Bits per sample: 16
Bitrate: 988 kbps
Codec: FLAC
================================================================================

See also:
Get Loose (1982) [2010, Remastered & Expanded]
The Best Of Evelyn "Champagne" King (1990)
The Complete RCA Hits And More! [2CD] (2016)

♫~Welcome To My Blog~♫

password: BlondStyle