Tags
Language
Tags

Evelyn King - Get Loose (1982) [2010, Remastered & Expanded Edition]

Posted By: BlondStyle
Evelyn King - Get Loose (1982) [2010, Remastered & Expanded Edition]

Evelyn King - Get Loose (1982) [2010, Remastered & Expanded Edition]
R&B, Soul/Funk, Electronic, Post-Disco | EAC Rip | FLAC, Tracks+CUE+LOG+Scans (JPEG) | 64:40 | 651,37 Mb
Label: Big Break Records (UK) | Cat.# CDBBR 0006 | Released: 2010-06-07 (1982-08-11)
Evelyn King - Get Loose (1982) [2010, Remastered & Expanded Edition]

"Get Loose" is the 5th studio album by American singer Evelyn King, released on the RCA label in August 11, 1982. It was produced by Morrie Brown, Kashif and Paul Lawrence Jones III. The album peaked at #1 on the R&B albums chart. It also reached #27 on the Billboard 200. It produced the hit singles "Love Come Down", "Betcha She Don't Love You", "Back to Love", and "Get Loose". The album was certified Double Platinum by the RIAA. The album was digitally remastered and reissued on CD with 4 bonus tracks in 2010 by Big Break Records and Sony Music Legacy.
~Wikipedia
Hot off the heels of her successful comeback album, I'm in Love, Evelyn "Champagne" King was in her commercial prime when Get Loose hit stores in 1982. One of the earliest R&B/funk female vocalists to use the music video medium (for 1981's "I'm in Love"), she was frequently on airwaves in the early '80s with songs found here like "Love Come Down" and "Betcha She Don't Love You." The romantic lyrics and celestial keyboard layerings against a steady funk beat on "Love Come Down" were expertly layed down by Kashif, who would become a prominent R&B producer and artist in his own right. His stamp is also on many of the album's other cuts, though Morrie Brown is the album's actual producer. "Betcha" is another unique number -- a down-paced dancefloor ditty with a rock-friendly chorus and vocal arrangement. Meanwhile the title track is a colorful up-tempo number that hearkens back slightly to 1977's "Shame." Equally appealing are the refined "Back to Love" and "I'm Just Warmin' Up," the album's soothing closer. King sounds fresh and stylish throughout, making Get Loose one of her strongest efforts.
~Review by Justin Kantor

Evelyn King - Get Loose (1982) [2010, Remastered & Expanded Edition]

Evelyn King - Get Loose (1982) [2010, Remastered & Expanded Edition]




Release of the album: 1982, August, 11 [LP RCA Victor, Cat.# AFL1-4337, USA]
Release of this CD: 2010, June, 7 [CD Big Break Records (UK), Cat.# CDBBR 0006 / UPC: 5013929030626]
℗ 1982. This compilation ℗&© 2010 Big Break Records. All tracks licensed from Sony Music Entertainment UK Ltd.
Marketed and Distributed by Cherry Red Records Ltd.
Made in EU/MCPS


Credits:

Booklet Editor – Christian John Wikane, David Steel
Design [BBR Logo Designs] – Colin Elliot
Design [Cd Booklet] – Paul Bevoir
Engineer [Chief] – Steve Goldman
Liner Notes – Michal L. Bednarek
Producer – Morrie Brown
Producer [Assistant] – Kashif, Paul Lawrence Jones III
Reissue Producer, Remastered By [Digitally], Research, Interviewer – Wayne A. Dickson
Sleeve [Original Credits Transribed] – Leon Fort
Transferred By [Bonus Tracks] – Alan Wilson


Tracklist:

01. Love Come Down (06:05)
(Kashif)
02. I Can't Stand It (03:59)
(Paul Lawrence Jones III)
03. Betcha She Don't Love You (04:58)
(Kashif)
04. Get Loose (04:43)
(Paul Lawrence Jones III)
05. Back To Love (05:12)
(Kashif)
06. Stop That (06:31)
(Paul Lawrence Jones III)
07. Get Up Off Your Love (04:31)
(Paul Lawrence Jones III, Arthur "Sonny" Moore)
08. I'm Just Warmin' Up (04:19)
(Barbara Wyrick)

Bonus Tracks:

09. Love Come Down (12" Version) (06:14)
(Kashif)
10. Get Loose (12" Vocal Mix) (05:31)
(Paul Lawrence Jones III)
11. Betcha She Don't Love You (12" Instrumental Mix) (06:17)
(Kashif)
12. Love Come Down (12" Instrumental Mix) (05:55)
(Kashif)

Exact Audio Copy V1.0 beta 3 from 29. August 2011

EAC extraction logfile from 28. April 2015, 11:34

Evelyn King / Get Loose

Used drive : ATAPI DVD A DH16A6L-C Adapter: 2 ID: 0

Read mode : Secure
Utilize accurate stream : Yes
Defeat audio cache : Yes
Make use of C2 pointers : No

Read offset correction : 6
Overread into Lead-In and Lead-Out : No
Fill up missing offset samples with silence : Yes
Delete leading and trailing silent blocks : No
Null samples used in CRC calculations : Yes
Used interface : Native Win32 interface for Win NT & 2000
Gap handling : Appended to previous track

Used output format : User Defined Encoder
Selected bitrate : 1024 kBit/s
Quality : High
Add ID3 tag : No
Command line compressor : C:\Program Files\FLAC\flac.exe
Additional command line options : -8 -V -T "ARTIST=%artist%" -T "TITLE=%title%" -T "ALBUM=%albumtitle%" -T "DATE=%year%" -T "TRACKNUMBER=%tracknr%" -T "GENRE=%genre%" -T "PERFORMER=%albuminterpret%" -T "COMPOSER=%composer%" %haslyrics%–tag-from-file=LYRICS="%lyricsfile%"%haslyrics% -T "ALBUMARTIST=%albumartist%" -T "DISCNUMBER=%cdnumber%" -T "TOTALDISCS=%totalcds%" -T "TOTALTRACKS=%numtracks%" -T "COMMENT=%comment%" %source% -o %dest%


TOC of the extracted CD

Track | Start | Length | Start sector | End sector
––––––––––––––––––––––––––––-
1 | 0:00.00 | 6:07.57 | 0 | 27581
2 | 6:07.57 | 4:01.68 | 27582 | 45724
3 | 10:09.50 | 5:00.73 | 45725 | 68297
4 | 15:10.48 | 4:45.00 | 68298 | 89672
5 | 19:55.48 | 5:14.05 | 89673 | 113227
6 | 25:09.53 | 6:33.64 | 113228 | 142766
7 | 31:43.42 | 4:34.03 | 142767 | 163319
8 | 36:17.45 | 4:20.50 | 163320 | 182869
9 | 40:38.20 | 6:15.56 | 182870 | 211050
10 | 46:54.01 | 5:33.57 | 211051 | 236082
11 | 52:27.58 | 6:19.55 | 236083 | 264562
12 | 58:47.38 | 5:52.42 | 264563 | 291004


Track 1

Filename H:\0\………………00\post\Evelyn King - Get Loose (1982) [2010 Expanded]\01 - Love Come Down.wav

Pre-gap length 0:00:02.00

Peak level 100.0 %
Extraction speed 3.8 X
Track quality 100.0 %
Test CRC BFEBBDF1
Copy CRC BFEBBDF1
Accurately ripped (confidence 6) [71B2566B] (AR v2)
Copy OK

Track 2

Filename H:\0\………………00\post\Evelyn King - Get Loose (1982) [2010 Expanded]\02 - I Can't Stand It.wav

Pre-gap length 0:00:02.00

Peak level 100.0 %
Extraction speed 4.1 X
Track quality 100.0 %
Test CRC 60EB5A9F
Copy CRC 60EB5A9F
Accurately ripped (confidence 6) [C9FBF1F3] (AR v2)
Copy OK

Track 3

Filename H:\0\………………00\post\Evelyn King - Get Loose (1982) [2010 Expanded]\03 - Becha She Don't Love You.wav

Pre-gap length 0:00:02.00

Peak level 100.0 %
Extraction speed 4.5 X
Track quality 100.0 %
Test CRC B924574E
Copy CRC B924574E
Accurately ripped (confidence 6) [85E6A38E] (AR v2)
Copy OK

Track 4

Filename H:\0\………………00\post\Evelyn King - Get Loose (1982) [2010 Expanded]\04 - Get Loose.wav

Pre-gap length 0:00:02.00

Peak level 100.0 %
Extraction speed 4.9 X
Track quality 100.0 %
Test CRC 1FA55D82
Copy CRC 1FA55D82
Accurately ripped (confidence 6) [017FC16F] (AR v2)
Copy OK

Track 5

Filename H:\0\………………00\post\Evelyn King - Get Loose (1982) [2010 Expanded]\05 - Back To Love.wav

Pre-gap length 0:00:02.00

Peak level 100.0 %
Extraction speed 4.4 X
Track quality 99.9 %
Test CRC 8F45AA0C
Copy CRC 8F45AA0C
Accurately ripped (confidence 6) [88581BC2] (AR v2)
Copy OK

Track 6

Filename H:\0\………………00\post\Evelyn King - Get Loose (1982) [2010 Expanded]\06 - Stop That.wav

Pre-gap length 0:00:02.00

Peak level 100.0 %
Extraction speed 5.8 X
Track quality 100.0 %
Test CRC A7197E46
Copy CRC A7197E46
Accurately ripped (confidence 6) [E3507357] (AR v2)
Copy OK

Track 7

Filename H:\0\………………00\post\Evelyn King - Get Loose (1982) [2010 Expanded]\07 - Get Up Off Your Love.wav

Pre-gap length 0:00:02.00

Peak level 100.0 %
Extraction speed 5.9 X
Track quality 100.0 %
Test CRC AA36AC0A
Copy CRC AA36AC0A
Accurately ripped (confidence 6) [3BECCC1F] (AR v2)
Copy OK

Track 8

Filename H:\0\………………00\post\Evelyn King - Get Loose (1982) [2010 Expanded]\08 - I'm Just Warmin' Up.wav

Pre-gap length 0:00:02.00

Peak level 100.0 %
Extraction speed 6.2 X
Track quality 100.0 %
Test CRC D3257B90
Copy CRC D3257B90
Accurately ripped (confidence 6) [D2B32D0D] (AR v2)
Copy OK

Track 9

Filename H:\0\………………00\post\Evelyn King - Get Loose (1982) [2010 Expanded]\09 - Love Come Down 12''.wav

Pre-gap length 0:00:02.00

Peak level 100.0 %
Extraction speed 5.8 X
Track quality 99.9 %
Test CRC 33CB07D2
Copy CRC 33CB07D2
Accurately ripped (confidence 6) [09B464C1] (AR v2)
Copy OK

Track 10

Filename H:\0\………………00\post\Evelyn King - Get Loose (1982) [2010 Expanded]\10 - Get Loose 12''.wav

Pre-gap length 0:00:02.00

Peak level 100.0 %
Extraction speed 6.9 X
Track quality 100.0 %
Test CRC 7BA2BBB4
Copy CRC 7BA2BBB4
Accurately ripped (confidence 6) [BDF18FC7] (AR v2)
Copy OK

Track 11

Filename H:\0\………………00\post\Evelyn King - Get Loose (1982) [2010 Expanded]\11 - Becha She Don't Love You 12'' Inst..wav

Pre-gap length 0:00:02.00

Peak level 100.0 %
Extraction speed 7.3 X
Track quality 100.0 %
Test CRC 1774FD99
Copy CRC 1774FD99
Accurately ripped (confidence 6) [FB6F1A57] (AR v2)
Copy OK

Track 12

Filename H:\0\………………00\post\Evelyn King - Get Loose (1982) [2010 Expanded]\12 - Love Come Down 12'' Inst..wav

Pre-gap length 0:00:02.00

Peak level 100.0 %
Extraction speed 6.2 X
Track quality 99.9 %
Test CRC 7F118E27
Copy CRC 7F118E27
Accurately ripped (confidence 6) [A3A382E9] (AR v2)
Copy OK


All tracks accurately ripped

No errors occurred

End of status report

==== Log checksum FB828D489B629A258D6A1624250BE788B547C21CCCF60A9F8B22C77EE36440B5 ====

––––––––––––––––––––––––––––––––––––––––
Analyzed: Evelyn King / Get Loose
––––––––––––––––––––––––––––––––––––––––

DR Peak RMS Duration Track
––––––––––––––––––––––––––––––––––––––––
DR7 0.00 dB -8.29 dB 6:08 01-Love Come Down
DR9 0.00 dB -10.28 dB 4:02 02-I Can't Stand It
DR7 0.00 dB -8.90 dB 5:01 03-Becha She Don't Love You
DR8 0.00 dB -9.40 dB 4:45 04-Get Loose
DR7 0.00 dB -8.70 dB 5:14 05-Back To Love
DR8 0.00 dB -9.78 dB 6:34 06-Stop That
DR9 0.00 dB -10.95 dB 4:34 07-Get Up Off Your Love
DR8 0.00 dB -10.19 dB 4:21 08-I'm Just Warmin' Up
DR7 0.00 dB -8.37 dB 6:16 09-Love Come Down 12'
DR7 0.00 dB -8.55 dB 5:34 10-Get Loose 12'
DR9 0.00 dB -9.87 dB 6:20 11-Becha She Don't Love You 12' Inst.
DR9 0.00 dB -10.05 dB 5:53 12-Love Come Down 12' Inst.
––––––––––––––––––––––––––––––––––––––––

Number of tracks: 12
Official DR value: DR8

Samplerate: 44100 Hz
Channels: 2
Bits per sample: 16
Bitrate: 941 kbps
Codec: FLAC
================================================================================

Thanks to the original releaser

See also:
Evelyn King - I'm In Love (198...stered & Expanded Edition]
Evelyn "Champagne" K...stered & Expanded Edition]
Evelyn "Champagne" K...ot;Champagne" King (1990)

♫~Welcome To My Blog~♫

password: BlondStyle