Subcategories

Evgeny Kissin - Haydn, Schubert: Piano Sonatas (1995)

Posted By: tirexiss
Evgeny Kissin - Haydn, Schubert: Piano Sonatas (1995)

Evgeny Kissin - Haydn, Schubert: Piano Sonatas (1995)
EAC | FLAC (image+.cue, log) | Covers Included | 01:02:14 | 206 MB
Genre: Classical | Label: Sony Classical | Catalog: 64538

Kissin still looks very much the boy in the cover photo of this 1994 recital, one of the earliest follow-ups to his rapturously received Chopin recitals, also on RCA. He is jsut as phenomenal here. His commanding technique is reined in for the two Haydn sonatas, yet he presses just enough on the classical line to make it sound more vibrant and enticing.
Richter made a great specialty of the Schubert A minor Sonata D. 784, yet Kissin steps up with his own less haunted, more heroic interpretation–it works extremely well. Both pianists rescue Schubert from his cliched role as a lyrical innocent, revealing his underlying Beethovenian aspirations.
But really the most fun here is Tausig's barnstorming arrangment of the familiar Schubert March Militaire, a baby piece that gets transformed into Godzilla–it's a grotesque change but an irresistible adventure. Kissin tosses off the murderous passagework and cross-ahnd prestidigitation as if they were child's play. Meanwhile, the listener sits agape and thrilled to death.

Evgeny Kissin - Haydn, Schubert: Piano Sonatas (1995)

Track List:

Joseph Haydn (1732-1809):
01. Keyboard Sonata in A major, H. 16/30 [0:13:17.70]
02. Keyboard Sonata in E flat major, H. 16/52: Allegro (moderato) [0:07:37.10]
03. Keyboard Sonata in E flat major, H. 16/52: Adagio [0:06:58.42]
04. Keyboard Sonata in E flat major, H. 16/52: Finale. Presto [0:05:11.15]
Franz Schubert (1797-1828):
05. Piano Sonata No. 14 in A minor ("Grande Sonate"), D. 784 (Op. posth. 143): Allegro giusto [0:13:32.50]
06. Piano Sonata No. 14 in A minor ("Grande Sonate"), D. 784 (Op. posth. 143): Andante [0:04:12.03]
07. Piano Sonata No. 14 in A minor ("Grande Sonate"), D. 784 (Op. posth. 143): Allegro vivace [0:05:20.62]
08. Marches Militaires (3) for piano, 4 hands, D. 733 (Op. 51): No 1 No 1~arranged by Carl Tausig [0:06:02.33]

Performers:
Evgeny Kissin - piano

Exact Audio Copy V1.0 beta 3 from 29. August 2011

EAC extraction logfile from 14. August 2013, 21:38

Evgeny Kissin / Haydn, Schubert - Piano Sonatas - Evgeny Kissin

Used drive : TSSTcorpCDDVDW SH-222BB Adapter: 2 ID: 1

Read mode : Secure
Utilize accurate stream : Yes
Defeat audio cache : Yes
Make use of C2 pointers : No

Read offset correction : 6
Overread into Lead-In and Lead-Out : No
Fill up missing offset samples with silence : Yes
Delete leading and trailing silent blocks : No
Null samples used in CRC calculations : Yes
Used interface : Native Win32 interface for Win NT & 2000

Used output format : User Defined Encoder
Selected bitrate : 1024 kBit/s
Quality : High
Add ID3 tag : No
Command line compressor : C:\Program Files\Exact Audio Copy\Flac\flac.exe
Additional command line options : -8 -V -T "TITLE=%title%" -T "ARTIST=%artist%" -T "ALBUMARTIST=%albumartist%" -T "ALBUM=%albumtitle%" -T "DATE=%year%" -T "TRACKNUMBER=%tracknr%" -T "TRACKTOTAL=%numtracks%" -T "GENRE=%genre%" -T "COMMENT=%comment%" -T "PERFORMER=%albuminterpret%" -T "COMPOSER=%composer%" %source% -o %dest%


TOC of the extracted CD

Track | Start | Length | Start sector | End sector
––––––––––––––––––––––––––––-
1 | 0:00.00 | 13:17.70 | 0 | 59844
2 | 13:17.70 | 7:37.10 | 59845 | 94129
3 | 20:55.05 | 6:58.42 | 94130 | 125521
4 | 27:53.47 | 5:11.15 | 125522 | 148861
5 | 33:04.62 | 13:32.50 | 148862 | 209811
6 | 46:37.37 | 4:12.03 | 209812 | 228714
7 | 50:49.40 | 5:20.62 | 228715 | 252776
8 | 56:10.27 | 6:02.33 | 252777 | 279959


Range status and errors

Selected range

Filename G:\Ripped general\[2372] Haydn, Schubert – Piano Sonatas – Evgeny Kissin\Haydn, Schubert - Piano Sonatas - Evgeny Kissin.wav

Peak level 100.0 %
Extraction speed 7.1 X
Range quality 100.0 %
Test CRC DEB3E231
Copy CRC DEB3E231
Copy OK

No errors occurred


AccurateRip summary

Track 1 accurately ripped (confidence 4) [A9C951AA] (AR v2)
Track 2 accurately ripped (confidence 4) [1F2F0D1F] (AR v2)
Track 3 accurately ripped (confidence 4) [EE8B0B15] (AR v2)
Track 4 accurately ripped (confidence 4) [6AD01272] (AR v2)
Track 5 accurately ripped (confidence 4) [35C5CE5B] (AR v2)
Track 6 accurately ripped (confidence 4) [A36BEA9F] (AR v2)
Track 7 accurately ripped (confidence 4) [EA96BD87] (AR v2)
Track 8 accurately ripped (confidence 4) [D68CE5E2] (AR v2)

All tracks accurately ripped

End of status report

Thanks to the Original ripper (unknown)!

Welcome to my blog!

Download: