Tags
Language
Tags

Exodus - Persona Non Grata (2021)

Posted By: v3122
Exodus - Persona Non Grata (2021)

Exodus - Persona Non Grata (2021)
Flac(Image) + Cue & MP3 CBR 320Kbps
Nuclear Blast, NB 4159-0 | ~ 451 or 140 Mb
Blu-ray: MPEG-4 AVC 1080p, 24 fps, 16:9, High Profile 4.1 | LPCM 2.0
Thrash Metal, Heavy Metal

Thrash metal pioneers and masters of the craft Exodus take time off from their 7-year studio break to deliver a politically charged, adrenaline steeped, hour long sonic boot to the face of the competition to shake up the 2020s…
Exodus - Persona Non Grata (2021):

Tracklist CD:

01. Persona Non Grata (7:31)
02. R.E.M.F. (4:22)
03. Slipping into Madness (5:33)
04. Elitist (3:58)
05. Prescribing Horror (5:10)
06. The Beatings Will Continue (Until Morale Improves) (3:01)
07. The Years of Death and Dying (5:23)
08. Clickbait (4:31)
09. Cosa del Pantano (1:13)
10. Lunatic-Liar-Lord (7:59)
11. The Fires of Division (5:23)
12. Antiseed (6:18)

[CUETools log; Date: 25.11.2021 16:33:29; Version: 2.1.4]
[AccurateRip ID: 001af708-00f79533-b20e260c] disk not present in database.

Track Peak [ CRC32 ] [W/O NULL]
– 100,0 [FADE58F5] [88C4ED41]
01 100,0 [7716EFA8] [0CBDDDB9]
02 100,0 [A448E3A9] [1AE9A8F2]
03 100,0 [D77E0503] [E3640313]
04 100,0 [7A67545F] [F7C091BE]
05 100,0 [205BCFD9] [DBAACB1A]
06 100,0 [9F921923] [0066F392]
07 100,0 [D3B13BD6] [D21D6D9C]
08 100,0 [DA549895] [5DBF7556]
09 35,0 [405251F5] [FDB38B64]
10 100,0 [07BAD8F3] [F59A38AA]
11 100,0 [968605C5] [A7884E50]
12 100,0 [C51A7CA0] [20A688DB]


Tracklist BD:

01 Welcome To Jam Camp!
02 Rehearsals In The Mountains
03 Jack Gibson
04 Zetro Joins jam Camp!
05 Lee Altus
06 Toms Massive Flexibility
07 Lotta different Zetro
08 Crazy Drum World
09 Persona Non Grata
10 The Bay Strikes Back
11 Post-Pandemic Touring
12 Breathing Smoke ToMake Smoking Songs
13 End Credits

Disc Label: Exodus 2021 - Persona Non Grata - BD
Disc Size: 17,405,503,823 bytes
Protection: AACS
Extras: BD-Java
BDInfo: 0.7.5.5

Notes:

BDINFO HOME:
Cinema Squid (old)
http://www.cinemasquid.com/blu-ray/tools/bdinfo
UniqProject GitHub (new)
https://github.com/UniqProject/BDInfo

INCLUDES FORUMS REPORT FOR:
AVS Forum Blu-ray Audio and Video Specifications Thread
http://www.avsforum.com/avs-vb/showthread.php?t=1155731

WARNING: Report is incomplete because: Scan has not been run.

********************
PLAYLIST: 01002.MPLS
********************

<–- BEGIN FORUMS PASTE –->
                                                                                                                Total   Video                                             
Title                                                           Codec   Length  Movie Size      Disc Size       Bitrate Bitrate Main Audio Track                          Secondary Audio Track
-----                                                           ------  ------- --------------  --------------  ------- ------- ------------------                        ---------------------
01002.MPLS                                                      AVC     1:08:40 0               17,405,503,823  0.00    0.00    LPCM 2.0 1536Kbps (48kHz/16-bit)          


DISC INFO:

Disc Label:     Exodus 2021 - Persona Non Grata - BD
Disc Size:      17,405,503,823 bytes
Protection:     AACS
Extras:         BD-Java
BDInfo:         0.7.5.5

PLAYLIST REPORT:

Name:                   01002.MPLS
Length:                 1:08:40.291 (h:m:s.ms)
Size:                   0 bytes
Total Bitrate:          0.00 Mbps

VIDEO:

Codec                   Bitrate             Description     
-----                   -------             -----------     
MPEG-4 AVC Video        0 kbps              1080p / 24 fps / 16:9 / High Profile 4.1

AUDIO:

Codec                           Language        Bitrate         Description     
-----                           --------        -------         -----------     
LPCM Audio                      Undetermined    1536 kbps       2.0 / 48 kHz /  1536 kbps / 16-bit

FILES:

Name            Time In         Length          Size            Total Bitrate   
----            -------         ------          ----            -------------   
00002.M2TS      0:00:00.000     1:08:39.875     0               0               
00003.M2TS      1:08:39.875     0:00:00.416     0               0               

CHAPTERS:

Number          Time In         Length          Avg Video Rate  Max 1-Sec Rate  Max 1-Sec Time  Max 5-Sec Rate  Max 5-Sec Time  Max 10Sec Rate  Max 10Sec Time  Avg Frame Size  Max Frame Size  Max Frame Time  
------          -------         ------          --------------  --------------  --------------  --------------  --------------  --------------  --------------  --------------  --------------  --------------  
1               0:00:00.000     0:00:28.000     0 kbps          0 kbps          00:00:00.000    0 kbps          00:00:00.000    0 kbps          00:00:00.000    0 bytes         0 bytes         00:00:00.000    
2               0:00:28.000     0:08:32.000     0 kbps          0 kbps          00:00:00.000    0 kbps          00:00:00.000    0 kbps          00:00:00.000    0 bytes         0 bytes         00:00:00.000    
3               0:09:00.000     0:07:06.000     0 kbps          0 kbps          00:00:00.000    0 kbps          00:00:00.000    0 kbps          00:00:00.000    0 bytes         0 bytes         00:00:00.000    
4               0:16:06.000     0:05:04.000     0 kbps          0 kbps          00:00:00.000    0 kbps          00:00:00.000    0 kbps          00:00:00.000    0 bytes         0 bytes         00:00:00.000    
5               0:21:10.000     0:06:09.000     0 kbps          0 kbps          00:00:00.000    0 kbps          00:00:00.000    0 kbps          00:00:00.000    0 bytes         0 bytes         00:00:00.000    
6               0:27:19.000     0:05:00.000     0 kbps          0 kbps          00:00:00.000    0 kbps          00:00:00.000    0 kbps          00:00:00.000    0 bytes         0 bytes         00:00:00.000    
7               0:32:19.000     0:06:03.000     0 kbps          0 kbps          00:00:00.000    0 kbps          00:00:00.000    0 kbps          00:00:00.000    0 bytes         0 bytes         00:00:00.000    
8               0:38:22.000     0:07:15.000     0 kbps          0 kbps          00:00:00.000    0 kbps          00:00:00.000    0 kbps          00:00:00.000    0 bytes         0 bytes         00:00:00.000    
9               0:45:37.000     0:09:43.000     0 kbps          0 kbps          00:00:00.000    0 kbps          00:00:00.000    0 kbps          00:00:00.000    0 bytes         0 bytes         00:00:00.000    
10              0:55:20.000     0:08:11.000     0 kbps          0 kbps          00:00:00.000    0 kbps          00:00:00.000    0 kbps          00:00:00.000    0 bytes         0 bytes         00:00:00.000    
11              1:03:31.000     0:02:48.000     0 kbps          0 kbps          00:00:00.000    0 kbps          00:00:00.000    0 kbps          00:00:00.000    0 bytes         0 bytes         00:00:00.000    
12              1:06:19.000     0:01:30.000     0 kbps          0 kbps          00:00:00.000    0 kbps          00:00:00.000    0 kbps          00:00:00.000    0 bytes         0 bytes         00:00:00.000    
13              1:07:49.000     0:00:51.291     0 kbps          0 kbps          00:00:00.000    0 kbps          00:00:00.000    0 kbps          00:00:00.000    0 bytes         0 bytes         00:00:00.000    

STREAM DIAGNOSTICS:

File            PID             Type            Codec           Language                Seconds                 Bitrate                 Bytes           Packets         
----            ---             ----            -----           --------                --------------          --------------          -------------   -----           
00002.M2TS      4113 (0x1011)   0x1B            AVC                                     0.625                   0                       0               0               
00002.M2TS      4352 (0x1100)   0x80            LPCM            und (Undetermined)      0.625                   0                       0               0               
00003.M2TS      4113 (0x1011)   0x1B            AVC                                     0                       0                       0               0               

<–– END FORUMS PASTE ––>

QUICK SUMMARY:

Disc Label: Exodus 2021 - Persona Non Grata - BD
Disc Size: 17,405,503,823 bytes
Protection: AACS
Playlist: 01002.MPLS
Size: 0 bytes
Length: 1:08:40.291
Total Bitrate: 0.00 Mbps
Video: MPEG-4 AVC Video / 0 kbps / 1080p / 24 fps / 16:9 / High Profile 4.1
Audio: Undetermined / LPCM Audio / 2.0 / 48 kHz / 1536 kbps / 16-bit


********************
PLAYLIST: 00002.MPLS
********************

<–- BEGIN FORUMS PASTE –->
                                                                                                                Total   Video                                             
Title                                                           Codec   Length  Movie Size      Disc Size       Bitrate Bitrate Main Audio Track                          Secondary Audio Track
-----                                                           ------  ------- --------------  --------------  ------- ------- ------------------                        ---------------------
00002.MPLS                                                      AVC     1:08:39 0               17,405,503,823  0.00    0.00    LPCM 2.0 1536Kbps (48kHz/16-bit)          


DISC INFO:

Disc Label:     Exodus 2021 - Persona Non Grata - BD
Disc Size:      17,405,503,823 bytes
Protection:     AACS
Extras:         BD-Java
BDInfo:         0.7.5.5

PLAYLIST REPORT:

Name:                   00002.MPLS
Length:                 1:08:39.875 (h:m:s.ms)
Size:                   0 bytes
Total Bitrate:          0.00 Mbps

VIDEO:

Codec                   Bitrate             Description     
-----                   -------             -----------     
MPEG-4 AVC Video        0 kbps              1080p / 24 fps / 16:9 / High Profile 4.1

AUDIO:

Codec                           Language        Bitrate         Description     
-----                           --------        -------         -----------     
LPCM Audio                      Undetermined    1536 kbps       2.0 / 48 kHz /  1536 kbps / 16-bit

FILES:

Name            Time In         Length          Size            Total Bitrate   
----            -------         ------          ----            -------------   
00002.M2TS      0:00:00.000     1:08:39.875     0               0               

CHAPTERS:

Number          Time In         Length          Avg Video Rate  Max 1-Sec Rate  Max 1-Sec Time  Max 5-Sec Rate  Max 5-Sec Time  Max 10Sec Rate  Max 10Sec Time  Avg Frame Size  Max Frame Size  Max Frame Time  
------          -------         ------          --------------  --------------  --------------  --------------  --------------  --------------  --------------  --------------  --------------  --------------  
1               0:00:00.000     1:08:39.875     0 kbps          0 kbps          00:00:00.000    0 kbps          00:00:00.000    0 kbps          00:00:00.000    0 bytes         0 bytes         00:00:00.000    

STREAM DIAGNOSTICS:

File            PID             Type            Codec           Language                Seconds                 Bitrate                 Bytes           Packets         
----            ---             ----            -----           --------                --------------          --------------          -------------   -----           
00002.M2TS      4113 (0x1011)   0x1B            AVC                                     0.625                   0                       0               0               
00002.M2TS      4352 (0x1100)   0x80            LPCM            und (Undetermined)      0.625                   0                       0               0               

<–– END FORUMS PASTE ––>

QUICK SUMMARY:

Disc Label: Exodus 2021 - Persona Non Grata - BD
Disc Size: 17,405,503,823 bytes
Protection: AACS
Playlist: 00002.MPLS
Size: 0 bytes
Length: 1:08:39.875
Total Bitrate: 0.00 Mbps
Video: MPEG-4 AVC Video / 0 kbps / 1080p / 24 fps / 16:9 / High Profile 4.1
Audio: Undetermined / LPCM Audio / 2.0 / 48 kHz / 1536 kbps / 16-bit


********************
PLAYLIST: 00001.MPLS
********************

<–- BEGIN FORUMS PASTE –->
                                                                                                                Total   Video                                             
Title                                                           Codec   Length  Movie Size      Disc Size       Bitrate Bitrate Main Audio Track                          Secondary Audio Track
-----                                                           ------  ------- --------------  --------------  ------- ------- ------------------                        ---------------------
00001.MPLS                                                      AVC     0:01:08 0               17,405,503,823  0.00    0.00    LPCM 2.0 1536Kbps (48kHz/16-bit)          


DISC INFO:

Disc Label:     Exodus 2021 - Persona Non Grata - BD
Disc Size:      17,405,503,823 bytes
Protection:     AACS
Extras:         BD-Java
BDInfo:         0.7.5.5

PLAYLIST REPORT:

Name:                   00001.MPLS
Length:                 0:01:08.750 (h:m:s.ms)
Size:                   0 bytes
Total Bitrate:          0.00 Mbps

VIDEO:

Codec                   Bitrate             Description     
-----                   -------             -----------     
MPEG-4 AVC Video        0 kbps              1080p / 24 fps / 16:9 / High Profile 4.1

AUDIO:

Codec                           Language        Bitrate         Description     
-----                           --------        -------         -----------     
LPCM Audio                      Undetermined    1536 kbps       2.0 / 48 kHz /  1536 kbps / 16-bit

FILES:

Name            Time In         Length          Size            Total Bitrate   
----            -------         ------          ----            -------------   
00001.M2TS      0:00:00.000     0:01:08.750     0               0               

CHAPTERS:

Number          Time In         Length          Avg Video Rate  Max 1-Sec Rate  Max 1-Sec Time  Max 5-Sec Rate  Max 5-Sec Time  Max 10Sec Rate  Max 10Sec Time  Avg Frame Size  Max Frame Size  Max Frame Time  
------          -------         ------          --------------  --------------  --------------  --------------  --------------  --------------  --------------  --------------  --------------  --------------  
1               0:00:00.000     0:01:08.750     0 kbps          0 kbps          00:00:00.000    0 kbps          00:00:00.000    0 kbps          00:00:00.000    0 bytes         0 bytes         00:00:00.000    

STREAM DIAGNOSTICS:

File            PID             Type            Codec           Language                Seconds                 Bitrate                 Bytes           Packets         
----            ---             ----            -----           --------                --------------          --------------          -------------   -----           
00001.M2TS      4113 (0x1011)   0x1B            AVC                                     0.458                   0                       0               0               
00001.M2TS      4352 (0x1100)   0x80            LPCM            und (Undetermined)      0.458                   0                       0               0               

<–– END FORUMS PASTE ––>

QUICK SUMMARY:

Disc Label: Exodus 2021 - Persona Non Grata - BD
Disc Size: 17,405,503,823 bytes
Protection: AACS
Playlist: 00001.MPLS
Size: 0 bytes
Length: 0:01:08.750
Total Bitrate: 0.00 Mbps
Video: MPEG-4 AVC Video / 0 kbps / 1080p / 24 fps / 16:9 / High Profile 4.1
Audio: Undetermined / LPCM Audio / 2.0 / 48 kHz / 1536 kbps / 16-bit


********************
PLAYLIST: 01001.MPLS
********************

<–- BEGIN FORUMS PASTE –->
                                                                                                                Total   Video                                             
Title                                                           Codec   Length  Movie Size      Disc Size       Bitrate Bitrate Main Audio Track                          Secondary Audio Track
-----                                                           ------  ------- --------------  --------------  ------- ------- ------------------                        ---------------------
01001.MPLS                                                      AVC     0:01:08 0               17,405,503,823  0.00    0.00    LPCM 2.0 1536Kbps (48kHz/16-bit)          


DISC INFO:

Disc Label:     Exodus 2021 - Persona Non Grata - BD
Disc Size:      17,405,503,823 bytes
Protection:     AACS
Extras:         BD-Java
BDInfo:         0.7.5.5

PLAYLIST REPORT:

Name:                   01001.MPLS
Length:                 0:01:08.750 (h:m:s.ms)
Size:                   0 bytes
Total Bitrate:          0.00 Mbps

VIDEO:

Codec                   Bitrate             Description     
-----                   -------             -----------     
MPEG-4 AVC Video        0 kbps              1080p / 24 fps / 16:9 / High Profile 4.1

AUDIO:

Codec                           Language        Bitrate         Description     
-----                           --------        -------         -----------     
LPCM Audio                      Undetermined    1536 kbps       2.0 / 48 kHz /  1536 kbps / 16-bit

FILES:

Name            Time In         Length          Size            Total Bitrate   
----            -------         ------          ----            -------------   
00001.M2TS      0:00:00.000     0:01:08.750     0               0               

CHAPTERS:

Number          Time In         Length          Avg Video Rate  Max 1-Sec Rate  Max 1-Sec Time  Max 5-Sec Rate  Max 5-Sec Time  Max 10Sec Rate  Max 10Sec Time  Avg Frame Size  Max Frame Size  Max Frame Time  
------          -------         ------          --------------  --------------  --------------  --------------  --------------  --------------  --------------  --------------  --------------  --------------  
1               0:00:00.000     0:01:08.750     0 kbps          0 kbps          00:00:00.000    0 kbps          00:00:00.000    0 kbps          00:00:00.000    0 bytes         0 bytes         00:00:00.000    

STREAM DIAGNOSTICS:

File            PID             Type            Codec           Language                Seconds                 Bitrate                 Bytes           Packets         
----            ---             ----            -----           --------                --------------          --------------          -------------   -----           
00001.M2TS      4113 (0x1011)   0x1B            AVC                                     0.458                   0                       0               0               
00001.M2TS      4352 (0x1100)   0x80            LPCM            und (Undetermined)      0.458                   0                       0               0               

<–– END FORUMS PASTE ––>

QUICK SUMMARY:

Disc Label: Exodus 2021 - Persona Non Grata - BD
Disc Size: 17,405,503,823 bytes
Protection: AACS
Playlist: 01001.MPLS
Size: 0 bytes
Length: 0:01:08.750
Total Bitrate: 0.00 Mbps
Video: MPEG-4 AVC Video / 0 kbps / 1080p / 24 fps / 16:9 / High Profile 4.1
Audio: Undetermined / LPCM Audio / 2.0 / 48 kHz / 1536 kbps / 16-bit


********************
PLAYLIST: 00000.MPLS
********************

<–- BEGIN FORUMS PASTE –->
                                                                                                                Total   Video                                             
Title                                                           Codec   Length  Movie Size      Disc Size       Bitrate Bitrate Main Audio Track                          Secondary Audio Track
-----                                                           ------  ------- --------------  --------------  ------- ------- ------------------                        ---------------------
00000.MPLS                                                      AVC     0:00:44 0               17,405,503,823  0.00    0.00    LPCM 2.0 1536Kbps (48kHz/16-bit)          


DISC INFO:

Disc Label:     Exodus 2021 - Persona Non Grata - BD
Disc Size:      17,405,503,823 bytes
Protection:     AACS
Extras:         BD-Java
BDInfo:         0.7.5.5

PLAYLIST REPORT:

Name:                   00000.MPLS
Length:                 0:00:44.916 (h:m:s.ms)
Size:                   0 bytes
Total Bitrate:          0.00 Mbps

VIDEO:

Codec                   Bitrate             Description     
-----                   -------             -----------     
MPEG-4 AVC Video        0 kbps   			  		 	 	  		  	   	 			   		  	   		      		  		  	 			   		   	  			     	 			   		 		   		 	 				            1080p / 24 fps / 16:9 / High Profile 4.1

AUDIO:

Codec                           Language        Bitrate         Description     
-----                           --------        -------         -----------     
LPCM Audio                      Undetermined    1536 kbps       2.0 / 48 kHz /  1536 kbps / 16-bit

FILES:

Name            Time In         Length          Size            Total Bitrate   
----            -------         ------          ----            -------------   
00000.M2TS      0:00:00.000     0:00:44.916     0               0               

CHAPTERS:

Number          Time In         Length          Avg Video Rate  Max 1-Sec Rate  Max 1-Sec Time  Max 5-Sec Rate  Max 5-Sec Time  Max 10Sec Rate  Max 10Sec Time  Avg Frame Size  Max Frame Size  Max Frame Time  
------          -------         ------          --------------  --------------  --------------  --------------  --------------  --------------  --------------  --------------  --------------  --------------  
1               0:00:00.000     0:00:44.916     0 kbps          0 kbps          00:00:00.000    0 kbps          00:00:00.000    0 kbps          00:00:00.000    0 bytes         0 bytes         00:00:00.000    

STREAM DIAGNOSTICS:

File            PID             Type            Codec           Language                Seconds                 Bitrate                 Bytes           Packets         
----            ---             ----            -----           --------                --------------          --------------          -------------   -----           
00000.M2TS      4113 (0x1011)   0x1B            AVC                                     0.667                   0                       0               0               
00000.M2TS      4352 (0x1100)   0x80            LPCM            und (Undetermined)      0.667                   0                       0               0               

<–– END FORUMS PASTE ––>

QUICK SUMMARY:

Disc Label: Exodus 2021 - Persona Non Grata - BD
Disc Size: 17,405,503,823 bytes
Protection: AACS
Playlist: 00000.MPLS
Size: 0 bytes
Length: 0:00:44.916
Total Bitrate: 0.00 Mbps
Video: MPEG-4 AVC Video / 0 kbps / 1080p / 24 fps / 16:9 / High Profile 4.1
Audio: Undetermined / LPCM Audio / 2.0 / 48 kHz / 1536 kbps / 16-bit


********************
PLAYLIST: 01000.MPLS
********************

<–- BEGIN FORUMS PASTE –->
                                                                                                                Total   Video                                             
Title                                                           Codec   Length  Movie Size      Disc Size       Bitrate Bitrate Main Audio Track                          Secondary Audio Track
-----                                                           ------  ------- --------------  --------------  ------- ------- ------------------                        ---------------------
01000.MPLS                                                      AVC     0:00:44 0               17,405,503,823  0.00    0.00    LPCM 2.0 1536Kbps (48kHz/16-bit)          


DISC INFO:

Disc Label:     Exodus 2021 - Persona Non Grata - BD
Disc Size:      17,405,503,823 bytes
Protection:     AACS
Extras:         BD-Java
BDInfo:         0.7.5.5

PLAYLIST REPORT:

Name:                   01000.MPLS
Length:                 0:00:44.916 (h:m:s.ms)
Size:                   0 bytes
Total Bitrate:          0.00 Mbps

VIDEO:

Codec                   Bitrate             Description     
-----                   -------             -----------     
MPEG-4 AVC Video        0 kbps              1080p / 24 fps / 16:9 / High Profile 4.1

AUDIO:

Codec                           Language        Bitrate         Description     
-----                           --------        -------         -----------     
LPCM Audio                      Undetermined    1536 kbps       2.0 / 48 kHz /  1536 kbps / 16-bit

FILES:

Name            Time In         Length          Size            Total Bitrate   
----            -------         ------          ----            -------------   
00000.M2TS      0:00:00.000     0:00:44.916     0               0               

CHAPTERS:

Number          Time In         Length          Avg Video Rate  Max 1-Sec Rate  Max 1-Sec Time  Max 5-Sec Rate  Max 5-Sec Time  Max 10Sec Rate  Max 10Sec Time  Avg Frame Size  Max Frame Size  Max Frame Time  
------          -------         ------          --------------  --------------  --------------  --------------  --------------  --------------  --------------  --------------  --------------  --------------  
1               0:00:00.000     0:00:44.916     0 kbps          0 kbps          00:00:00.000    0 kbps          00:00:00.000    0 kbps          00:00:00.000    0 bytes         0 bytes         00:00:00.000    

STREAM DIAGNOSTICS:

File            PID             Type            Codec           Language                Seconds                 Bitrate                 Bytes           Packets         
----            ---             ----            -----           --------                --------------          --------------          -------------   -----           
00000.M2TS      4113 (0x1011)   0x1B            AVC                                     0.667                   0                       0               0               
00000.M2TS      4352 (0x1100)   0x80            LPCM            und (Undetermined)      0.667                   0                       0               0               

<–– END FORUMS PASTE ––>

QUICK SUMMARY:

Disc Label: Exodus 2021 - Persona Non Grata - BD
Disc Size: 17,405,503,823 bytes
Protection: AACS
Playlist: 01000.MPLS
Size: 0 bytes
Length: 0:00:44.916
Total Bitrate: 0.00 Mbps
Video: MPEG-4 AVC Video / 0 kbps / 1080p / 24 fps / 16:9 / High Profile 4.1
Audio: Undetermined / LPCM Audio / 2.0 / 48 kHz / 1536 kbps / 16-bit



Exodus - Persona Non Grata (2021)

Exodus - Persona Non Grata (2021)

Exodus - Persona Non Grata (2021)

Exodus - Persona Non Grata (2021)

All thanks go to the original releaser

Exodus in my Blog

Download Exodus - Persona Non Grata (2021):