Tags
Language
Tags
July 2024
Su Mo Tu We Th Fr Sa
30 1 2 3 4 5 6
7 8 9 10 11 12 13
14 15 16 17 18 19 20
21 22 23 24 25 26 27
28 29 30 31 1 2 3

First Love - Love At First Sight (1982)

Posted By: Rtax
First Love - Love At First Sight (1982)

First Love - Love At First Sight (1982)
EAC Rip | FLAC (tracks, cue, log) - 270 MB | MP3 CBR 320 kbps - 93 MB
39:32 | Funk, Soul, Disco, Boogie | Label: Chycago International Music

First love Soul boogie vocal quartet. Formed in 1979 in Chicago by producer Donald Burnside.
Denise Austin, Demetrice Henrae, Martha Jackson, Lisa Hudson.

Tracklist
1 Stop What 'Cha Doing 3:15
2 Don't Give Up (On Our Love) 6:02
3 Party Lights 6:32
4 Don't Be Afraid 3:37
5 Lady Marmalade/ Creole Lady (Medley) 5:50
6 The Love I Had 4:11
7 It's A Mystery To Me 6:12
8 My First Love 3:53
Exact Audio Copy V1.0 beta 3 from 29. August 2011

EAC extraction logfile from 7. November 2012, 16:39

First Love / Love At First Sight

Used drive : HL-DT-STBD-RE BT11F Adapter: 0 ID: 2

Read mode : Secure
Utilize accurate stream : Yes
Defeat audio cache : Yes
Make use of C2 pointers : No

Read offset correction : 667
Overread into Lead-In and Lead-Out : No
Fill up missing offset samples with silence : Yes
Delete leading and trailing silent blocks : No
Null samples used in CRC calculations : Yes
Used interface : Native Win32 interface for Win NT & 2000
Gap handling : Appended to previous track

Used output format : User Defined Encoder
Selected bitrate : 256 kBit/s
Quality : High
Add ID3 tag : No
Command line compressor : C:\Program Files (x86)\Exact Audio Copy\Flac\flac.exe
Additional command line options : -8 -V -T "ARTIST=%artist%" -T "TITLE=%title%" -T "ALBUM=%albumtitle%" -T "DATE=%year%" -T "TRACKNUMBER=%tracknr%" -T "TOTALTRACKS=%numtracks%" -T "GENRE=%genre%" -T "ALBUMARTIST=%albumartist%" -T "ALBUM ARTIST=%albumartist%" -T "COMMENT=EAC Secure Mode, Test & Copy, AccurateRip, FLAC -8" %source%


TOC of the extracted CD

Track | Start | Length | Start sector | End sector
––––––––––––––––––––––––––––-
1 | 0:00.00 | 3:15.22 | 0 | 14646
2 | 3:15.22 | 6:01.65 | 14647 | 41786
3 | 9:17.12 | 6:31.47 | 41787 | 71158
4 | 15:48.59 | 3:37.11 | 71159 | 87444
5 | 19:25.70 | 5:50.24 | 87445 | 113718
6 | 25:16.19 | 4:10.73 | 113719 | 132541
7 | 29:27.17 | 6:11.38 | 132542 | 160404
8 | 35:38.55 | 3:52.61 | 160405 | 177865


Track 1

Filename D:\Music\EAC\01 - Stop What 'Cha Doing.wav

Pre-gap length 0:00:02.00

Peak level 97.7 %
Extraction speed 2.3 X
Track quality 100.0 %
Test CRC 464E607F
Copy CRC 464E607F
Track not present in AccurateRip database
Copy OK

Track 2

Filename D:\Music\EAC\02 - Don't Give Up (On Our Love).wav

Pre-gap length 0:00:02.00

Peak level 97.7 %
Extraction speed 2.4 X
Track quality 99.9 %
Test CRC 0938256C
Copy CRC 0938256C
Accurately ripped (confidence 1) [7853509C] (AR v1)
Copy OK

Track 3

Filename D:\Music\EAC\03 - Party Lights.wav

Pre-gap length 0:00:02.00

Peak level 97.7 %
Extraction speed 3.1 X
Track quality 100.0 %
Test CRC E38777B9
Copy CRC E38777B9
Accurately ripped (confidence 1) [497E05FE] (AR v1)
Copy OK

Track 4

Filename D:\Music\EAC\04 - Don't Be Afraid.wav

Pre-gap length 0:00:02.00

Peak level 97.7 %
Extraction speed 2.6 X
Track quality 99.9 %
Test CRC DA857A05
Copy CRC DA857A05
Accurately ripped (confidence 1) [092FB16E] (AR v1)
Copy OK

Track 5

Filename D:\Music\EAC\05 - Lady Marmalade,Creole Lady (Medley).wav

Pre-gap length 0:00:02.00

Peak level 97.7 %
Extraction speed 3.6 X
Track quality 100.0 %
Test CRC B3278FB1
Copy CRC B3278FB1
Accurately ripped (confidence 1) [A32278D7] (AR v1)
Copy OK

Track 6

Filename D:\Music\EAC\06 - The Love I Had.wav

Pre-gap length 0:00:01.74

Peak level 97.7 %
Extraction speed 3.0 X
Track quality 99.9 %
Test CRC 134BD995
Copy CRC 134BD995
Accurately ripped (confidence 1) [85EBAA32] (AR v1)
Copy OK

Track 7

Filename D:\Music\EAC\07 - It's A Mystery To Me.wav

Pre-gap length 0:00:02.00

Peak level 97.7 %
Extraction speed 3.5 X
Track quality 99.9 %
Test CRC 6133BD0B
Copy CRC 6133BD0B
Accurately ripped (confidence 1) [C97F6D05] (AR v1)
Copy OK

Track 8

Filename D:\Music\EAC\08 - My First Love.wav

Pre-gap length 0:00:02.00

Peak level 97.7 %
Extraction speed 3.9 X
Track quality 100.0 %
Test CRC 045D087E
Copy CRC 045D087E
Accurately ripped (confidence 1) [F3D8E00C] (AR v1)
Copy OK


7 track(s) accurately ripped
1 track(s) not present in the AccurateRip database

Some tracks could not be verified as accurate

No errors occurred

End of status report

–– CUETools DB Plugin V2.1.3

[CTDB TOCID: tcCjNDoqRoGg3cd5wmSmW0y_uWs-] found, Submit result: tcCjNDoqRoGg3cd5wmSmW0y_uWs- has been uploaded
[2118b55c] (1/1) Differs in 3482 samples @05:08:62-05:08:65
You can use CUETools to repair this rip.


==== Log checksum F4A73837580758A268B12B48D78C57502594FD06974C02495694DA8C38D04D20 ====