Tags
Language
Tags
June 2024
Su Mo Tu We Th Fr Sa
26 27 28 29 30 31 1
2 3 4 5 6 7 8
9 10 11 12 13 14 15
16 17 18 19 20 21 22
23 24 25 26 27 28 29
30 1 2 3 4 5 6

Flash And The Pan - Headlines (1982) Expanded Remastered 2012 [Re-Up]

Posted By: Designol
Flash And The Pan - Headlines (1982) Expanded Remastered 2012 [Re-Up]

Flash And The Pan - Headlines (1982) Expanded Remastered 2012
EAC | FLAC | Image (Cue&Log) ~ 357 Mb | Mp3 (CBR320) ~ 128 Mb | Scans included
New Wave, Pop/Rock | Label: Repertoire | # REP 5261 | Time: 00:51:03

Headlines is the third album by Australian band Flash and the Pan, released in 1982. The studio project of AC/DC producers and Easybeats songwriters Harry Vanda and George Young. It includes the UK hit single "Waiting for a Train" which reached No. 7 in the charts in June 1983. Digitally remastered in 2012, and reissued with a BONUS tracks!

Harry Vanda and George Young's studio project, "Flash and the Pan," was originally intended only as a one off - as the title of the final number of the debut album "First and Last" also suggests.

Unexpected success around the world, however, saw the duo continuing with album number two "Lights in the Night" in 1980, an album that both artistic and popularity wise lived up to its predecessor. The group never performed live as Vanda and Young did not relive the hard touring-life after their years with the Easybeats.

At the time this album, the group's third, Flash and the Pan were as close as they ever were to arise as a real touring band with permanent members besides Vanda and Young. Promo photos were taken featuring, among others, Easybeats singer Stevie Wright. Wright was originally credited for contributing to "Headlines", but due to personal problems Wright never came to appear on a Flash and the Pan recording.

As for the music itself "Headlines" is probably the closest the group came to a classical band sound, giving ample space for the electric guitars. The song writing is like on on all six albums top notch. Many lyrics are more or less losely based on the title "Headlines" and there is much bite in these often disillusioned and somewhat cynical songs.

"Waiting for a Train" is probably the group's best-known number, and it is available in several remixes. Here we have the original version and a shortened single version, which unfortunately lacks one of the verses.

The group recorded very little besides the six albums, one exception is the charming "Something About You" from 1983, which was released twice as a B-side. Both versions are included here as bonus tracks.

It does not make much sense to highlight a few songs, as all numbers in their rather large differences, all are very worthy listening.

From an earlier review:

Flash and the Pan's third album "Headlines" has become the hardest to find CD with the band. This may be a coincidence, but it could also be because it is considered to be less significant than their other albums. Granted, there may not be the stand-out songs you find of the first two albums or the overlooked master-piece "Nights in France", but I find the album both solid and consistent.

Some of the most down-to-earth rockers can be found here here; such as "Don't Vote" ( T Rex inspiration ?), "Jetsetter's Ball" and "Phil the Creole". Also dramatic tracks like "Love is the Gun" and "Up Against the Wall" add to both excitement and variation. Moreover their biggest hit "Waiting for a Train" is featured along with melodic favourites from several compilations "Hey Jimmy" and "Where Were You" - and the overlooked "Psychos on the Street".

Hopefully the album (and their whole catalogue) will be re-released in near future, because the band never really got the recognition they deserved. Apart from their last (so far) album "Burning up the Night" ( which is isn't really bad at at all) all albums are first class. Some out-takes and rarities must be somewhere in the vaults, too.

Review by Morten Vindberg, Amazon.com

Flash And The Pan - Headlines (1982) Expanded Remastered 2012 [Re-Up]



Tracklist:

01. Jetsetters Ball (04:48)
02. Don't Vote (02:48)
03. Waiting For A Train (04:42)
04. War Games (04:20)
05. Where Were You (03:21)
06. Love Is A Gun (03:29)
07. Up Against The Wall (05:16)
08. Psychos On The Street (03:55)
09. Hey Jimmy (03:14)
10. Phil The Creole (04:06)

Bonus Tracks:
11. Waiting For A Train (Radio Edit) (03:42)
12. Something About You (Nostalgic Mix 1983) (03:25)
13. Something About You (1990 Version) (03:27)


Exact Audio Copy V1.0 beta 3 from 29. August 2011

Отчёт EAC об извлечении, выполненном 26. июня 2013, 20:30

Flash and the Pan / Headlines

Дисковод: Optiarc DVD RW AD-7280S Adapter: 0 ID: 1

Режим чтения : Достоверность
Использование точного потока : Да
Отключение кэша аудио : Да
Использование указателей C2 : Нет

Коррекция смещения при чтении : 48
Способность читать области Lead-in и Lead-out : Нет
Заполнение пропущенных сэмплов тишиной : Да
Удаление блоков с тишиной в начале и конце : Нет
При вычислениях CRC использовались нулевые сэмплы : Да
Интерфейс : Встроенный Win32-интерфейс для Win NT/2000

Выходной формат : Пользовательский кодировщик
Выбранный битрейт : 1024 kBit/s
Качество : Высокий
Добавление ID3-тега : Нет
Утилита сжатия : C:\Program Files\Exact Audio Copy\FLAC\FLAC.EXE
Дополнительные параметры : -8 -V -T "ARTIST=%artist%" -T "TITLE=%title%" -T "ALBUM=%albumtitle%" -T "DATE=%year%" -T "TRACKNUMBER=%tracknr%" -T "GENRE=%genre%" -T "COMMENT=%comment%" -T "BAND=%albuminterpret%" -T "ALBUMARTIST=%albuminterpret%" -T "COMPOSER=%composer%" %haslyrics%–tag-from-file=LYRICS="%lyricsfile%"%haslyrics% -T "DISCNUMBER=%cdnumber%" -T "TOTALDISCS=%totalcds%" -T "TOTALTRACKS=%numtracks%" %hascover%–picture="%coverfile%"%hascover% %source% -o %dest%


TOC извлечённого CD

Трек | Старт | Длительность | Начальный сектор | Конечный сектор
––––––––––––––––––––––––––––––––––-
1 | 0:00.00 | 4:50.40 | 0 | 21789
2 | 4:50.40 | 2:50.23 | 21790 | 34562
3 | 7:40.63 | 4:44.55 | 34563 | 55917
4 | 12:25.43 | 4:22.50 | 55918 | 75617
5 | 16:48.18 | 3:23.41 | 75618 | 90883
6 | 20:11.59 | 3:31.25 | 90884 | 106733
7 | 23:43.09 | 5:18.19 | 106734 | 130602
8 | 29:01.28 | 3:57.00 | 130603 | 148377
9 | 32:58.28 | 3:16.59 | 148378 | 163136
10 | 36:15.12 | 4:08.41 | 163137 | 181777
11 | 40:23.53 | 3:44.43 | 181778 | 198620
12 | 44:08.21 | 3:27.35 | 198621 | 214180
13 | 47:35.56 | 3:27.19 | 214181 | 229724


Характеристики диапазона извлечения и сообщения об ошибках

Выбранный диапазон

Имя файла D:\razdachy\Flash and the Pan - Headlines.wav

Пиковый уровень 98.8 %
Скорость извлечения 3.6 X
Качество диапазона 99.9 %
CRC теста 4A37732E
CRC копии 4A37732E
Копирование… OK

Ошибок не произошло


AccurateRip: сводка

Трек 1 отсутствует в базе данных
Трек 2 отсутствует в базе данных
Трек 3 отсутствует в базе данных
Трек 4 отсутствует в базе данных
Трек 5 отсутствует в базе данных
Трек 6 отсутствует в базе данных
Трек 7 отсутствует в базе данных
Трек 8 отсутствует в базе данных
Трек 9 отсутствует в базе данных
Трек 10 отсутствует в базе данных
Трек 11 отсутствует в базе данных
Трек 12 отсутствует в базе данных
Трек 13 отсутствует в базе данных

Ни одного трека нет в базе AccurateRip

Конец отчёта

[CUETools log; Date: 17.10.2017 3:39:30; Version: 2.1.4]
[CTDB TOCID: 9vH2uKgIA2Uxg68SLhVXz1C.4Nk-] found.
Track | CTDB Status
1 | (12/12) Accurately ripped
2 | (12/12) Accurately ripped
3 | (12/12) Accurately ripped
4 | (12/12) Accurately ripped
5 | (12/12) Accurately ripped
6 | (12/12) Accurately ripped
7 | (12/12) Accurately ripped
8 | (12/12) Accurately ripped
9 | (12/12) Accurately ripped
10 | (12/12) Accurately ripped
11 | (12/12) Accurately ripped
12 | (12/12) Accurately ripped
13 | (12/12) Accurately ripped
[AccurateRip ID: 001934da-00facd67-a40bf70d] found.
Track [ CRC | V2 ] Status
01 [b1fadb02|ab50e283] (0+5/5) Accurately ripped
02 [260700a6|f5da2684] (0+6/6) Accurately ripped
03 [ec25d8e5|fbb864f6] (0+6/6) Accurately ripped
04 [4ba4f9c6|f21acf3d] (0+6/6) Accurately ripped
05 [ad05b009|2b46588d] (0+6/6) Accurately ripped
06 [3d01eb68|3767bc10] (0+6/6) Accurately ripped
07 [ab3f1fa8|733e3702] (0+6/6) Accurately ripped
08 [082f8856|2db30691] (0+6/6) Accurately ripped
09 [e65b4188|0ea445f7] (0+6/6) Accurately ripped
10 [0c55dfb1|f33c6814] (0+6/6) Accurately ripped
11 [d3247beb|5acb3cd7] (0+6/6) Accurately ripped
12 [0ab26a6a|dd0ac938] (0+6/6) Accurately ripped
13 [38b26097|0857d2ff] (0+5/5) Accurately ripped

Track Peak [ CRC32 ] [W/O NULL] [ LOG ]
– 98,8 [4A37732E] [AA27B85E] CRC32
01 98,8 [B309F6EB] [AF93DCE8]
02 98,8 [522A69C6] [70BCDCD2]
03 98,8 [9630CEA9] [8BE0B21A]
04 98,8 [03464421] [084E3FED]
05 98,8 [09436ABF] [2A30A394]
06 98,8 [108386D3] [4FA12168]
07 98,8 [B8C40D16] [B8232BC6]
08 98,8 [B201B62A] [F6C45864]
09 98,8 [7AC77777] [BFFB0314]
10 98,8 [D28F8247] [A9EB70C7]
11 98,8 [201A5BFC] [72293D2D]
12 98,8 [350AEA50] [01BF1CB6]
13 98,8 [AEF470D5] [E9F0D9A8]

foobar2000 1.2 / Dynamic Range Meter 1.1.1
log date: 2013-11-19 17:46:36

––––––––––––––––––––––––––––––––––––––––
Analyzed: Flash and the Pan / Headlines
––––––––––––––––––––––––––––––––––––––––

DR Peak RMS Duration Track
––––––––––––––––––––––––––––––––––––––––
DR8 -0.10 dB -10.70 dB 4:51 01-Jetsetters Ball
DR8 -0.10 dB -9.75 dB 2:50 02-Don't Vote
DR8 -0.10 dB -9.52 dB 4:45 03-Waiting For A Train
DR7 -0.10 dB -10.56 dB 4:23 04-War Games
DR7 -0.10 dB -7.81 dB 3:24 05-Where Were You
DR8 -0.10 dB -10.93 dB 3:31 06-Love Is A Gun
DR8 -0.10 dB -11.82 dB 5:18 07-Up Against The Wall
DR8 -0.10 dB -8.99 dB 3:57 08-Psychos On The Street
DR7 -0.10 dB -9.48 dB 3:17 09-Hey Jimmy
DR7 -0.10 dB -8.62 dB 4:09 10-Phil The Creole
DR7 -0.10 dB -9.81 dB 3:45 11-Waiting For A Train (Radio Edit)
DR8 -0.10 dB -9.35 dB 3:27 12-Something About You (Nostalgic Mix 1983)
DR7 -0.10 dB -8.84 dB 3:27 13-Something About You (1990 Version)
––––––––––––––––––––––––––––––––––––––––

Number of tracks: 13
Official DR value: DR8

Samplerate: 44100 Hz
Channels: 2
Bits per sample: 16
Bitrate: 946 kbps
Codec: FLAC
================================================================================

Flash And The Pan - Headlines (1982) Expanded Remastered 2012 [Re-Up]

Flash And The Pan - Headlines (1982) Expanded Remastered 2012 [Re-Up]

All thanks to original releaser - Alex50V

More interesting music in My Blog