Subcategories

Flashdance - Original Soundtrack (1983) {Casablanca}

Posted By: tiburon
Flashdance - Original Soundtrack (1983) {Casablanca}

Flashdance - Original Soundtrack (1983) {Casablanca}
EAC 1.0B3 | FLAC Image level 8 | Cue+Log | Full Scans 300dpi | 238MB + 5% Recovery
MP3 CBR 320 Kbps | 93MB + 5% Recovery
Genre: Soundtrack, Pop Rock
Flashdance - Original Soundtrack (1983) {Casablanca}

Soundtrack to the 1983 American musical and romance film Flashdance, it sold more than 20 million copies worldwide. The film's three singles feature on the album. Two of these singles, "Flashdance … What A Feeling" by Irene Cara and "Maniac" by Michael Sembello, peaked at #1 in the U.S. Billboard Hot 100. The track "Romeo" by Donna Summer was released as a promo video to MTV prior to the film's release, composed only of outtakes from the film. However, the song was not released to radio as Summer was on the verge of releasing her 1983 album "She Works Hard For The Money", and the title track was already becoming a major hit.
Track List
01. Irene Cara - Flashdance … What A Feeling [3:57]
02. Shandi - He's A Dream [3:28]
03. Helen St. John - Love Theme From Flashdance [3:30]
04. Karen Kamon - Manhunt [2:38]
05. Joe Esposito - Lady, Lady, Lady [4:13]
06. Laura Branigan - Imagination [3:41]
07. Donna Summer - Romeo [3:16]
08. Cycle V - Seduce Me Tonight [3:34]
09. Kim Carnes - I'll Be Here Where The Heart Is [4:39]
10. Michael Sembello - Maniac [4:03]


Exact Audio Copy V1.0 beta 3 from 29. August 2011

Отчёт EAC об извлечении, выполненном 4. декабря 2012, 23:17

Original Motion Picture Soundtrack / Flashdance

Дисковод: ATAPI DVD A DH16AAS Adapter: 3 ID: 0

Режим чтения : Достоверность
Использование точного потока : Да
Отключение кэша аудио : Да
Использование указателей C2 : Нет

Коррекция смещения при чтении : 6
Способность читать области Lead-in и Lead-out : Да
Заполнение пропущенных сэмплов тишиной : Да
Удаление блоков с тишиной в начале и конце : Нет
При вычислениях CRC использовались нулевые сэмплы : Да
Интерфейс : Установленный внешний ASPI-интерфейс

Выходной формат : Пользовательский кодировщик
Выбранный битрейт : 1024 kBit/s
Качество : Высокий
Добавление ID3-тега : Нет
Утилита сжатия : C:\Program Files (x86)\Exact Audio Copy\Flac\flac.exe
Дополнительные параметры : -V -8 -T "Date=%year%" -T "Genre=%genre%" %source%


TOC извлечённого CD

Трек | Старт | Длительность | Начальный сектор | Конечный сектор
––––––––––––––––––––––––––––––––––-
1 | 0:00.32 | 3:54.25 | 32 | 17606
2 | 3:54.57 | 3:28.50 | 17607 | 33256
3 | 7:23.32 | 3:27.63 | 33257 | 48844
4 | 10:51.20 | 2:37.37 | 48845 | 60656
5 | 13:28.57 | 4:10.00 | 60657 | 79406
6 | 17:38.57 | 3:35.58 | 79407 | 95589
7 | 21:14.40 | 3:13.35 | 95590 | 110099
8 | 24:28.00 | 3:32.32 | 110100 | 126031
9 | 28:00.32 | 4:37.00 | 126032 | 146806
10 | 32:37.32 | 4:04.53 | 146807 | 165159


Характеристики диапазона извлечения и сообщения об ошибках

Выбранный диапазон

Имя файла D:\Music\Soundtracks\Flashdance. wav\Original Motion Picture Soundtrack - Flashdance - 1983. flac\Original Motion Picture Soundtrack - Flashdance.wav

Пиковый уровень 99.3 %
Скорость извлечения 1.7 X
Качество диапазона 99.9 %
CRC теста C9EC3489
CRC копии C9EC3489
Копирование… OK

Ошибок не произошло


AccurateRip: сводка

Трек 1 : извлечено точно (доверие 5) [80B20914] (AR v2)
Трек 2 : извлечено точно (доверие 3) [F6AECFB1] (AR v2)
Трек 3 : извлечено точно (доверие 4) [C93250FA] (AR v2)
Трек 4 : извлечено точно (доверие 3) [7C8E2DE5] (AR v2)
Трек 5 : извлечено точно (доверие 3) [94E027F3] (AR v2)
Трек 6 : извлечено точно (доверие 3) [2C9933EC] (AR v2)
Трек 7 : извлечено точно (доверие 3) [0F4EE29D] (AR v2)
Трек 8 : извлечено точно (доверие 3) [A1E5C566] (AR v2)
Трек 9 : извлечено точно (доверие 3) [2E66ED24] (AR v2)
Трек 10 : извлечено точно (доверие 4) [2E697554] (AR v2)

Все треки извлечены точно

Конец отчёта

==== Контрольная сумма отчёта 342C7998E6C917B0DFBE29638877A3EF77AF0B178ABB883CD4221A33EC7C483B ====


foobar2000 1.1.17 / Dynamic Range Meter 1.1.1
log date: 2012-12-04 23:20:30

––––––––––––––––––––––––––––––––––––––––
Analyzed: Original Motion Picture Soundtrack / Flashdance
––––––––––––––––––––––––––––––––––––––––

DR Peak RMS Duration Track
––––––––––––––––––––––––––––––––––––––––
DR12 -0.23 dB -14.92 dB 3:54 01-Irene Cara - Flashdance … What A Feeling
DR12 -0.66 dB -16.82 dB 3:29 02-Shandi - He's A Dream
DR13 -1.23 dB -15.89 dB 3:28 03-Helen St. John - Love Theme From Flashdance
DR11 -0.58 dB -14.03 dB 2:37 04-Karen Kamon - Manhunt
DR11 -1.73 dB -15.68 dB 4:10 05-Joe Esposito - Lady, Lady, Lady
DR12 -0.42 dB -15.15 dB 3:36 06-Laura Branigan - Imagination
DR13 -0.82 dB -15.30 dB 3:13 07-Donna Summer - Romeo
DR12 -0.06 dB -14.22 dB 3:32 08-Cycle V - Seduce Me Tonight
DR13 -0.27 dB -15.23 dB 4:37 09-Kim Carnes - I'll Be Here Where The Heart Is
DR12 -0.67 dB -14.46 dB 4:05 10-Michael Sembello - Maniac
––––––––––––––––––––––––––––––––––––––––

Number of tracks: 10
Official DR value: DR12

Samplerate: 44100 Hz
Channels: 2
Bits per sample: 16
Bitrate: 873 kbps
Codec: FLAC
================================================================================

Flashdance - Original Soundtrack (1983) {Casablanca}
Flashdance - Original Soundtrack (1983) {Casablanca}


Thanks to the original ripper