Tags
Language
Tags

VA - Forbidden But Not Forgotten: Forbidden Music During the Third Reich (2015)

Posted By: Rtax
VA - Forbidden But Not Forgotten: Forbidden Music During the Third Reich (2015)

VA - Forbidden But Not Forgotten: Forbidden Music During the Third Reich (2015)
EAC Rip | FLAC (tracks, cue, log, scans) - 2.1 GB | MP3 CBR 320 kbps - 1.4 GB
10:00:21 | Classical, Music Hall, Musical, Operetta, Opera, Modern | Label: Documents

National Socialism had devised its own notion of the value of German art and culture. This was ruthlessly put into practice when the Nazis took over power in 1933. The more than 175 "degenerate" recorded musical items in this extraordinary 10-CD box set, 'Forbidden But Not Forgotten', relate to the shocking consequences due to that "cleansing". The burning of the Reichstag (7th April) provided the pretext for the prosecution of all who held other political opinions, for the burning of books (10th May) whose authors were on the index of disfavoured and banned writers, for the law that amended entry to the civil service (7th April) that excluded all non-Aryans and led to wholesale dismissals of Jews, especially in orchestras, the administration, among singers, conductors and instrumentalists. By means of the exhibitions "Degenerate Art" (Munich, 1937) and "Degenerate Music" (Düsseldorf, 1938) art and artists who were now to have no place in Nazi Germany were pilloried.

The people concerned either saved themselves by fleeing abroad or were arrested, deported to concentration camps and executed. With the 'annexation' of Austria, the process repeated itself there - and in every other country invaded by German troops.

The wide-ranging selection on these 10 CDs of original recordings provides examples from all types of this so-called 'Entartete Musik' - from cabaret and 'Schlager', opera, operetta, and concert music - that were forbidden, and the many composers, writers and performers who were persecuted - including Bert Brecht, Paul Hindemith, Otto Klemperer and Richard Tauber. They deserve not to be forgotten.

Tracklist
Disc 1 - Cultural Bolshevism - Degenerate Music

1. Die Moritat Von Mackie Messer (Weill/Brecht) - Bert Brecht
2. Kanonensong (Weill/Brecht) - Kurt Gerron & Willy Trenk-Trebitsch
3. Seeräuberjenny (Weill/Brecht) - Lotte Lenya
4. Die Ballade Vom Angenehmen Leben (Weill/Brecht) - Otto Klemperer & Orchester Der Berliner Staatsoper
5. Barbara Song (Weill/Brecht) - Carola Neher
6. Tango Ballade (Weill/Brecht) - Otto Klemperer & Orchester Der Berliner Staatsoper
7. Stempellied (Eisler/Weber) - Ernst Busch
8. Wie Man Sich Bettet, So Liegt Man (Weill/Brecht) - Lotte Lenya
9. Das Ist Der Herzschlag, Der Zusammenhält (Hollaender/Tucholsky) - Paul Graetz
10. Raus Mit Den Männern Aus Dem Reichstag (Hollaender/Tucholsky) - Claire Waldoff
11. Es Weht Ein Frischer Wind (Trad./Finck) - Das Katakomben-Ensemble
12. Die Trommlerin Als Schießbudenfigur (Hollaender) - Blandine Ebinger & Friedrich Hollaender
13. Die Ballade Vom Soldaten (Eisler/Brecht) - Ernst Busch
14. Lied Vom Weib Des Nazisoldaten (Spoliansky/Brecht) - Lucie Mannheim
15. Der Bäcker Backt Um's Morgenrot (Weill/Klaiser) - Ernst Busch & Maurice Abravanel
16. Caesar-Ballade (Weill/Kaiser) - Lotte Lenya
17. Jetzt Ist Die Geige Mein (Krenek) - Ludwig Hofmann & Manfred Gurlitt
18. Leb' Wohl, Mein Schatz (Krenek) - Ludwig Hofmann & Manfred Gurlitt

Disc 2 - Cabaret, Chanson

1. An Allem Sind Die Juden Schuld (Bizet/Hollaender) - Annemarie Hase
2. Das Nachtgespenst (Nelson/Hollaender) - Kurt Gerron & Rudolf Nelson
3. Die Hungerkünstlerin (Hollaender) - Blandine Ebinger, Klavier: Friedrich Hollaender
4. Seemannschoral: In Hamburg An Der Elbe (Engel-Berger/Mehring) - Hans Albers
5. Das Original Von Der Wasserkante (Nick/Pinelli) - Isa Vermehren
6. Einmal Möcht' Ich Keine Sorgen Haben (Spoliansky/Kolpe) - Max Hansen
7. Wenn Ich Mir Was Wünschen Dürfte (Hollaender) - Marlene Dietrich & Friedrich Hollaender
8. Ich Weiß, Das Ist Nicht So (Spoliansky/Schiffer) - Willy Prager
9. Kleiner Mann, Was Nun (Böhmelt/Busch) - Comedian Harmonists
10. Zeitungsparodie (Robitschek) - Paul Morgan
11. Loblied Auf Italien (Engel-Berger/Rebner) - Trude Hesterberg & Franz Wachsmann
12. Wenn Der Alte Motor Wieder Tackt (Hollaender/ Tucholsky) & Paul Graetz
13. Der Song Von Den Brennenden Zeitfragen (Nachrichter) - Die Vier Nachrichter
14. Die Dorfschöne (Heymann/Tucholsky) - Kate Kühl
15. Guck Doch Nicht Immer Nach Dem Tangogeiger Hin (Hollaender) - Curt Bois
16. Die Kleine Stadt (Heymann/Mehring) - Trude Hesterberg, Klavier: Franz Wachsmann
17. Die Keuschheitskommission (Benatzky) - Paul Morgan

Disc 3 - Lax Morals

1. Was Hast Du Für Gefühle, Moritz? (R. Fall/Löhner-Beda) - Paul O'montis
2. Ach, Wie Ich Die Lena Liebe (Profes/Gilbert) - Claire Waldoff
3. War'n Sie Schon Mal In Mich Verliebt (Hansen/Nicolaus) - Max Hansen, Orchester Paul Godwin
4. Wenn Die Beste Freundin Mit Der Besten Freundin (Spoliansky/Schiffer) - Marlene Dietrich, Margo Lion, Oskar Karlweis & Mischa Spoliansky
5. In Der Bar Zum Krokodil (Engel-Berger/Löhner-Beda) - Comedian Harmonists
6. Warum Soll Eine Frau Kein Verhältnis Haben (Straus/Grünwald) - Fritzi Massary
7. Eine Kleine Liebelei So Nebenbei (Hollaender/Liebmann) - Lilian Harvey & Willy Fritsch
8. Ich Mache Alles Mit Den Beinen (Hollaender) - Curt Bois
9. Tonfilmaufnahme: Im Löwenkäfig (Bendow) - Wilhelm Bendow & Paul Morgan
10. Kinder, Heut' Abend Da Such' Ich Mir Was Aus (Hollaender/Liebmann) - Marlene Dietrich
11. Und Als Der Herrgott Mai Gemacht (Benatzky/Gilbert) - Siegfried Arno & Orchester Marek Weber
12. Für'n Groschen Liebe (Wachsmann/Kolpe) - Dolly Haas
13. Irgendwo Auf Der Welt (Heymann/Gilbert) - Comedian Harmonists
14. Lieber Kleiner Eintänzer (Rosen/Gilbert) - Trude Hesterberg
15. Du Schwarzer Zigeuner (Vacek/Löhner-Beda) - Luigi Bernauer
16. Mach Rotes Licht, Wir Wollen Tango Tanzen (Engel-Berger/Vigny) - Trude Berliner & Orchester Paul Godwin
17. Du Lieber Geiger (Kaper/Rotter) - Leo Monosson
18. Die Herren Männer (Hollaender/Tucholsky) - Trude Hesterberg & Franz Wachsmann
19. Am Schönsten Sind Die Mädchen, Wenn Sie Baden Gehen - (Profes/Gilbert) - Siegfried Arno
20. Ich Hab' Das Fräulein Helen Baden Sehn (Raymond/Grünbaum) - Erwin Hartung

Disc 4 - Total Licence

1. Ich Bin Von Kopf Bis Fuß Auf Liebe Eingestellt (Hollaender) - Marlene Dietrich
2. Die Clique (Brangini/Gründgens) - Gustaf Gründgens
3. Hannelore (Platen/Hagen) - Claire Waldoff
4. Mein Süßer Heißgeliebter Iwan (Kalman) - Max Kuttner
5. Die Knöpfelschuhe (Heymann/Haller) - Trude Hesterberg & Franz Wachsmann
6. Ich Bin Verrückt Nach Hilde (Stransky/Rebner) - Paul O'montis
7. Lene Levi (Hollaender/Lichtenstein) - Kate Kühl & Friedrich Hollaender
8. Der Kleine Wolf Aus Olmütz (Kreuder/Grünbaum) - Curt Bois
9. Die Susi Bläst Das Saxophon (Nelson) - Irene Ambrus
10. Am Sonntag Will Mein Süßer Mit Mir Segeln Gehen (Profes/Gilbert) - Theo Lucas
11. Das Leibregiment (Heymann/Tucholsky) - Trude Hesterberg
12. Mein Liebster Muss Trompeter Sein (May/Flessburg) - Wilhelm Gombert
13. Mein Johannes, Ach, Der Kann Es (May) - Vicky Werckmeister
14. Die Mädis Vom Chantant (Kálmán/Stein, Jenbach) - Max Ehrlich
15. Was Kann So Schön Sein Wie Deine Liebe (Brodzky/Brandt) - Gitta Alpar
16. Wir Sind Von Kopf Bis Fuß Auf Liebe Eingestellt (Hollaender) - Comedian Harmonists

Disc 5 - Hit Songs and Films

1. Was Machst Du Mit Dem Knie, Lieber Hans? (R. Fall/Löhner-Beda) - Brigitte Mira
2. Solang Wir Jung Sind, Madame (Hollaender) Curt Bois & Paul Godwin Orchester
3. Yes, Sir (Benatzky) - Zarah Leander
4. Das Ist Die Liebe Der Matrosen (Heymann/Gilbert) - Comedian Harmonists
5. Heute Nacht Oder Nie (Spoliansky/Schiffer) - Jan Kiepura & Frieder Weissmann
6. Im Prater Blüh'n Wieder Die Bäume (Stolz/Robitschek) - Lotte Lehmann
7. Frag Nicht, Warum Ich Gehe (Stolz/Reisch, Robinson) - Helge Rosvaenge & Paul Godwin Orchester
8. Allein In Einer Großen Stadt (Wachsmann/Kolpe) - Marlene Dietrich
9. Ein Freund, Ein Guter Freund (Heymann/Gilbert) - Heinz Rühmann, Willy Fritsch, Oskar Karlweis
10. Eine Kleine Sehnsucht (Hollaender) - Grete Mosheim & Friedrich Hollaender
11. Ich Bin Vom Rockefeller Grad Das Gegenteil (Spoliansky/Kolpe) - Max Hansen
12. Wir Zahlen Keine Miete Mehr (Heymann/Reisch) - Lilian Harvey, Willy Fritsch & Willy Forst
13. Wenn Die Elisabeth Nicht So Schöne Beine Hätt' (Katscher/Farkas) - Walter Jurmann & Julian Fuhs Orchester
14. Ich Bin Die Fesche Lola (Hollaender/Liebmann) - Marlene Dietrich
15. Ich Will Sie Küssen, Wenn Sie Es Verlangen (Nelson/Rotter) - Irene Ambrus & Hans Albers
16. Es Wird Im Leben Dir Mehr Genommen Als Gegeben (May/Neubach) - Joseph Schmidt

Disc 6 - Operetta

1. Dein Ist Mein Ganzes Herz (Lehár/Herzer, Löhner, Léon) - Richard Tauber
2. Meine Lippen Sie Küssen So Heiß (Lehár/Knepler, Löhner) - Jarmila Novotna
3. Du Bist Die Welt Für Mich (Tauber/Marischka) - Joseph Schmidt & Richard Tauber
4. Heut' Könnt' Einer Sein Glück Bei Mir Machen (L. Fall/Schanzer, Welisch) - Fritzi Massary
5. Leise, Ganz Leise (Straus/Dörmann) - Peter Anders
6. Ouvertüre Zu Die Schöne Helena (Offenbach) - Otto Klemperer, Orchester Der Berliner Staatsoper
7. Ja, Mein Freund Aus Singapur (Lehár/Léon, Stein) - Trude Hesterberg & Franz Wachsmann
8. Frauen, Ihr Macht Uns Das Leben Schön (Straus/Guitry) - Richard Tauber & Oscar Straus
9. Du Sollst Der Kaiser Meiner Seele Sein - (Stolz/Grünbaum) - Vera Schwarz
10. Zwei Märchenaugen (Kálmán/Brammer) - Marcel Wittrisch
11. Man Steigt Nach (Fall/Léon) - Lucie Mannheim, Adolf Wohlbrück & E. W. Korngold
12. Ihr Stillen, Süßen Frau'n (Fall/Brammer) - Herbert Ernst Groh
13. Heut' Nacht Hab' Ich Geträumt Von Dir (Kálmán/Brammer) - Comedian Harmonists
14. Mein Mädel Ist Nur Eine Verkäuferin (Benatzky/Blum) - Oskar Karlweis & Lewis Ruth Band
15. Nebenbei (Krausz/Schanzer) - Fritzi Massary
16. Bist Du's, Lachendes Glück (Lehár/Willner/Bodanzky) - Peter Anders
17. Was Hat Eine Frau Von Der Treue (Abraham/Grünwald) - Gitta Alpar & Paul Abraham
18. Reich Mir Zum Abschied Noch Einmal Die Hände (Abraham/Grünwald) - Richard Tauber & Frieder Weissmann

Disc 7 - Operetta

1. Komm, Zigan (Kálmán/Brammer, Grünwald) - Marcel Wittrisch
2. Toujours L'amour (Abraham/Grünwald, Löhner) - Gitta Alpar & Paul Abraham
3. Es Ist So Schön, Am Abend Bummeln Zu Geh'n (Abraham/Grünwald, Löhner) - Rosy Barsony, Oscar Denes & Paul Abraham
4. Sei Mir Gegrüßt, Du Holdes Venezia (Strauß, Korngold/Marischka) - Richard Tauber & Erich Wolfgang Korngold
5. Es Liegt In Blauen Fernen (Lehár/ Willner, Bodanzky) - Vera Schwarz & Richard Tauber
6. Blume Von Hawaii (Abraham/Grünwald, Löhner) - Comedian Harmonists & Lewis Ruth Bigband
7. Bin Nur Ein Jonny (Abraham/Grünwald, Löhner) - Harald Paulsen & Paul Abraham
8. Heut' Hab' Ich Ein Schwipserl (Abraham/Grünwald, Löhner) - Rita Georg & Paul Abraham
9. Fein, Fein Schmeckt Uns Der Wein (Eysler/Brammer) - Marcel Wittrisch
10. Im Weißen Rössl Am Wolfgangsee (Benatzky) - Max Hansen
11. Was Kann Der Sigismund Dafür (Benatzky/Gilbert) - Siegfried Arno, Orchester Marek Weber
12. Was Weiß Ein Nie Geküsster Rosenmund (Kálmán/Brammer, Grünwald) - Helge Rosvaenge
13. Bitte, Nur Nicht Gleich Den Mut Verlieren (Offenbach/Gründgens) - Gustaf Gründgens
14. Eine Frau Von Heut' (Benatzky/Weigel) - Zarah Leander
15. Wolgalied (Lehár/Jenbach, Reichert) - Richard Tauber
16. Wer Hat Die Liebe Uns Ins Herz Gesenkt (Lehár/Herzer, Löhner, Léon) - Irene Eisinger, Joseph Schmidt & Selmar Meyrowitz
17. Liebes Schwesterlein, Sollst Nicht Traurig Sein (Lehár/Herzer/Löhner) - Richard Tauber & Paul Dessau

Disc 8 - Opera

1. Land, So Wunderbar (Meyerbeer) - Helge Rosvaenge
2. Glück, Das Mir Verblieb (Korngold) - Lotte Lehmann, Richard Tauber & Georg Szell
3. Mein Sehnen, Mein Wähnen, Es Träumt Sich Zurück (Korngold) - Karl Hammes & Karl Alwin
4. Voi Che Sapete (Mozart) - Jarmila Novotna & Bruno Walter
5. In Diesen Heil'gen Hallen (Mozart) - Alexander Kipnis
6. Ach, Ich Fühl's, Es Ist Entschwunden (Mozart) - Lotte Schöne & Fritz Zweig
7. Dalla Sua Pace (Mozart) Richard Tauber & Walter Goehr
8. In Uomini, In Soldati (Mozart) Irene Eisinger & Fritz Busch
9. O Isis Und Osiris (Mozart) - Emanuel List & Frieder Weissmann
10. O Säume Länger Nicht (Mozart) Elisabeth Schumann
11. Barcarole: Schöne Nacht, Du Liebesnacht (Offenbach) - Comedian Harmonists
12. Bi, Bi, Bi, Bitte Sehr, Madame, Nur Keine Scham (Offenbach) - Paul Graetz
13. Wohlan, Nur Mut Und Vertrauen (Offenbach) - Joseph Schmidt & Hermann Scherchen
14. Gedenkst Du, Geliebter (Wolf-Ferrari) - Vera Schwarz, Benno Ziegler
15. Abscheulicher! Wo Eilst Du Hin / Komm, Hoffnung (Beethoven) - Frida Leider
16. Recha, Als Gott Dich Einst Zur Tochter Mir Gegeben (Halévy) - Joseph Schmidt & Selmar Meyrowitz

Disc 9 - Opera

1. Keiner Schlafe (Puccini) - Jan Kiepura & Manfred Gurlitt
2. Nur Der Schönheit Weiht' Ich Mein Leben (Puccini) - Rose Pauly
3. Lasset Sie Glauben, Dass Ich In Die Welt Zog (Puccini) - Joseph Schmidt & Frieder Weissmann
4. Vogellied: Wie Flammte Auf Sein Auge (Leoncavallo) - Gitta Alpar & Fritz Zweig
5. Ich Ging Spazieren Einst (Meyerbeer) - Helge Rosvaenge
6. Ach, Mein Sohn, Segen Dir (Meyerbeer) - Sabine Kalter
7. Ich Ging Zu Ihm (Korngold) - Lotte Lehmann & Manfred Gurlitt
8. Ich Bin Der Schwanda (Weinberger)
9. Wie Kann Ich Denn Vergessen, Was Mein Liebstes War (Weinberger) - Theodor Scheidel & Hermann Weigert
10. In Einem Waschkorb / Wie Freu' Ich Mich (Nicolai) - Gerhard Hüsch, Eugen Fuchs & Alexander Von Zemlinsky
11. Blick Ich Umher In Diesem Edlen Kreise (Wagner) - Herbert Janssen
12. Dass Der Mein Vater Nicht Ist (Wagner) - Max Lorenz
13. Was Duftet Doch Der Flieder (Wagner) - Friedrich Schorr
14. Der Männer Sippe Saß Hier Im Saal (Wagner) - Lotte Lehmann & Bruno Walter
15. Ich Weiß Ein Wildes Geschlecht (Wagner) - Alexander Kipnis & Erich Leinsdorf
16. Du Bist Der Lenz (Wagner) Delia Reinhardt
17. Abendlich Strahlt Der Sonne Auge (Wagner) - Friedrich Schorr & Leo Blech

Disc 10 - Concert

1. Grablegung Aus Mathis, Der Maler, 2. Satz Der Sinfonie (Hindemith) - Paul Hindemith & Berliner Philharmonisches Orchester
2. Das Lied Von Der Erde: Von Der Schönheit (Mahler) - Kerstin Thorborg & Bruno Walter
3. Auf Den Flügeln Des Gesanges (Mendelssohn-Bartholdy/Heine) - Heinrich Schlusnus, Klavier: Franz Rupp
4. An Die Musik (Schubert/Schober) - Heinrich Schlusnus & Franz Rupp
5. Nocturne Cis-Moll, Op. Posth. (Chopin) - Karlrobert Kreiten, Klavier
6. Andante Aus Dem Violinkonzert A-Dur, Op. 28 (Goldmark) - Nathan Milstein, Violine & Bruno Walter
7. Du Bist Die Ruh, Der Friede Mild (Schubert/Rückert) - Elisabeth Schumann & Karl Alwin
8. Des Knaben Wunderhorn: Rheinlegendchen (Mahler) - Heinrich Schlusnus & Hermann Weigert
9. Aus Meinen Tränen Sprießen (Schumann/Heine)
10. Am Leuchtenden Sommermorgen (Schumann/Heine) - Lotte Lehmann, Klavier: Bruno Walter
11. Sonate Für Klavier Und Violine A-Moll: 3. Satz, Op. 105 (Schumann) - Rudolf Serkin & Adolf Busch
12. Der Nussbaum (Schumann/Mosen) Frida Leider
13. Die Winterreise: Das Wirtshaus (Schubert/Müller) - Richard Tauber & Mischa Spoliansky
14. Klaviersonate Nr. 8, Pathetique: Iii. Rondo: Allegro (Beethoven) - Artur Schnabel
15. Bagatelle Für Klavier, Für Elise (Beethoven) - Artur Schnabel
16. Loreley: Ich Weiß Nicht, Was Soll Es Bedeuten (Silcher/Heine) - Heinrich Schlusnus & Hermann Weigert
17. Liebesleid (Kreisler) - Fritz Kreisler & Franz Rupp
18. Fireworks, Fantasie Für Orchester (Strawinsky) - Erich Kleiber & Berliner Philharmoniker
19. Kindertotenlieder: Oft Denk' Ich, Sie Sind Nur Ausgegangen (Mahler/Rückert) - Heinrich Rehkemper & Jascha Horenstein
20. Partita For Piano (Schulhoff) - Erwin Schulhoff
21. Pierrot Lunaire: Der Alte Duft Aus Märchenzeit (Schönberg) - Arnold Schönberg
Exact Audio Copy V1.1 from 23. June 2015

EAC extraction logfile from 20. October 2015, 17:24

Various Artists / Kulturbolschewismus - Entarte Musik (Disc 1)

Used drive : hp DVDRAM GT50N Adapter: 1 ID: 0

Read mode : Secure
Utilize accurate stream : Yes
Defeat audio cache : Yes
Make use of C2 pointers : No

Read offset correction : 103
Overread into Lead-In and Lead-Out : No
Fill up missing offset samples with silence : Yes
Delete leading and trailing silent blocks : No
Null samples used in CRC calculations : Yes
Used interface : Native Win32 interface for Win NT & 2000
Gap handling : Appended to previous track

Used output format : User Defined Encoder
Selected bitrate : 1024 kBit/s
Quality : High
Add ID3 tag : No
Command line compressor : C:\Program Files (x86)\Exact Audio Copy\Flac\flac.exe
Additional command line options : -8 -V -T "ARTIST=%artist%" -T "TITLE=%title%" -T "ALBUM=%albumtitle%" -T "DATE=%year%" -T "TRACKNUMBER=%tracknr%" -T "GENRE=%genre%" -T "PERFORMER=%albuminterpret%" -T "COMPOSER=%composer%" %haslyrics%–tag-from-file=LYRICS="%lyricsfile%"%haslyrics% -T "ALBUMARTIST=%albumartist%" -T "DISCNUMBER=%cdnumber%" -T "TOTALDISCS=%totalcds%" -T "TOTALTRACKS=%numtracks%" -T "COMMENT=%comment%" %source% -o %dest%


TOC of the extracted CD

Track | Start | Length | Start sector | End sector
––––––––––––––––––––––––––––-
1 | 0:00.00 | 3:05.27 | 0 | 13901
2 | 3:05.27 | 1:38.10 | 13902 | 21261
3 | 4:43.37 | 3:15.05 | 21262 | 35891
4 | 7:58.42 | 2:19.28 | 35892 | 46344
5 | 10:17.70 | 4:20.19 | 46345 | 65863
6 | 14:38.14 | 2:43.19 | 65864 | 78107
7 | 17:21.33 | 3:08.32 | 78108 | 92239
8 | 20:29.65 | 2:58.03 | 92240 | 105592
9 | 23:27.68 | 6:31.61 | 105593 | 134978
10 | 29:59.54 | 3:21.03 | 134979 | 150056
11 | 33:20.57 | 1:41.23 | 150057 | 157654
12 | 35:02.05 | 2:45.02 | 157655 | 170031
13 | 37:47.07 | 2:53.30 | 170032 | 183036
14 | 40:40.37 | 2:19.48 | 183037 | 193509
15 | 43:00.10 | 3:10.27 | 193510 | 207786
16 | 46:10.37 | 2:50.74 | 207787 | 220610
17 | 49:01.36 | 3:38.71 | 220611 | 237031
18 | 52:40.32 | 3:43.58 | 237032 | 253814


Track 1

Filename C:\Users\jv66\Desktop\New folder\Disc 1\01 - Bert Brecht - Die Moritat von Mackie Messer.wav

Pre-gap length 0:00:02.00

Peak level 97.0 %
Extraction speed 1.2 X
Track quality 100.0 %
Test CRC 1895825E
Copy CRC 1895825E
Accurately ripped (confidence 1) [9A527DB6] (AR v2)
Copy OK

Track 2

Filename C:\Users\jv66\Desktop\New folder\Disc 1\02 - Kurt Gerron & Willy trenk-Trebitsch - Kanonensong.wav

Pre-gap length 0:00:02.00

Peak level 97.0 %
Extraction speed 1.1 X
Track quality 100.0 %
Test CRC 937252FA
Copy CRC 937252FA
Accurately ripped (confidence 1) [F43B20A0] (AR v2)
Copy OK

Track 3

Filename C:\Users\jv66\Desktop\New folder\Disc 1\03 - Lotte Lenya - Seeräuberjenny.wav

Pre-gap length 0:00:02.00

Peak level 97.0 %
Extraction speed 1.3 X
Track quality 100.0 %
Test CRC 36CFA505
Copy CRC 36CFA505
Accurately ripped (confidence 1) [2ED35521] (AR v2)
Copy OK

Track 4

Filename C:\Users\jv66\Desktop\New folder\Disc 1\04 - Otto Klemperer & OBS - Die Ballade vom angenehem Leben.wav

Pre-gap length 0:00:02.00

Peak level 97.0 %
Extraction speed 1.3 X
Track quality 100.0 %
Test CRC E4F63DC5
Copy CRC E4F63DC5
Accurately ripped (confidence 1) [D92DB1B0] (AR v2)
Copy OK

Track 5

Filename C:\Users\jv66\Desktop\New folder\Disc 1\05 - Carola Neher - Barbara Song.wav

Pre-gap length 0:00:02.00

Peak level 97.0 %
Extraction speed 1.4 X
Track quality 99.9 %
Test CRC 65519641
Copy CRC 65519641
Accurately ripped (confidence 1) [695D1F03] (AR v2)
Copy OK

Track 6

Filename C:\Users\jv66\Desktop\New folder\Disc 1\06 - Otto Klemperer & OBS - Tango Ballade.wav

Pre-gap length 0:00:02.00

Peak level 97.0 %
Extraction speed 1.5 X
Track quality 100.0 %
Test CRC B88A0782
Copy CRC B88A0782
Accurately ripped (confidence 1) [0B3BA727] (AR v2)
Copy OK

Track 7

Filename C:\Users\jv66\Desktop\New folder\Disc 1\07 - Ernst Busch - Stempellied.wav

Pre-gap length 0:00:02.00

Peak level 97.0 %
Extraction speed 1.6 X
Track quality 100.0 %
Test CRC C3F81CC3
Copy CRC C3F81CC3
Accurately ripped (confidence 1) [01665BAB] (AR v2)
Copy OK

Track 8

Filename C:\Users\jv66\Desktop\New folder\Disc 1\08 - Lotte Lenya - Wie man sich bettet, so liegt man.wav

Pre-gap length 0:00:02.00

Peak level 93.7 %
Extraction speed 1.7 X
Track quality 100.0 %
Test CRC FE7FF952
Copy CRC FE7FF952
Accurately ripped (confidence 1) [13940B3E] (AR v2)
Copy OK

Track 9

Filename C:\Users\jv66\Desktop\New folder\Disc 1\09 - Paul Graetz - Das ist der Hrtzschlag, der zusammenhält.wav

Pre-gap length 0:00:00.48

Peak level 97.0 %
Extraction speed 2.0 X
Track quality 100.0 %
Test CRC A1DC97F3
Copy CRC A1DC97F3
Accurately ripped (confidence 1) [85D6E418] (AR v2)
Copy OK

Track 10

Filename C:\Users\jv66\Desktop\New folder\Disc 1\10 - Claire Waldoff - Raus mit den Männern aus dem Reichstag.wav

Pre-gap length 0:00:02.00

Peak level 97.0 %
Extraction speed 1.9 X
Track quality 100.0 %
Test CRC 795F39F0
Copy CRC 795F39F0
Accurately ripped (confidence 1) [C07F0162] (AR v2)
Copy OK

Track 11

Filename C:\Users\jv66\Desktop\New folder\Disc 1\11 - Das Katakomben-Ensemble - Es weht ein frischer Wind.wav

Pre-gap length 0:00:02.00

Peak level 97.0 %
Extraction speed 1.7 X
Track quality 100.0 %
Test CRC 1A5CB6B9
Copy CRC 1A5CB6B9
Accurately ripped (confidence 1) [C2C67C74] (AR v2)
Copy OK

Track 12

Filename C:\Users\jv66\Desktop\New folder\Disc 1\12 - Blandine Ebinger - Die Trommlerin als Schiebudenfigur.wav

Pre-gap length 0:00:02.00

Peak level 97.0 %
Extraction speed 1.7 X
Track quality 99.9 %
Test CRC 2EAE1C7E
Copy CRC 2EAE1C7E
Accurately ripped (confidence 1) [F4164D20] (AR v2)
Copy OK

Track 13

Filename C:\Users\jv66\Desktop\New folder\Disc 1\13 - Ernst Busch - Die Ballade vom Soldaten.wav

Pre-gap length 0:00:02.00

Peak level 92.7 %
Extraction speed 2.0 X
Track quality 100.0 %
Test CRC 14FA64D6
Copy CRC 14FA64D6
Accurately ripped (confidence 1) [E9113713] (AR v2)
Copy OK

Track 14

Filename C:\Users\jv66\Desktop\New folder\Disc 1\14 - Lucie Mannheim - Lied vom Weib des Nazisoldaten.wav

Pre-gap length 0:00:02.00

Peak level 97.0 %
Extraction speed 2.0 X
Track quality 100.0 %
Test CRC 9FCD6CEC
Copy CRC 9FCD6CEC
Accurately ripped (confidence 1) [8E69A672] (AR v2)
Copy OK

Track 15

Filename C:\Users\jv66\Desktop\New folder\Disc 1\15 - Ernst Busch - Der Bäcker backt um's Morgenrot.wav

Pre-gap length 0:00:02.00

Peak level 97.0 %
Extraction speed 2.2 X
Track quality 100.0 %
Test CRC 23F93CC2
Copy CRC 23F93CC2
Accurately ripped (confidence 1) [B60F9112] (AR v2)
Copy OK

Track 16

Filename C:\Users\jv66\Desktop\New folder\Disc 1\16 - Lotte Lenya - Caesar-Ballade.wav

Pre-gap length 0:00:02.00

Peak level 90.2 %
Extraction speed 1.8 X
Track quality 99.9 %
Test CRC 431BB38F
Copy CRC 431BB38F
Accurately ripped (confidence 1) [C99EC1E9] (AR v2)
Copy OK

Track 17

Filename C:\Users\jv66\Desktop\New folder\Disc 1\17 - Ludwig Hofmann - Jezt ist die Geige mein.wav

Pre-gap length 0:00:01.00

Peak level 97.0 %
Extraction speed 2.3 X
Track quality 100.0 %
Test CRC 73D56F68
Copy CRC 73D56F68
Accurately ripped (confidence 1) [47F55EC7] (AR v2)
Copy OK

Track 18

Filename C:\Users\jv66\Desktop\New folder\Disc 1\18 - Ludwig Hofmann - Leb' wohl, mein Schatz.wav

Pre-gap length 0:00:02.00

Peak level 87.1 %
Extraction speed 2.1 X
Track quality 99.9 %
Test CRC 9128F440
Copy CRC 9128F440
Accurately ripped (confidence 1) [9DFA7B96] (AR v2)
Copy OK


All tracks accurately ripped

No errors occurred

End of status report

–– CUETools DB Plugin V2.1.6

[CTDB TOCID: Mitp8nIzrGPXA2b65uU982PPveI-] found
Submit result: Mitp8nIzrGPXA2b65uU982PPveI- has been confirmed
Track | CTDB Status
1 | (1/1) Accurately ripped
2 | (1/1) Accurately ripped
3 | (1/1) Accurately ripped
4 | (1/1) Accurately ripped
5 | (1/1) Accurately ripped
6 | (1/1) Accurately ripped
7 | (1/1) Accurately ripped
8 | (1/1) Accurately ripped
9 | (1/1) Accurately ripped
10 | (1/1) Accurately ripped
11 | (1/1) Accurately ripped
12 | (1/1) Accurately ripped
13 | (1/1) Accurately ripped
14 | (1/1) Accurately ripped
15 | (1/1) Accurately ripped
16 | (1/1) Accurately ripped
17 | (1/1) Accurately ripped
18 | (1/1) Accurately ripped


==== Log checksum F5F4D6B4F207C79A8FCC42B462B427F451EAA7BE57BCA55CF05211BF11E2CC11 ====


Exact Audio Copy V1.1 from 23. June 2015

EAC extraction logfile from 20. October 2015, 18:44

Various Artists / Cabaret, Chanson (Disc 2)

Used drive : hp DVDRAM GT50N Adapter: 1 ID: 0

Read mode : Secure
Utilize accurate stream : Yes
Defeat audio cache : Yes
Make use of C2 pointers : No

Read offset correction : 103
Overread into Lead-In and Lead-Out : No
Fill up missing offset samples with silence : Yes
Delete leading and trailing silent blocks : No
Null samples used in CRC calculations : Yes
Used interface : Native Win32 interface for Win NT & 2000
Gap handling : Appended to previous track

Used output format : User Defined Encoder
Selected bitrate : 1024 kBit/s
Quality : High
Add ID3 tag : No
Command line compressor : C:\Program Files (x86)\Exact Audio Copy\Flac\flac.exe
Additional command line options : -8 -V -T "ARTIST=%artist%" -T "TITLE=%title%" -T "ALBUM=%albumtitle%" -T "DATE=%year%" -T "TRACKNUMBER=%tracknr%" -T "GENRE=%genre%" -T "PERFORMER=%albuminterpret%" -T "COMPOSER=%composer%" %haslyrics%–tag-from-file=LYRICS="%lyricsfile%"%haslyrics% -T "ALBUMARTIST=%albumartist%" -T "DISCNUMBER=%cdnumber%" -T "TOTALDISCS=%totalcds%" -T "TOTALTRACKS=%numtracks%" -T "COMMENT=%comment%" %source% -o %dest%


TOC of the extracted CD

Track | Start | Length | Start sector | End sector
––––––––––––––––––––––––––––-
1 | 0:00.00 | 3:08.25 | 0 | 14124
2 | 3:08.25 | 3:39.43 | 14125 | 30592
3 | 6:47.68 | 2:34.63 | 30593 | 42205
4 | 9:22.56 | 3:32.40 | 42206 | 58145
5 | 12:55.21 | 2:01.01 | 58146 | 67221
6 | 14:56.22 | 3:02.38 | 67222 | 80909
7 | 17:58.60 | 1:56.31 | 80910 | 89640
8 | 19:55.16 | 3:18.74 | 89641 | 104564
9 | 23:14.15 | 2:55.15 | 104565 | 117704
10 | 26:09.30 | 7:03.17 | 117705 | 149446
11 | 33:12.47 | 2:57.66 | 149447 | 162787
12 | 36:10.38 | 5:49.10 | 162788 | 188972
13 | 41:59.48 | 2:13.21 | 188973 | 198968
14 | 44:12.69 | 2:36.00 | 198969 | 210668
15 | 46:48.69 | 2:54.16 | 210669 | 223734
16 | 49:43.10 | 3:00.29 | 223735 | 237263
17 | 52:43.39 | 3:13.58 | 237264 | 251796


Track 1

Filename C:\Users\jv66\Desktop\New folder\Disc 2\01 - Annemarie Hase - An allem sind die Juden Schuld.wav

Pre-gap length 0:00:02.00

Peak level 97.0 %
Extraction speed 2.3 X
Track quality 100.0 %
Test CRC 143737E8
Copy CRC 143737E8
Accurately ripped (confidence 1) [602F7F89] (AR v2)
Copy OK

Track 2

Filename C:\Users\jv66\Desktop\New folder\Disc 2\02 - Kurt Gerron - Das Nachtgespenst.wav

Pre-gap length 0:00:02.00

Peak level 97.0 %
Extraction speed 1.3 X
Track quality 100.0 %
Test CRC D2F0878A
Copy CRC D2F0878A
Accurately ripped (confidence 1) [5791B3B2] (AR v2)
Copy OK

Track 3

Filename C:\Users\jv66\Desktop\New folder\Disc 2\03 - Blandine Ebinger - Die Hungerkünstlerin.wav

Pre-gap length 0:00:02.00

Peak level 93.6 %
Extraction speed 1.3 X
Track quality 100.0 %
Test CRC CD1EACB2
Copy CRC CD1EACB2
Accurately ripped (confidence 1) [C304857B] (AR v2)
Copy OK

Track 4

Filename C:\Users\jv66\Desktop\New folder\Disc 2\04 - Hans Albers - Seemannschoral- In Hamburg an der Elbe.wav

Pre-gap length 0:00:02.00

Peak level 97.0 %
Extraction speed 1.5 X
Track quality 100.0 %
Test CRC D03990E9
Copy CRC D03990E9
Accurately ripped (confidence 1) [3AE99A17] (AR v2)
Copy OK

Track 5

Filename C:\Users\jv66\Desktop\New folder\Disc 2\05 - Isa Vermehren - Das Original von der Wasserkante.wav

Pre-gap length 0:00:02.00

Peak level 88.6 %
Extraction speed 1.4 X
Track quality 100.0 %
Test CRC 735B70B0
Copy CRC 735B70B0
Accurately ripped (confidence 1) [57DEE428] (AR v2)
Copy OK

Track 6

Filename C:\Users\jv66\Desktop\New folder\Disc 2\06 - Max Hansen - Einmal möcht' ich keine Sorgen haben.wav

Pre-gap length 0:00:02.00

Peak level 96.9 %
Extraction speed 1.6 X
Track quality 100.0 %
Test CRC 6E58A898
Copy CRC 6E58A898
Accurately ripped (confidence 1) [15881232] (AR v2)
Copy OK

Track 7

Filename C:\Users\jv66\Desktop\New folder\Disc 2\07 - Marlène Dietrich - Wenn ich mir was wünschen durfte.wav

Pre-gap length 0:00:02.00

Peak level 97.0 %
Extraction speed 1.5 X
Track quality 100.0 %
Test CRC 6422D805
Copy CRC 6422D805
Accurately ripped (confidence 1) [20F2278B] (AR v2)
Copy OK

Track 8

Filename C:\Users\jv66\Desktop\New folder\Disc 2\08 - Willy Prager - Ich weib, das ist nicht so.wav

Pre-gap length 0:00:02.00

Peak level 96.9 %
Extraction speed 1.7 X
Track quality 100.0 %
Test CRC 1002DF18
Copy CRC 1002DF18
Accurately ripped (confidence 1) [71563B57] (AR v2)
Copy OK

Track 9

Filename C:\Users\jv66\Desktop\New folder\Disc 2\09 - Comedian Harmonists - Kleiner Mann, was nun.wav

Pre-gap length 0:00:02.00

Peak level 97.0 %
Extraction speed 1.7 X
Track quality 100.0 %
Test CRC 1F7EAAD5
Copy CRC 1F7EAAD5
Accurately ripped (confidence 1) [1B4242A5] (AR v2)
Copy OK

Track 10

Filename C:\Users\jv66\Desktop\New folder\Disc 2\10 - Paul Morgan - Zeitungsparodie.wav

Pre-gap length 0:00:02.00

Peak level 97.0 %
Extraction speed 2.1 X
Track quality 100.0 %
Test CRC 77DF211B
Copy CRC 77DF211B
Accurately ripped (confidence 1) [32E1D170] (AR v2)
Copy OK

Track 11

Filename C:\Users\jv66\Desktop\New folder\Disc 2\11 - Trude Hesterberg - Loblied auf Italien.wav

Pre-gap length 0:00:02.00

Peak level 97.0 %
Extraction speed 1.9 X
Track quality 100.0 %
Test CRC F673B7CC
Copy CRC F673B7CC
Accurately ripped (confidence 1) [504ACCC7] (AR v2)
Copy OK

Track 12

Filename C:\Users\jv66\Desktop\New folder\Disc 2\12 - Paul Graetz - Wenn der alte Motor wieder tackt.wav

Pre-gap length 0:00:02.00

Peak level 97.0 %
Extraction speed 2.2 X
Track quality 100.0 %
Test CRC 747B5581
Copy CRC 747B5581
Accurately ripped (confidence 1) [B576C509] (AR v2)
Copy OK

Track 13

Filename C:\Users\jv66\Desktop\New folder\Disc 2\13 - Die Vier Nachrichter - Der sonf von den brennenden Zeitfragen.wav

Pre-gap length 0:00:02.00

Peak level 97.0 %
Extraction speed 2.0 X
Track quality 100.0 %
Test CRC 187C9FB3
Copy CRC 187C9FB3
Accurately ripped (confidence 1) [85A18D5E] (AR v2)
Copy OK

Track 14

Filename C:\Users\jv66\Desktop\New folder\Disc 2\14 - Kate Kühl - Die Dorfschöne.wav

Pre-gap length 0:00:02.00

Peak level 97.0 %
Extraction speed 1.7 X
Track quality 99.9 %
Test CRC 3DB0D65F
Copy CRC 3DB0D65F
Accurately ripped (confidence 1) [65849144] (AR v2)
Copy OK

Track 15

Filename C:\Users\jv66\Desktop\New folder\Disc 2\15 - Curt Bois - Guck doch nicht immer nach dem Tangogeiger hin.wav

Pre-gap length 0:00:02.00

Peak level 86.2 %
Extraction speed 2.2 X
Track quality 100.0 %
Test CRC 5E346F1D
Copy CRC 5E346F1D
Accurately ripped (confidence 1) [4E73C0A6] (AR v2)
Copy OK

Track 16

Filename C:\Users\jv66\Desktop\New folder\Disc 2\16 - Trude Hesterberg - Die kleine Stadt.wav

Pre-gap length 0:00:02.00

Peak level 97.0 %
Extraction speed 2.2 X
Track quality 100.0 %
Test CRC D586F384
Copy CRC D586F384
Accurately ripped (confidence 1) [6CCFFC2C] (AR v2)
Copy OK

Track 17

Filename C:\Users\jv66\Desktop\New folder\Disc 2\17 - Paul Morgan - Die Keuschheitskommission.wav

Pre-gap length 0:00:02.00

Peak level 96.9 %
Extraction speed 2.3 X
Track quality 100.0 %
Test CRC 3B045119
Copy CRC 3B045119
Accurately ripped (confidence 1) [0B5965C0] (AR v2)
Copy OK


All tracks accurately ripped

No errors occurred

End of status report

–– CUETools DB Plugin V2.1.6

[CTDB TOCID: PUXvugFwVDytsF_6azEcXt5Uwsg-] found
Submit result: PUXvugFwVDytsF_6azEcXt5Uwsg- has been confirmed
Track | CTDB Status
1 | (1/1) Accurately ripped
2 | (1/1) Accurately ripped
3 | (1/1) Accurately ripped
4 | (1/1) Accurately ripped
5 | (1/1) Accurately ripped
6 | (1/1) Accurately ripped
7 | (1/1) Accurately ripped
8 | (1/1) Accurately ripped
9 | (1/1) Accurately ripped
10 | (1/1) Accurately ripped
11 | (1/1) Accurately ripped
12 | (1/1) Accurately ripped
13 | (1/1) Accurately ripped
14 | (1/1) Accurately ripped
15 | (1/1) Accurately ripped
16 | (1/1) Accurately ripped
17 | (1/1) Accurately ripped


==== Log checksum 940D29AC647AA1F6019E78DD92EA12E38D4ECB9211A6666DBDC96C319F45D351 ====


Exact Audio Copy V1.1 from 23. June 2015

EAC extraction logfile from 20. October 2015, 22:43

Various Artists / Hit Songs And Films (Disc 5)

Used drive : hp DVDRAM GT50N Adapter: 1 ID: 0

Read mode : Secure
Utilize accurate stream : Yes
Defeat audio cache : Yes
Make use of C2 pointers : No

Read offset correction : 103
Overread into Lead-In and Lead-Out : No
Fill up missing offset samples with silence : Yes
Delete leading and trailing silent blocks : No
Null samples used in CRC calculations : Yes
Used interface : Native Win32 interface for Win NT & 2000
Gap handling : Appended to previous track

Used output format : User Defined Encoder
Selected bitrate : 1024 kBit/s
Quality : High
Add ID3 tag : No
Command line compressor : C:\Program Files (x86)\Exact Audio Copy\Flac\flac.exe
Additional command line options : -8 -V -T "ARTIST=%artist%" -T "TITLE=%title%" -T "ALBUM=%albumtitle%" -T "DATE=%year%" -T "TRACKNUMBER=%tracknr%" -T "GENRE=%genre%" -T "PERFORMER=%albuminterpret%" -T "COMPOSER=%composer%" %haslyrics%–tag-from-file=LYRICS="%lyricsfile%"%haslyrics% -T "ALBUMARTIST=%albumartist%" -T "DISCNUMBER=%cdnumber%" -T "TOTALDISCS=%totalcds%" -T "TOTALTRACKS=%numtracks%" -T "COMMENT=%comment%" %source% -o %dest%


TOC of the extracted CD

Track | Start | Length | Start sector | End sector
––––––––––––––––––––––––––––-
1 | 0:00.00 | 2:52.24 | 0 | 12923
2 | 2:52.24 | 2:48.25 | 12924 | 25548
3 | 5:40.49 | 2:56.55 | 25549 | 38803
4 | 8:37.29 | 3:08.56 | 38804 | 52959
5 | 11:46.10 | 3:31.30 | 52960 | 68814
6 | 15:17.40 | 3:19.30 | 68815 | 83769
7 | 18:36.70 | 3:15.32 | 83770 | 98426
8 | 21:52.27 | 3:44.61 | 98427 | 115287
9 | 25:37.13 | 2:32.05 | 115288 | 126692
10 | 28:09.18 | 3:23.13 | 126693 | 141930
11 | 31:32.31 | 3:13.74 | 141931 | 156479
12 | 34:46.30 | 3:10.17 | 156480 | 170746
13 | 37:56.47 | 3:02.70 | 170747 | 184466
14 | 40:59.42 | 2:39.19 | 184467 | 196410
15 | 43:38.61 | 3:02.07 | 196411 | 210067
16 | 46:40.68 | 3:23.21 | 210068 | 225313


Track 1

Filename C:\Users\jv66\Desktop\New folder\Disc 5\01 - Brigitte Mira - Was Machst Du Mit Dem Knie, Lieber Hans.wav

Pre-gap length 0:00:02.00

Peak level 81.6 %
Extraction speed 1.8 X
Track quality 99.9 %
Test CRC 1AA0059B
Copy CRC 1AA0059B
Accurately ripped (confidence 1) [1432F605] (AR v2)
Copy OK

Track 2

Filename C:\Users\jv66\Desktop\New folder\Disc 5\02 - Curt Bois - Solang Wir Jung Sind, Madame.wav

Pre-gap length 0:00:02.00

Peak level 94.4 %
Extraction speed 1.0 X
Track quality 99.9 %
Test CRC 21C95B09
Copy CRC 21C95B09
Accurately ripped (confidence 1) [DB94E7BF] (AR v2)
Copy OK

Track 3

Filename C:\Users\jv66\Desktop\New folder\Disc 5\03 - Zarah Leander - Yes, Sir.wav

Pre-gap length 0:00:02.00

Peak level 94.4 %
Extraction speed 1.3 X
Track quality 100.0 %
Test CRC 5A346BDC
Copy CRC 5A346BDC
Accurately ripped (confidence 1) [7E28957A] (AR v2)
Copy OK

Track 4

Filename C:\Users\jv66\Desktop\New folder\Disc 5\04 - Comedian Harmonists - Das Ist Die Liebe Der Matrosen.wav

Pre-gap length 0:00:02.00

Peak level 94.1 %
Extraction speed 1.4 X
Track quality 100.0 %
Test CRC F52E8687
Copy CRC F52E8687
Accurately ripped (confidence 1) [FE53E461] (AR v2)
Copy OK

Track 5

Filename C:\Users\jv66\Desktop\New folder\Disc 5\05 - Jan Kiepura - Heute Nacht Oder Nie.wav

Pre-gap length 0:00:02.00

Peak level 92.8 %
Extraction speed 1.5 X
Track quality 100.0 %
Test CRC E6153FA4
Copy CRC E6153FA4
Accurately ripped (confidence 1) [DC4F2E33] (AR v2)
Copy OK

Track 6

Filename C:\Users\jv66\Desktop\New folder\Disc 5\06 - Lotte Lehmann - Im Prater Blüh'n Wieder Die Bäume.wav

Pre-gap length 0:00:02.00

Peak level 99.6 %
Extraction speed 1.6 X
Track quality 100.0 %
Test CRC 6427D205
Copy CRC 6427D205
Accurately ripped (confidence 1) [BB2CB40B] (AR v2)
Copy OK

Track 7

Filename C:\Users\jv66\Desktop\New folder\Disc 5\07 - Helge Rosvaenge - Frag Nicht, Warum Ich Gehe.wav

Pre-gap length 0:00:02.00

Peak level 76.2 %
Extraction speed 1.6 X
Track quality 100.0 %
Test CRC F4B524B1
Copy CRC F4B524B1
Accurately ripped (confidence 1) [DD2422D6] (AR v2)
Copy OK

Track 8

Filename C:\Users\jv66\Desktop\New folder\Disc 5\08 - Marlène Dietrich - Allein In Einer Großen Stadt.wav

Pre-gap length 0:00:02.00

Peak level 90.6 %
Extraction speed 1.8 X
Track quality 100.0 %
Test CRC ED3387D1
Copy CRC ED3387D1
Accurately ripped (confidence 1) [B0667EBF] (AR v2)
Copy OK

Track 9

Filename C:\Users\jv66\Desktop\New folder\Disc 5\09 - Heinz Rühmann, Willy Fritsch & Oskar Karlweis - Ein Freund, Ein Guter Freund.wav

Pre-gap length 0:00:02.00

Peak level 76.1 %
Extraction speed 1.4 X
Track quality 99.9 %
Test CRC FE82105B
Copy CRC FE82105B
Accurately ripped (confidence 1) [41822112] (AR v2)
Copy OK

Track 10

Filename C:\Users\jv66\Desktop\New folder\Disc 5\10 - Grete Mosheim - Eine Kleine Sehnsucht.wav

Pre-gap length 0:00:02.00

Peak level 88.1 %
Extraction speed 1.6 X
Track quality 99.9 %
Test CRC 0100D35F
Copy CRC 0100D35F
Accurately ripped (confidence 1) [4D9CA3AC] (AR v2)
Copy OK

Track 11

Filename C:\Users\jv66\Desktop\New folder\Disc 5\11 - Max Hansen - Ich Bin Vom Rockefeller Grad Das Gegenteil.wav

Pre-gap length 0:00:02.00

Peak level 95.9 %
Extraction speed 2.0 X
Track quality 100.0 %
Test CRC 89B363CC
Copy CRC 89B363CC
Accurately ripped (confidence 1) [6A411C15] (AR v2)
Copy OK

Track 12

Filename C:\Users\jv66\Desktop\New folder\Disc 5\12 - Lilian Harvey, Willy Fritsch & Willy Forst - Wir Zahlen Keine Miete Mehr.wav

Pre-gap length 0:00:02.00

Peak level 92.3 %
Extraction speed 1.7 X
Track quality 99.9 %
Test CRC 30ECDF27
Copy CRC 30ECDF27
Accurately ripped (confidence 1) [4F798460] (AR v2)
Copy OK

Track 13

Filename C:\Users\jv66\Desktop\New folder\Disc 5\13 - Walter Jurmann - Wenn Die Elisabeth Nicht So Schöne Beine Hätt'.wav

Pre-gap length 0:00:02.00

Peak level 93.2 %
Extraction speed 1.7 X
Track quality 99.9 %
Test CRC D6A3727C
Copy CRC D6A3727C
Accurately ripped (confidence 1) [410716DF] (AR v2)
Copy OK

Track 14

Filename C:\Users\jv66\Desktop\New folder\Disc 5\14 - Marlène Dietrich - Ich Bin Die Fesche Lola.wav

Pre-gap length 0:00:02.00

Peak level 86.6 %
Extraction speed 2.0 X
Track quality 100.0 %
Test CRC 2858B1DF
Copy CRC 2858B1DF
Accurately ripped (confidence 1) [C3B7FDF0] (AR v2)
Copy OK

Track 15

Filename C:\Users\jv66\Desktop\New folder\Disc 5\15 - Irene Ambrus & Hans Albers - Ich Will Sie Küssen, Wenn Sie Es Verlangen.wav

Pre-gap length 0:00:02.00

Peak level 90.6 %
Extraction speed 2.2 X
Track quality 100.0 %
Test CRC 8C8BE832
Copy CRC 8C8BE832
Accurately ripped (confidence 1) [1AB018F5] (AR v2)
Copy OK

Track 16

Filename C:\Users\jv66\Desktop\New folder\Disc 5\16 - Joseph Schmidt - Es Wird Im Leben Dir Mehr Genommen Als Gegeben.wav

Pre-gap length 0:00:02.00

Peak level 90.9 %
Extraction speed 2.2 X
Track quality 100.0 %
Test CRC 3752C444
Copy CRC 3752C444
Accurately ripped (confidence 1) [E166A7B7] (AR v2)
Copy OK


All tracks accurately ripped

No errors occurred

End of status report

–– CUETools DB Plugin V2.1.6

[CTDB TOCID: h8ykvQCAOmvpA_2pwb__jRam1FE-] found
Submit result: h8ykvQCAOmvpA_2pwb__jRam1FE- has been confirmed
Track | CTDB Status
1 | (1/1) Accurately ripped
2 | (1/1) Accurately ripped
3 | (1/1) Accurately ripped
4 | (1/1) Accurately ripped
5 | (1/1) Accurately ripped
6 | (1/1) Accurately ripped
7 | (1/1) Accurately ripped
8 | (1/1) Accurately ripped
9 | (1/1) Accurately ripped
10 | (1/1) Accurately ripped
11 | (1/1) Accurately ripped
12 | (1/1) Accurately ripped
13 | (1/1) Accurately ripped
14 | (1/1) Accurately ripped
15 | (1/1) Accurately ripped
16 | (1/1) Accurately ripped


==== Log checksum 7ABFC912C2A7435D400263B50B6125211E3AB40F4B5EFA724F5A9CC3D97B2B0B ====


Exact Audio Copy V1.1 from 23. June 2015

EAC extraction logfile from 21. October 2015, 11:35

Various Artists / Opera (Disc 8)

Used drive : hp DVDRAM GT50N Adapter: 1 ID: 0

Read mode : Secure
Utilize accurate stream : Yes
Defeat audio cache : Yes
Make use of C2 pointers : No

Read offset correction : 103
Overread into Lead-In and Lead-Out : No
Fill up missing offset samples with silence : Yes
Delete leading and trailing silent blocks : No
Null samples used in CRC calculations : Yes
Used interface : Native Win32 interface for Win NT & 2000
Gap handling : Appended to previous track

Used output format : User Defined Encoder
Selected bitrate : 1024 kBit/s
Quality : High
Add ID3 tag : No
Command line compressor : C:\Program Files (x86)\Exact Audio Copy\Flac\flac.exe
Additional command line options : -8 -V -T "ARTIST=%artist%" -T "TITLE=%title%" -T "ALBUM=%albumtitle%" -T "DATE=%year%" -T "TRACKNUMBER=%tracknr%" -T "GENRE=%genre%" -T "PERFORMER=%albuminterpret%" -T "COMPOSER=%composer%" %haslyrics%–tag-from-file=LYRICS="%lyricsfile%"%haslyrics% -T "ALBUMARTIST=%albumartist%" -T "DISCNUMBER=%cdnumber%" -T "TOTALDISCS=%totalcds%" -T "TOTALTRACKS=%numtracks%" -T "COMMENT=%comment%" %source% -o %dest%


TOC of the extracted CD

Track | Start | Length | Start sector | End sector
––––––––––––––––––––––––––––-
1 | 0:00.00 | 3:32.23 | 0 | 15922
2 | 3:32.23 | 4:10.15 | 15923 | 34687
3 | 7:42.38 | 3:28.27 | 34688 | 50314
4 | 11:10.65 | 3:02.70 | 50315 | 64034
5 | 14:13.60 | 3:38.05 | 64035 | 80389
6 | 17:51.65 | 4:17.14 | 80390 | 99678
7 | 22:09.04 | 4:05.61 | 99679 | 118114
8 | 26:14.65 | 2:21.28 | 118115 | 128717
9 | 28:36.18 | 3:20.07 | 128718 | 143724
10 | 31:56.25 | 3:22.51 | 143725 | 158925
11 | 35:19.01 | 2:46.70 | 158926 | 171445
12 | 38:05.71 | 3:17.28 | 171446 | 186248
13 | 41:23.24 | 3:35.13 | 186249 | 202386
14 | 44:58.37 | 2:57.26 | 202387 | 215687
15 | 47:55.63 | 8:22.26 | 215688 | 253363
16 | 56:18.14 | 4:34.54 | 253364 | 273967


Track 1

Filename C:\Users\jv66\Desktop\New folder\Disc 8\01 - Helge Rosvaenge - Land, So Wunderbar.wav

Pre-gap length 0:00:02.00

Peak level 97.0 %
Extraction speed 2.4 X
Track quality 100.0 %
Test CRC 02B2B6ED
Copy CRC 02B2B6ED
Accurately ripped (confidence 1) [A423AA66] (AR v2)
Copy OK

Track 2

Filename C:\Users\jv66\Desktop\New folder\Disc 8\02 - Lotte Lehmann, Richard Tauber & Georg Szell - Glück, Das Mir Verblieb.wav

Pre-gap length 0:00:02.00

Peak level 85.5 %
Extraction speed 1.3 X
Track quality 100.0 %
Test CRC 1F262D19
Copy CRC 1F262D19
Accurately ripped (confidence 1) [C3F96763] (AR v2)
Copy OK

Track 3

Filename C:\Users\jv66\Desktop\New folder\Disc 8\03 - Karl Hammes & Karl Alwin - Mein Sehnen, Mein Wähnen, Es Träumt Sich Zurück.wav

Pre-gap length 0:00:02.00

Peak level 89.4 %
Extraction speed 1.4 X
Track quality 100.0 %
Test CRC E06323AA
Copy CRC E06323AA
Accurately ripped (confidence 1) [F1BB82DA] (AR v2)
Copy OK

Track 4

Filename C:\Users\jv66\Desktop\New folder\Disc 8\04 - Jarmila Novotna & Bruno Walter - Voi Che Sapete.wav

Pre-gap length 0:00:02.00

Peak level 76.1 %
Extraction speed 1.3 X
Track quality 99.9 %
Test CRC FDA9E7F1
Copy CRC FDA9E7F1
Accurately ripped (confidence 1) [3CA415C5] (AR v2)
Copy OK

Track 5

Filename C:\Users\jv66\Desktop\New folder\Disc 8\05 - Alexander Kipnis - In Diesen Heil'gen Hallen.wav

Pre-gap length 0:00:02.00

Peak level 92.1 %
Extraction speed 1.6 X
Track quality 100.0 %
Test CRC F870B71A
Copy CRC F870B71A
Accurately ripped (confidence 1) [D496AD61] (AR v2)
Copy OK

Track 6

Filename C:\Users\jv66\Desktop\New folder\Disc 8\06 - Lotte Schöne & Fritz Zweig - Ach, Ich Fühl's, Es Ist Entschwunden.wav

Pre-gap length 0:00:02.00

Peak level 96.7 %
Extraction speed 1.7 X
Track quality 100.0 %
Test CRC 627999B8
Copy CRC 627999B8
Accurately ripped (confidence 1) [BB398015] (AR v2)
Copy OK

Track 7

Filename C:\Users\jv66\Desktop\New folder\Disc 8\07 - Richard Tauber & Walter Goehr - Dalla Sua Pace.wav

Pre-gap length 0:00:02.00

Peak level 75.2 %
Extraction speed 1.8 X
Track quality 100.0 %
Test CRC C33453AA
Copy CRC C33453AA
Accurately ripped (confidence 1) [B35A2164] (AR v2)
Copy OK

Track 8

Filename C:\Users\jv66\Desktop\New folder\Disc 8\08 - Irene Eisinger & Fritz Busch - In Uomini, In Soldati.wav

Pre-gap length 0:00:02.00

Peak level 96.7 %
Extraction speed 1.7 X
Track quality 100.0 %
Test CRC D5EC787D
Copy CRC D5EC787D
Accurately ripped (confidence 1) [252BD0AB] (AR v2)
Copy OK

Track 9

Filename C:\Users\jv66\Desktop\New folder\Disc 8\09 - Emanuel List & Frieder Weissmann - O Isis Und Osiris.wav

Pre-gap length 0:00:03.48

Peak level 81.8 %
Extraction speed 1.9 X
Track quality 100.0 %
Test CRC 232114FF
Copy CRC 232114FF
Accurately ripped (confidence 1) [51C63984] (AR v2)
Copy OK

Track 10

Filename C:\Users\jv66\Desktop\New folder\Disc 8\10 - Elisabeth Schumann - O Säume Länger Nicht.wav

Pre-gap length 0:00:02.00

Peak level 94.9 %
Extraction speed 2.0 X
Track quality 100.0 %
Test CRC 28E6A973
Copy CRC 28E6A973
Accurately ripped (confidence 1) [FE3C9C5D] (AR v2)
Copy OK

Track 11

Filename C:\Users\jv66\Desktop\New folder\Disc 8\11 - Comedian Harmonists - Barcarole- Schöne Nacht, Du Liebesnacht.wav

Pre-gap length 0:00:02.00

Peak level 73.2 %
Extraction speed 1.9 X
Track quality 100.0 %
Test CRC 09D84B86
Copy CRC 09D84B86
Accurately ripped (confidence 1) [02C1E30C] (AR v2)
Copy OK

Track 12

Filename C:\Users\jv66\Desktop\New folder\Disc 8\12 - Paul Graetz - Bi, Bi, Bi, Bitte Sehr, Madame, Nur Keine Scham.wav

Pre-gap length 0:00:02.00

Peak level 81.4 %
Extraction speed 2.1 X
Track quality 100.0 %
Test CRC A0F9461D
Copy CRC A0F9461D
Accurately ripped (confidence 1) [C7C3C10F] (AR v2)
Copy OK

Track 13

Filename C:\Users\jv66\Desktop\New folder\Disc 8\13 - Joseph Schmidt - Wohlan, Nur Mut Und Vertrauen.wav

Pre-gap length 0:00:02.00

Peak level 72.8 %
Extraction speed 2.2 X
Track quality 100.0 %
Test CRC 71ED2BB6
Copy CRC 71ED2BB6
Accurately ripped (confidence 1) [B0949FB9] (AR v2)
Copy OK

Track 14

Filename C:\Users\jv66\Desktop\New folder\Disc 8\14 - Vera Schwarz & Benno Ziegler - Gedenkst Du, Geliebter.wav

Pre-gap length 0:00:02.00

Peak level 78.3 %
Extraction speed 2.2 X
Track quality 100.0 %
Test CRC 2B68FD1E
Copy CRC 2B68FD1E
Accurately ripped (confidence 1) [E0C19E10] (AR v2)
Copy OK

Track 15

Filename C:\Users\jv66\Desktop\New folder\Disc 8\15 - Frida Leider - Abscheulicher! Wo Eilst Du Hin - Komm, Hoffnung.wav

Pre-gap length 0:00:02.00

Peak level 74.0 %
Extraction speed 2.5 X
Track quality 100.0 %
Test CRC BE103669
Copy CRC BE103669
Accurately ripped (confidence 1) [01FF65C4] (AR v2)
Copy OK

Track 16

Filename C:\Users\jv66\Desktop\New folder\Disc 8\16 - Joseph Schmidt - Recha, Als Gott Dich Einst Zur Tochter Mir Gegeben.wav

Pre-gap length 0:00:02.00

Peak level 97.0 %
Extraction speed 2.5 X
Track quality 100.0 %
Test CRC 0BDE7203
Copy CRC 0BDE7203
Accurately ripped (confidence 1) [609ED448] (AR v2)
Copy OK


All tracks accurately ripped

No errors occurred

End of status report

–– CUETools DB Plugin V2.1.6

[CTDB TOCID: .BmmwfanINUkNIlTEmh4B75E1XM-] found
Submit result: .BmmwfanINUkNIlTEmh4B75E1XM- has been confirmed
Track | CTDB Status
1 | (1/1) Accurately ripped
2 | (1/1) Accurately ripped
3 | (1/1) Accurately ripped
4 | (1/1) Accurately ripped
5 | (1/1) Accurately ripped
6 | (1/1) Accurately ripped
7 | (1/1) Accurately ripped
8 | (1/1) Accurately ripped
9 | (1/1) Accurately ripped
10 | (1/1) Accurately ripped
11 | (1/1) Accurately ripped
12 | (1/1) Accurately ripped
13 | (1/1) Accurately ripped
14 | (1/1) Accurately ripped
15 | (1/1) Accurately ripped
16 | (1/1) Accurately ripped


==== Log checksum C339F3BD3E4FB36FA6A60153D46829FD57EBF0244666ADAA9F39FBFCB51AA402 ====