Subcategories

Foreigner - Original Album Series (2009) 5 CD Box Set [Re-Up]

Posted By: Designol
Foreigner - Original Album Series (2009) 5 CD Box Set [Re-Up]

Foreigner - Original Album Series (2009) 5 CD Box Set
EAC | FLAC | Image (Cue&Log) ~ 1.46 Gb | Mp3 (CBR320) ~ 603 Mb | Scans included
Rock, Hard Rock, AOR | Label: Rhino | # 8122 79828 3 | Time: 03:21:06

Five CD box set containing a quintet of original albums from this Classic Rock outfit. This set contains the digitally remastered and expanded editions of Foreigner (1977), Double Vision (1978), Head Games (1979), 4 (1981) and Agent Provocateur (1984). Led by vocalist Lou Gramm and guitarist Mick Jones, Foreigner, alongside Journey, were one of the most successful Melodic Rock/AOR bands of all time, Their music is still in heavy rotation on radio stations all over the world.

Foreigner - Original Album Series (2009) 5 CD Box Set [Re-Up]





Foreigner - Original Album Series (2009) 5 CD Box Set [Re-Up]

CD1: Foreigner - Foreigner (1977)

Although punk rock's furious revolution threatened to overthrow rock's old guard in 1977, bands like Foreigner came along and proved that there was plenty of room in the marketplace for both the violent, upstart minimalism of punk and the airbrushed slickness of what would be called "arena rock." Along with Boston, Journey, Heart, and others, Foreigner celebrated professionalism over raw emotion. And, looking back, it's easy to see why they sold millions; not everyone in the world was pissed off, dissatisfied with the economy, or even necessarily looking for a change. In fact, for most suburban American teens, Foreigner's immaculate rock sound was the perfect soundtrack for cruising through well-manicured neighborhoods in their Chevy Novas. The album spawned some of the biggest FM hits of 1977, including the anthemic "Feels Like the First Time" and "Cold as Ice," both of which were anchored – like most of Foreigner's songs – by the muscular but traditional riffing of guitarist Mick Jones, the soaring vocals of Lou Gramm, and the state-of-the-art rock production values of the day, which allowed the band to sound hard but polished. As pure rock craftsmanship goes, Foreigner was as good as it got in the late '70s.

Review by Andy Hinds, Allmusic.com

Tracklist:

01. Feels Like The First TIme (3:53)
02. Cold As Ice (3:24)
03. Starrider (4:04)
04. Headknocker (3:04)
05. The Damage Is Done (4:19)
06. Long, Long Way From Home (2:57)
07. Woman Oh Woman (3:53)
08. At War With The World (4:26)
09. Fool For You Anyway (4:17)
10. I Need You (5:13)


Exact Audio Copy V0.99 prebeta 5 from 4. May 2009

Отчёт EAC об извлечении, выполненном 9. января 2012, 19:02

Foreigner / Foreigner

Дисковод: ASUS DRW-24B1ST Adapter: 4 ID: 0

Режим чтения : Достоверность
Использование точного потока : Да
Отключение кэша аудио : Да
Использование указателей C2 : Нет

Коррекция смещения при чтении : 6
Способность читать области Lead-in и Lead-out : Нет
Заполнение пропущенных сэмплов тишиной : Да
Удаление блоков с тишиной в начале и конце : Нет
При вычислениях CRC использовались нулевые сэмплы : Да
Интерфейс : Встроенный Win32-интерфейс для Win NT/2000

Выходной формат : Внутренние WAV-операции
Формат сэмплов : 44.100 Гц; 16 бит; стерео


TOC извлечённого CD

Трек | Старт | Длительность | Начальный сектор | Конечный сектор
––––––––––––––––––––––––––––––––––-
1 | 0:00.00 | 3:53.30 | 0 | 17504
2 | 3:53.30 | 3:24.02 | 17505 | 32806
3 | 7:17.32 | 4:03.40 | 32807 | 51071
4 | 11:20.72 | 3:03.48 | 51072 | 64844
5 | 14:24.45 | 4:19.07 | 64845 | 84276
6 | 18:43.52 | 2:56.63 | 84277 | 97539
7 | 21:40.40 | 3:53.07 | 97540 | 115021
8 | 25:33.47 | 4:26.35 | 115022 | 135006
9 | 30:00.07 | 4:17.25 | 135007 | 154306
10 | 34:17.32 | 5:12.68 | 154307 | 177774


Характеристики диапазона извлечения и сообщения об ошибках

Выбранный диапазон

Имя файла D:\01 - Торрент НЕ ТРОГАТЬ\02 - мои Раздачи\2012\01 - January\01 - Foreigner\Foreigner - Foreigner.wav

Пиковый уровень 100.0 %
Качество диапазона 100.0 %
CRC копии 58B783C3
Копирование… OK

Ошибок не произошло


AccurateRip: сводка

Трек 1 точное извлечение (доверие 27) [7560F1F8]
Трек 2 точное извлечение (доверие 26) [F6C9BE6D]
Трек 3 точное извлечение (доверие 26) [FCACFC5E]
Трек 4 точное извлечение (доверие 26) [70F8C053]
Трек 5 точное извлечение (доверие 26) [01A62D9A]
Трек 6 точное извлечение (доверие 26) [8CFEF6AC]
Трек 7 точное извлечение (доверие 26) [35BD98E9]
Трек 8 точное извлечение (доверие 26) [B5E4D377]
Трек 9 точное извлечение (доверие 26) [58A27B74]
Трек 10 точное извлечение (доверие 23) [E9E13E7A]

Все треки извлечены точно

Конец отчёта

[CUETools log; Date: 26.10.2018 0:08:08; Version: 2.1.4]
[CTDB TOCID: DGFMB.eA0pS8M1ztX93xLEXAxYM-] found.
Track | CTDB Status
1 | (342/343) Accurately ripped
2 | (342/343) Accurately ripped
3 | (342/343) Accurately ripped
4 | (342/343) Accurately ripped
5 | (342/343) Accurately ripped
6 | (343/343) Accurately ripped
7 | (343/343) Accurately ripped
8 | (343/343) Accurately ripped
9 | (342/343) Accurately ripped
10 | (338/343) Accurately ripped, or (2/343) differs in 359 samples @01:08:24-01:08:25,02:25:65-02:25:66
[AccurateRip ID: 000e316d-0072333d-7809420a] found.
Track [ CRC | V2 ] Status
01 [7560f1f8|311b4e17] (045+133/245) Accurately ripped
02 [f6c9be6d|47661b5f] (044+133/245) Accurately ripped
03 [fcacfc5e|cd7f7336] (044+132/244) Accurately ripped
04 [70f8c053|e93db9d2] (044+133/246) Accurately ripped
05 [01a62d9a|7f1e553c] (044+132/244) Accurately ripped
06 [8cfef6ac|4a2bf38d] (044+133/245) Accurately ripped
07 [35bd98e9|554e4314] (044+132/243) Accurately ripped
08 [b5e4d377|83c3b211] (044+134/245) Accurately ripped
09 [58a27b74|24605bcb] (044+133/245) Accurately ripped
10 [e9e13e7a|7c80f966] (040+133/245) Accurately ripped
Offsetted by 664:
01 [f7747c89] (014/245) Accurately ripped
02 [6fd5d4e0] (015/245) Accurately ripped
03 [98162c8e] (016/244) Accurately ripped
04 [134fe610] (016/246) Accurately ripped
05 [7d976f69] (016/244) Accurately ripped
06 [e48a3814] (015/245) Accurately ripped
07 [52eb5478] (015/243) Accurately ripped
08 [8653622c] (016/245) Accurately ripped
09 [bc2f4d38] (016/245) Accurately ripped
10 [8c6bbe42] (010/245) Accurately ripped
Offsetted by -36:
01 [ea82f525] (000/245) No match (V2 was not tested)
02 [74b4974c] (000/245) No match (V2 was not tested)
03 [962d7396] (000/244) No match (V2 was not tested)
04 [0b009cd8] (000/246) No match (V2 was not tested)
05 [992d90a1] (000/244) No match (V2 was not tested)
06 [990bfd94] (000/245) No match (V2 was not tested)
07 [003c798f] (000/243) No match (V2 was not tested)
08 [04a4073c] (000/245) No match (V2 was not tested)
09 [4bd415fb] (000/245) No match (V2 was not tested)
10 [b59c194c] (000/245) No match (V2 was not tested)
Offsetted by -6:
01 [0f485909] (000/245) No match (V2 was not tested)
02 [611a0e0a] (000/245) No match (V2 was not tested)
03 [96426592] (000/244) No match (V2 was not tested)
04 [52d55152] (000/246) No match (V2 was not tested)
05 [f0e36a57] (000/244) No match (V2 was not tested)
06 [3a7e78a7] (000/245) No match (V2 was not tested)
07 [0d059c2f] (000/243) No match (V2 was not tested)
08 [2310991a] (000/245) No match (V2 was not tested)
09 [794b8157] (000/245) No match (V2 was not tested)
10 [632ce547] (000/245) No match (V2 was not tested)

Track Peak [ CRC32 ] [W/O NULL] [ LOG ]
– 99,9 [58B783C3] [56B55BEB] CRC32
01 99,9 [D177F0FA] [0CEC0F61]
02 99,9 [4A8E71A9] [BC6AFB99]
03 99,9 [EF817AAA] [1C3BD9F7]
04 99,9 [46FF0D1D] [0EF1A6FF]
05 99,9 [AC2328E9] [E1D8CEE6]
06 99,9 [B128FE83] [48309666]
07 99,9 [60392E16] [30B0A2DF]
08 99,9 [C946A40E] [0B749154]
09 99,9 [D69A3922] [F326C62D]
10 99,9 [F074E340] [F01F0EE6]

foobar2000 1.2 / Dynamic Range Meter 1.1.1
log date: 2018-10-26 00:07:23

––––––––––––––––––––––––––––––––––––––––
Analyzed: Foreigner / Foreigner
––––––––––––––––––––––––––––––––––––––––

DR Peak RMS Duration Track
––––––––––––––––––––––––––––––––––––––––
DR9 0.00 dB -11.28 dB 3:53 01-Feels Like The First TIme
DR10 0.00 dB -12.69 dB 3:24 02-Cold As Ice
DR10 0.00 dB -13.66 dB 4:04 03-Starrider
DR9 0.00 dB -11.42 dB 3:04 04-Headknocker
DR9 0.00 dB -12.26 dB 4:19 05-The Damage Is Done
DR10 0.00 dB -11.85 dB 2:57 06-Long, Long Way From Home
DR12 0.00 dB -14.21 dB 3:53 07-Woman Oh Woman
DR9 0.00 dB -10.73 dB 4:26 08-At War With The World
DR11 0.00 dB -13.24 dB 4:17 09-Fool For You Anyway
DR9 0.00 dB -11.03 dB 5:13 10-I Need You
––––––––––––––––––––––––––––––––––––––––

Number of tracks: 10
Official DR value: DR10

Samplerate: 44100 Hz
Channels: 2
Bits per sample: 16
Bitrate: 926 kbps
Codec: FLAC
================================================================================




Foreigner - Original Album Series (2009) 5 CD Box Set [Re-Up]

CD2: Foreigner - Double Vision (1978)

Foreigner promptly followed up its blockbuster debut with the equally successful Double Vision LP in 1978, which featured the FM mega-hits "Hot Blooded" and the driving title track. Opting not to mess with a good formula, the band wisely sticks to the polished hard rock sound that made its first record such a hit. Aside from the big singles, other highlights include the swaggering "Love Has Taken Its Toll" and the more restrained "Blue Morning, Blue Day." As always, Lou Gramm's impeccable rock vocals lead the way, supported by Mick Jones' tasteful, arena-sized guitar riffs.

Review by Andy Hinds, Allmusic.com

Tracklist:

01. Hot Blooded (4:29)
02. Blue Morning, Blue Day (3:13)
03. You're All I Am (3:25)
04. Back Where You Belong (3:16)
05. Love Has Taken Its Toll (3:31)
06. Double Vision (3:44)
07. Tramontane (Instrumental) (3:56)
08. I Have Waited So Long (4:07)
09. Lonely Children (3:37)
10. Spellbinder (4:52)


Exact Audio Copy V0.99 prebeta 5 from 4. May 2009

Отчёт EAC об извлечении, выполненном 9. января 2012, 19:22

Foreigner / Double Vision

Дисковод: ASUS DRW-24B1ST Adapter: 4 ID: 0

Режим чтения : Достоверность
Использование точного потока : Да
Отключение кэша аудио : Да
Использование указателей C2 : Нет

Коррекция смещения при чтении : 6
Способность читать области Lead-in и Lead-out : Нет
Заполнение пропущенных сэмплов тишиной : Да
Удаление блоков с тишиной в начале и конце : Нет
При вычислениях CRC использовались нулевые сэмплы : Да
Интерфейс : Встроенный Win32-интерфейс для Win NT/2000

Выходной формат : Внутренние WAV-операции
Формат сэмплов : 44.100 Гц; 16 бит; стерео


TOC извлечённого CD

Трек | Старт | Длительность | Начальный сектор | Конечный сектор
––––––––––––––––––––––––––––––––––-
1 | 0:00.00 | 4:29.05 | 0 | 20179
2 | 4:29.05 | 3:12.60 | 20180 | 34639
3 | 7:41.65 | 3:24.47 | 34640 | 49986
4 | 11:06.37 | 3:15.40 | 49987 | 64651
5 | 14:22.02 | 3:31.08 | 64652 | 80484
6 | 17:53.10 | 3:44.30 | 80485 | 97314
7 | 21:37.40 | 3:55.72 | 97315 | 115011
8 | 25:33.37 | 4:06.58 | 115012 | 133519
9 | 29:40.20 | 3:37.05 | 133520 | 149799
10 | 33:17.25 | 4:51.42 | 149800 | 171666


Характеристики диапазона извлечения и сообщения об ошибках

Выбранный диапазон

Имя файла D:\01 - Торрент НЕ ТРОГАТЬ\02 - мои Раздачи\2012\01 - January\01 - Foreigner\Foreigner - Double Vision.wav

Пиковый уровень 100.0 %
Качество диапазона 99.9 %
CRC копии BAF7371F
Копирование… OK

Ошибок не произошло


AccurateRip: сводка

Трек 1 точное извлечение (доверие 20) [0C36E95B]
Трек 2 точное извлечение (доверие 20) [421DFD31]
Трек 3 точное извлечение (доверие 20) [40401825]
Трек 4 точное извлечение (доверие 20) [F317A580]
Трек 5 точное извлечение (доверие 20) [1416D29E]
Трек 6 точное извлечение (доверие 20) [BAD94E0A]
Трек 7 точное извлечение (доверие 20) [04277E69]
Трек 8 точное извлечение (доверие 20) [4708ADB8]
Трек 9 точное извлечение (доверие 19) [7D82B02D]
Трек 10 точное извлечение (доверие 20) [08E958B4]

Все треки извлечены точно

Конец отчёта

[CUETools log; Date: 26.10.2018 0:08:49; Version: 2.1.4]
[CTDB TOCID: aaL9Fw5AScXkQIxRw65MAHF57xg-] found.
Track | CTDB Status
1 | (317/318) Accurately ripped
2 | (316/318) Accurately ripped
3 | (316/318) Accurately ripped
4 | (317/318) Accurately ripped
5 | (317/318) Accurately ripped
6 | (318/318) Accurately ripped
7 | (318/318) Accurately ripped
8 | (318/318) Accurately ripped
9 | (318/318) Accurately ripped
10 | (314/318) Accurately ripped, or (2/318) differs in 5973 samples @04:51:18-04:51:24
[AccurateRip ID: 000dff0a-006ffec5-9d08f00a] found.
Track [ CRC | V2 ] Status
01 [0c36e95b|dbeb71ba] (037+130/215) Accurately ripped
02 [421dfd31|3fdf475b] (036+130/214) Accurately ripped
03 [40401825|341cd5be] (036+130/213) Accurately ripped
04 [f317a580|2702f467] (035+130/212) Accurately ripped
05 [1416d29e|f27c8b7f] (036+131/214) Accurately ripped
06 [bad94e0a|e9ba0654] (036+131/215) Accurately ripped
07 [04277e69|7511e3f6] (036+130/213) Accurately ripped
08 [4708adb8|584ea587] (036+130/213) Accurately ripped
09 [7d82b02d|e93c9cc1] (034+131/212) Accurately ripped
10 [08e958b4|50417ca1] (036+130/212) Accurately ripped
Offsetted by 664:
01 [4ce204aa] (009/215) Accurately ripped
02 [5648a8ab] (009/214) Accurately ripped
03 [07992fe8] (009/213) Accurately ripped
04 [402c42e0] (009/212) Accurately ripped
05 [4c21d902] (009/214) Accurately ripped
06 [c673b935] (009/215) Accurately ripped
07 [dca09437] (009/213) Accurately ripped
08 [b5c88349] (009/213) Accurately ripped
09 [66ee685a] (009/212) Accurately ripped
10 [edd29915] (009/212) Accurately ripped
Offsetted by -42:
01 [2e89ead5] (000/215) No match (V2 was not tested)
02 [9491df1d] (000/214) No match (V2 was not tested)
03 [5c19f898] (000/213) No match (V2 was not tested)
04 [c0297005] (000/212) No match (V2 was not tested)
05 [b47e95be] (000/214) No match (V2 was not tested)
06 [6a604420] (000/215) No match (V2 was not tested)
07 [3ec326ab] (000/213) No match (V2 was not tested)
08 [2f398b13] (000/213) No match (V2 was not tested)
09 [fcc556ed] (000/212) No match (V2 was not tested)
10 [b5854085] (000/212) No match (V2 was not tested)
Offsetted by -6:
01 [7d5dbd9a] (000/215) No match (V2 was not tested)
02 [41bd8b76] (000/214) No match (V2 was not tested)
03 [20f845a5] (000/213) No match (V2 was not tested)
04 [360f658f] (000/212) No match (V2 was not tested)
05 [7372c5bd] (000/214) No match (V2 was not tested)
06 [63d7933a] (000/215) No match (V2 was not tested)
07 [a7c1281c] (000/213) No match (V2 was not tested)
08 [b3a8b6a8] (000/213) No match (V2 was not tested)
09 [9aa1a264] (000/212) No match (V2 was not tested)
10 [8edce772] (000/212) No match (V2 was not tested)

Track Peak [ CRC32 ] [W/O NULL] [ LOG ]
– 99,9 [BAF7371F] [7F5414A5] CRC32
01 99,9 [0D988C87] [510C598D]
02 99,9 [E313DA15] [F1924FCB]
03 99,9 [8A436D59] [64B555AD]
04 99,9 [153FCE76] [C033B5BC]
05 99,9 [BF26AACF] [B4C86F75]
06 99,9 [CB834B19] [7F4F4B0E]
07 99,9 [E23E0B5F] [7BB80AC2]
08 99,9 [6CAE4E98] [F1CCDE48]
09 99,9 [47291F31] [2CCAF902]
10 99,9 [1966558F] [DCDD3C3B]

foobar2000 1.2 / Dynamic Range Meter 1.1.1
log date: 2018-10-26 00:08:27

––––––––––––––––––––––––––––––––––––––––
Analyzed: Foreigner / Double Vision
––––––––––––––––––––––––––––––––––––––––

DR Peak RMS Duration Track
––––––––––––––––––––––––––––––––––––––––
DR9 0.00 dB -10.63 dB 4:29 01-Hot Blooded
DR10 0.00 dB -12.04 dB 3:13 02-Blue Morning, Blue Day
DR9 0.00 dB -12.14 dB 3:25 03-You're All I Am
DR9 0.00 dB -11.61 dB 3:16 04-Back Where You Belong
DR9 0.00 dB -10.93 dB 3:31 05-Love Has Taken Its Toll
DR9 0.00 dB -10.85 dB 3:44 06-Double Vision
DR8 0.00 dB -10.92 dB 3:56 07-Tramontane (Instrumental)
DR10 0.00 dB -11.92 dB 4:07 08-I Have Waited So Long
DR8 0.00 dB -9.77 dB 3:37 09-Lonely Children
DR9 0.00 dB -12.74 dB 4:52 10-Spellbinder
––––––––––––––––––––––––––––––––––––––––

Number of tracks: 10
Official DR value: DR9

Samplerate: 44100 Hz
Channels: 2
Bits per sample: 16
Bitrate: 946 kbps
Codec: FLAC
================================================================================




Foreigner - Original Album Series (2009) 5 CD Box Set [Re-Up]

CD3: Foreigner - Head Games (1979)

Foreigner continued its platinum winning streak on Head Games, the band's third album. By the time Head Games was released, FM radio had fully embraced bands like Foreigner, Journey, and Boston, whose slick hard rock was tough enough to appeal to suburban teens, but smooth enough to be non-threatening to their parents. Tailor-made for the airwaves, "Dirty White Boy" and "Head Games" kept Foreigner at the top of the arena rock heap as the decade came to a close; and the supergroup's successes would continue well into the '80s.

Review by Andy Hinds, Allmusic.com

Tracklist:

01. Dirty White Boy (3:39)
02. Love on the Telephone (3:18)
03. Women (3:24)
04. I'll get even with You (3:40)
05. Seventeen (4:36)
06. Head Games (3:38)
07. The Modern Day (3:26)
08. Blinded by Science (4:56)
09. Do what you Like (3:59)
10. Rev on the Red Line (3:35)


Exact Audio Copy V0.99 prebeta 5 from 4. May 2009

Отчёт EAC об извлечении, выполненном 9. января 2012, 19:39

Foreigner / Head Games

Дисковод: ASUS DRW-24B1ST Adapter: 4 ID: 0

Режим чтения : Достоверность
Использование точного потока : Да
Отключение кэша аудио : Да
Использование указателей C2 : Нет

Коррекция смещения при чтении : 6
Способность читать области Lead-in и Lead-out : Нет
Заполнение пропущенных сэмплов тишиной : Да
Удаление блоков с тишиной в начале и конце : Нет
При вычислениях CRC использовались нулевые сэмплы : Да
Интерфейс : Встроенный Win32-интерфейс для Win NT/2000

Выходной формат : Внутренние WAV-операции
Формат сэмплов : 44.100 Гц; 16 бит; стерео


TOC извлечённого CD

Трек | Старт | Длительность | Начальный сектор | Конечный сектор
––––––––––––––––––––––––––––––––––-
1 | 0:00.00 | 3:38.70 | 0 | 16419
2 | 3:38.70 | 3:17.45 | 16420 | 31239
3 | 6:56.40 | 3:24.28 | 31240 | 46567
4 | 10:20.68 | 3:39.45 | 46568 | 63037
5 | 14:00.38 | 4:35.40 | 63038 | 83702
6 | 18:36.03 | 3:37.50 | 83703 | 100027
7 | 22:13.53 | 3:25.65 | 100028 | 115467
8 | 25:39.43 | 4:55.42 | 115468 | 137634
9 | 30:35.10 | 3:58.60 | 137635 | 155544
10 | 34:33.70 | 3:35.28 | 155545 | 171697


Характеристики диапазона извлечения и сообщения об ошибках

Выбранный диапазон

Имя файла D:\01 - Торрент НЕ ТРОГАТЬ\02 - мои Раздачи\2012\01 - January\01 - Foreigner\Foreigner - Head Games.wav

Пиковый уровень 100.0 %
Качество диапазона 100.0 %
CRC копии 2B4BEA25
Копирование… OK

Ошибок не произошло


AccurateRip: сводка

Трек 1 точное извлечение (доверие 20) [DB8C955C]
Трек 2 точное извлечение (доверие 20) [EB0F7783]
Трек 3 точное извлечение (доверие 20) [E37BC097]
Трек 4 точное извлечение (доверие 19) [AFE8220E]
Трек 5 точное извлечение (доверие 20) [1DEF56B6]
Трек 6 точное извлечение (доверие 20) [8B2D6920]
Трек 7 точное извлечение (доверие 20) [07EDE6C5]
Трек 8 точное извлечение (доверие 20) [CBD92139]
Трек 9 точное извлечение (доверие 20) [64D3CD05]
Трек 10 точное извлечение (доверие 20) [51A0E236]

Все треки извлечены точно

Конец отчёта

[CUETools log; Date: 26.10.2018 0:09:07; Version: 2.1.4]
[CTDB TOCID: cJNX1Lr45L7J6HCzde2fPatdpyQ-] found.
Track | CTDB Status
1 | (324/324) Accurately ripped
2 | (323/324) Accurately ripped
3 | (324/324) Accurately ripped
4 | (324/324) Accurately ripped
5 | (324/324) Accurately ripped
6 | (324/324) Accurately ripped
7 | (324/324) Accurately ripped
8 | (323/324) Accurately ripped
9 | (323/324) Accurately ripped
10 | (320/324) Accurately ripped, or (2/324) differs in 3000 samples @03:35:06-03:35:09
[AccurateRip ID: 000e0eff-00717ae0-6e08f10a] found.
Track [ CRC | V2 ] Status
01 [db8c955c|891b104c] (037+133/216) Accurately ripped
02 [eb0f7783|efeb7bfa] (037+133/215) Accurately ripped
03 [e37bc097|1c39e86b] (037+134/216) Accurately ripped
04 [afe8220e|3ce695dc] (036+134/215) Accurately ripped
05 [1def56b6|acb60eba] (037+134/216) Accurately ripped
06 [8b2d6920|a47c6b52] (037+134/217) Accurately ripped
07 [07ede6c5|2800dda9] (037+133/215) Accurately ripped
08 [cbd92139|80e93f5f] (037+133/215) Accurately ripped
09 [64d3cd05|7d1eac42] (037+134/216) Accurately ripped
10 [51a0e236|fb37020a] (037+132/213) Accurately ripped
Offsetted by 705:
01 [2b61bb61] (008/216) Accurately ripped
02 [12b5b78d] (008/215) Accurately ripped
03 [5ff5a173] (008/216) Accurately ripped
04 [4649f18b] (008/215) Accurately ripped
05 [fcffdacd] (008/216) Accurately ripped
06 [fba75644] (008/217) Accurately ripped
07 [ed0b909a] (008/215) Accurately ripped
08 [0b387804] (008/215) Accurately ripped
09 [650cec41] (008/216) Accurately ripped
10 [29c7f958] (008/213) Accurately ripped
Offsetted by -42:
01 [b24643d9] (000/216) No match (V2 was not tested)
02 [6d2f2ebf] (000/215) No match (V2 was not tested)
03 [8337d097] (000/216) No match (V2 was not tested)
04 [7aa142de] (000/215) No match (V2 was not tested)
05 [9a33d3fb] (000/216) No match (V2 was not tested)
06 [78e47704] (000/217) No match (V2 was not tested)
07 [7730ff7c] (000/215) No match (V2 was not tested)
08 [354d19f5] (000/215) No match (V2 was not tested)
09 [11b7e724] (000/216) No match (V2 was not tested)
10 [5021ac04] (000/213) No match (V2 was not tested)
Offsetted by -6:
01 [9816e1f7] (000/216) No match (V2 was not tested)
02 [edd66fc6] (000/215) No match (V2 was not tested)
03 [b540db68] (000/216) No match (V2 was not tested)
04 [9dad2c92] (000/215) No match (V2 was not tested)
05 [eb4050d6] (000/216) No match (V2 was not tested)
06 [af4a0837] (000/217) No match (V2 was not tested)
07 [b7a2d5b4] (000/215) No match (V2 was not tested)
08 [a934d9cd] (000/215) No match (V2 was not tested)
09 [aa7aa8c7] (000/216) No match (V2 was not tested)
10 [c06748ed] (000/213) No match (V2 was not tested)

Track Peak [ CRC32 ] [W/O NULL] [ LOG ]
– 99,9 [2B4BEA25] [B28F435C] CRC32
01 99,9 [E9384216] [F932009A]
02 99,9 [A8B456A6] [8A4DC064]
03 99,9 [2A6BED88] [8AB8C043]
04 99,9 [F93ED6F5] [511CA530]
05 99,9 [674C507A] [2EB7CDF5]
06 99,9 [5319FE5C] [BD42F9AF]
07 99,9 [6CFBA92A] [62069B07]
08 99,9 [DD5A41EC] [6ED9D7F2]
09 99,9 [86C8C54C] [698205A7]
10 99,9 [1CA472B4] [75EFA364]

foobar2000 1.2 / Dynamic Range Meter 1.1.1
log date: 2018-10-26 00:09:06

––––––––––––––––––––––––––––––––––––––––
Analyzed: Foreigner / Head Games
––––––––––––––––––––––––––––––––––––––––

DR Peak RMS Duration Track
––––––––––––––––––––––––––––––––––––––––
DR9 0.00 dB -9.93 dB 3:39 01-Dirty White Boy
DR10 0.00 dB -11.79 dB 3:18 02-Love on the Telephone
DR9 0.00 dB -10.92 dB 3:24 03-Women
DR9 0.00 dB -10.31 dB 3:40 04-I'll get even with You
DR9 0.00 dB -10.80 dB 4:36 05-Seventeen
DR10 0.00 dB -11.25 dB 3:38 06-Head Games
DR9 0.00 dB -11.23 dB 3:26 07-The Modern Day
DR8 0.00 dB -11.60 dB 4:56 08-Blinded by Science
DR10 0.00 dB -11.46 dB 3:59 09-Do what you Like
DR7 0.00 dB -9.43 dB 3:35 10-Rev on the Red Line
––––––––––––––––––––––––––––––––––––––––

Number of tracks: 10
Official DR value: DR9

Samplerate: 44100 Hz
Channels: 2
Bits per sample: 16
Bitrate: 944 kbps
Codec: FLAC
================================================================================




Foreigner - Original Album Series (2009) 5 CD Box Set [Re-Up]

CD4: Foreigner - 4 (1981)

Over the course of their first three late-'70s albums, Foreigner had firmly established themselves (along with Journey and Styx) as one of the top AOR bands of the era. But the band was still looking for that grand slam of a record that would push them to the very top of the heap. Released in 1981, 4 would be that album. In producer Robert John "Mutt" Lange – fresh off his massive success with AC/DC's Back in Black – guitarist and all-around mastermind Mick Jones found both the catalyst to achieve this and his perfect musical soulmate. Lange's legendary obsessive attention to detail and Jones' highly disciplined guitar heroics (which he never allowed to get in the way of a great song) resulted in a collaboration of unprecedented, sparkling efficiency where not a single note is wasted. "Nightlife" is only the first in a series ("Woman in Black," "Don't Let Go," the '50s-tinged "Luanne") of energetic, nearly flawless melodic rockers, and with "Juke Box Hero," the band somehow managed to create both a mainstream hit single and a highly unique-sounding track, alternating heavy metal guitar riffing, chorused vocals, and one of the ultimate "wanna be a rock star" lyrics. As for the mandatory power ballad, the band also reached unparalleled heights with "Waiting for a Girl Like You." One of the decade's most successful cross-genre tearjerkers, it has since become a staple of soft rock radio and completely eclipsed the album's other very lovely ballad, "Girl on the Moon," in the process. And last but not least, the surprisingly funky "Urgent" proved to be one of the band's most memorable and uncharacteristic smash hits, thanks to Junior Walker's signature saxophone solo. Through it all, vocalist Lou Gramm does his part, delivering a dazzling performance that confirmed his status as one of the finest voices of his generation. Three years later, Foreigner would achieve even greater success on a pop level with the uneven Agent Provocateur, but by then Jones and Gramm were locked in an escalating war of egos that would soon lead to the band's demise. All things considered, 4 remains Foreigner's career peak.

Review by Eduardo Rivadavia, Allmusic.com

Tracklist:

01. Night Life (3:51)
02. Juke Box Hero (4:20)
03. Break It Up (4:13)
04. Waiting For A Girl Like You (4:53)
05. Luanne (3:28)
06. Urgent (4:32)
07. I'm Gonna Win (4:53)
08. Woman In Black (4:46)
09. Girl On The Moon (3:53)
10. Don't Let Go (3:51)


Exact Audio Copy V0.99 prebeta 5 from 4. May 2009

Отчёт EAC об извлечении, выполненном 9. января 2012, 19:49

Foreigner / 4

Дисковод: ASUS DRW-24B1ST Adapter: 4 ID: 0

Режим чтения : Достоверность
Использование точного потока : Да
Отключение кэша аудио : Да
Использование указателей C2 : Нет

Коррекция смещения при чтении : 6
Способность читать области Lead-in и Lead-out : Нет
Заполнение пропущенных сэмплов тишиной : Да
Удаление блоков с тишиной в начале и конце : Нет
При вычислениях CRC использовались нулевые сэмплы : Да
Интерфейс : Встроенный Win32-интерфейс для Win NT/2000

Выходной формат : Внутренние WAV-операции
Формат сэмплов : 44.100 Гц; 16 бит; стерео


TOC извлечённого CD

Трек | Старт | Длительность | Начальный сектор | Конечный сектор
––––––––––––––––––––––––––––––––––-
1 | 0:00.00 | 3:51.07 | 0 | 17331
2 | 3:51.07 | 4:20.18 | 17332 | 36849
3 | 8:11.25 | 4:13.15 | 36850 | 55839
4 | 12:24.40 | 4:52.67 | 55840 | 77806
5 | 17:17.32 | 3:28.23 | 77807 | 93429
6 | 20:45.55 | 4:31.52 | 93430 | 113806
7 | 25:17.32 | 4:53.28 | 113807 | 135809
8 | 30:10.60 | 4:46.25 | 135810 | 157284
9 | 34:57.10 | 3:53.10 | 157285 | 174769
10 | 38:50.20 | 3:51.05 | 174770 | 192099


Характеристики диапазона извлечения и сообщения об ошибках

Выбранный диапазон

Имя файла D:\01 - Торрент НЕ ТРОГАТЬ\02 - мои Раздачи\2012\01 - January\01 - Foreigner\Foreigner - 4.wav

Пиковый уровень 99.8 %
Качество диапазона 100.0 %
CRC копии 6E6B04E9
Копирование… OK

Ошибок не произошло


AccurateRip: сводка

Трек 1 точное извлечение (доверие 22) [FD318C17]
Трек 2 точное извлечение (доверие 22) [CD049251]
Трек 3 точное извлечение (доверие 22) [C2C26E5A]
Трек 4 точное извлечение (доверие 22) [5AEA9E39]
Трек 5 точное извлечение (доверие 22) [58734F4F]
Трек 6 точное извлечение (доверие 22) [70F6985C]
Трек 7 точное извлечение (доверие 22) [CF6E0D79]
Трек 8 точное извлечение (доверие 22) [055739D2]
Трек 9 точное извлечение (доверие 22) [87BCA11A]
Трек 10 точное извлечение (доверие 22) [8017E92F]

Все треки извлечены точно

Конец отчёта

[CUETools log; Date: 26.10.2018 0:09:26; Version: 2.1.4]
[CTDB TOCID: ySnpJNu.pqDrAI8JnuHKtDsgre8-] found.
Track | CTDB Status
1 | (496/496) Accurately ripped
2 | (494/496) Accurately ripped
3 | (496/496) Accurately ripped
4 | (495/496) Accurately ripped
5 | (495/496) Accurately ripped
6 | (496/496) Accurately ripped
7 | (494/496) Accurately ripped
8 | (495/496) Accurately ripped
9 | (496/496) Accurately ripped
10 | (495/496) Accurately ripped
[AccurateRip ID: 00101937-00815bf4-800a010a] found.
Track [ CRC | V2 ] Status
01 [fd318c17|2bd756b8] (038+136/311) Accurately ripped
02 [cd049251|a0e06dbe] (039+137/316) Accurately ripped
03 [c2c26e5a|716256f4] (038+136/313) Accurately ripped
04 [5aea9e39|54e5ef8b] (038+136/312) Accurately ripped
05 [58734f4f|91db591c] (038+137/314) Accurately ripped
06 [70f6985c|525c7da0] (038+137/317) Accurately ripped
07 [cf6e0d79|85adab34] (038+136/313) Accurately ripped
08 [055739d2|76077eaa] (038+137/314) Accurately ripped
09 [87bca11a|4257cfe3] (038+136/313) Accurately ripped
10 [8017e92f|10a0f949] (038+137/314) Accurately ripped
Offsetted by 664:
01 [0656a969] (010/311) Accurately ripped
02 [844c42ee] (010/316) Accurately ripped
03 [0fd5afbe] (010/313) Accurately ripped
04 [4f16a261] (010/312) Accurately ripped
05 [0d1715a9] (010/314) Accurately ripped
06 [4fd7b87f] (010/317) Accurately ripped
07 [4af1aebd] (010/313) Accurately ripped
08 [2fd0c326] (010/314) Accurately ripped
09 [e95df26a] (010/313) Accurately ripped
10 [197fac87] (010/314) Accurately ripped
Offsetted by 1333:
01 [4bc78650] (031/311) Accurately ripped
02 [88e674c4] (031/316) Accurately ripped
03 [34dfdd89] (031/313) Accurately ripped
04 [c8107996] (030/312) Accurately ripped
05 [1cb1be13] (031/314) Accurately ripped
06 [9c295162] (032/317) Accurately ripped
07 [c0929a5f] (031/313) Accurately ripped
08 [430d3e5a] (031/314) Accurately ripped
09 [49089360] (031/313) Accurately ripped
10 [be78068c] (031/314) Accurately ripped
Offsetted by -42:
01 [17def960] (000/311) No match (V2 was not tested)
02 [d358f628] (000/316) No match (V2 was not tested)
03 [231bc7ce] (000/313) No match (V2 was not tested)
04 [e3eb0a58] (000/312) No match (V2 was not tested)
05 [0c1cd923] (000/314) No match (V2 was not tested)
06 [3b0fb915] (000/317) No match (V2 was not tested)
07 [8f920ed6] (000/313) No match (V2 was not tested)
08 [77ec69ed] (000/314) No match (V2 was not tested)
09 [6508040e] (000/313) No match (V2 was not tested)
10 [52262ab5] (000/314) No match (V2 was not tested)
Offsetted by -6:
01 [5877b686] (000/311) No match (V2 was not tested)
02 [cd904366] (000/316) No match (V2 was not tested)
03 [376366d8] (000/313) No match (V2 was not tested)
04 [229a6082] (000/312) No match (V2 was not tested)
05 [757c98a5] (000/314) No match (V2 was not tested)
06 [3d32cfeb] (000/317) No match (V2 was not tested)
07 [e74853ec] (000/313) No match (V2 was not tested)
08 [edf017e3] (000/314) No match (V2 was not tested)
09 [f07e4186] (000/313) No match (V2 was not tested)
10 [0bd0cdf9] (000/314) No match (V2 was not tested)

Track Peak [ CRC32 ] [W/O NULL] [ LOG ]
– 99,8 [6E6B04E9] [ACBB63F0] CRC32
01 99,8 [96B60545] [4B7E6DEE]
02 99,8 [43F3E9E3] [6676964F]
03 99,8 [D03AA8DC] [F8FDE78A]
04 99,8 [02742149] [155FABAD]
05 99,8 [A6C9BD2C] [B004729E]
06 99,8 [AAE70839] [380889B6]
07 99,8 [2875E163] [6A4E2E99]
08 99,8 [7D48177F] [EC5EE029]
09 99,8 [E3BD7EF1] [4F41EF85]
10 99,8 [6C046842] [F3834D1D]

foobar2000 1.2 / Dynamic Range Meter 1.1.1
log date: 2018-10-26 00:09:26

––––––––––––––––––––––––––––––––––––––––
Analyzed: Foreigner / 4
––––––––––––––––––––––––––––––––––––––––

DR Peak RMS Duration Track
––––––––––––––––––––––––––––––––––––––––
DR9 -0.01 dB -10.24 dB 3:51 01-Night Life
DR8 -0.01 dB -10.34 dB 4:20 02-Juke Box Hero
DR9 -0.01 dB -11.13 dB 4:13 03-Break It Up
DR10 -0.01 dB -12.50 dB 4:53 04-Waiting For A Girl Like You
DR9 -0.01 dB -10.76 dB 3:28 05-Luanne
DR9 -0.01 dB -10.88 dB 4:32 06-Urgent
DR8 -0.01 dB -10.70 dB 4:53 07-I'm Gonna Win
DR8 -0.01 dB -10.22 dB 4:46 08-Woman In Black
DR10 -0.01 dB -11.38 dB 3:53 09-Girl On The Moon
DR7 -0.01 dB -9.65 dB 3:51 10-Don't Let Go
––––––––––––––––––––––––––––––––––––––––

Number of tracks: 10
Official DR value: DR9

Samplerate: 44100 Hz
Channels: 2
Bits per sample: 16
Bitrate: 924 kbps
Codec: FLAC
================================================================================




Foreigner - Original Album Series (2009) 5 CD Box Set [Re-Up]

CD5: Foreigner - Agent Provocateur (1984)

It took Foreigner three years to release a follow-up to its 1981 blockbuster, 4. Perhaps that wait wasn't long enough, because Agent Provocateur is a prime example of the best and worst traits of AOR: a handful of remarkable songs padded by toothless filler. Despite contributing a few killer riffs to Foreigner's '70s canon, guitarist/keyboardist Mick Jones isn't known for his six-string abilities. His biggest strength is his knack for melody as a songwriter, keyboardist, and producer, and all these qualities are evident on Agent Provocateur. Of course, vocalist/songwriter Lou Gramm is indispensable as the band's golden-throated frontman. Jones largely guided things behind the studio console, but a co-producer usually helped, such as Alex Sadkin on this album. "I Want to Know What Love Is" became Foreigner's first and only number one single, and it's not hard to see why. Its dreamy, hypnotic feel is due in part to Gramm's soulful lead vocals and the New Jersey Mass Choir's background vocals. Jennifer Holliday and the Thompson Twins' Tom Bailey help out as well. "That Was Yesterday," a terrific hit single, features a catchy chorus and a nifty synthesizer lick. "Reaction to Action" and "Down on Love" were both minor hits, but there's a huge difference in quality between the two; the former is the epitome of bland, formulaic AOR, while the latter includes a pleasant chorus and a warm keyboard melody. "A Love in Vain" and "Growing Up the Hard Way" have a few good moments too.

Review by Bret Adams, Allmusic.com

Tracklist:

01. Tooth and Nail (3:56)
02. That Was Yesterday (3:49)
03. I Want to Know What Love Is (5:06)
04. Growing Up the Hard Way (4:14)
05. Reaction to Action (4:02)
06. Stranger in My Own House (5:05)
07. A Love in Vain (4:31)
08. Down on Love (4:12)
09. Two Different Worlds (4:32)
10. She's Too Tough (3:11)


Exact Audio Copy V0.99 prebeta 5 from 4. May 2009

Отчёт EAC об извлечении, выполненном 9. января 2012, 19:57

Foreigner / Agent Provocateur

Дисковод: ASUS DRW-24B1ST Adapter: 4 ID: 0

Режим чтения : Достоверность
Использование точного потока : Да
Отключение кэша аудио : Да
Использование указателей C2 : Нет

Коррекция смещения при чтении : 6
Способность читать области Lead-in и Lead-out : Нет
Заполнение пропущенных сэмплов тишиной : Да
Удаление блоков с тишиной в начале и конце : Нет
При вычислениях CRC использовались нулевые сэмплы : Да
Интерфейс : Встроенный Win32-интерфейс для Win NT/2000

Выходной формат : Внутренние WAV-операции
Формат сэмплов : 44.100 Гц; 16 бит; стерео


TOC извлечённого CD

Трек | Старт | Длительность | Начальный сектор | Конечный сектор
––––––––––––––––––––––––––––––––––-
1 | 0:00.00 | 3:55.52 | 0 | 17676
2 | 3:55.52 | 3:49.08 | 17677 | 34859
3 | 7:44.60 | 5:06.07 | 34860 | 57816
4 | 12:50.67 | 4:13.65 | 57817 | 76856
5 | 17:04.57 | 4:01.68 | 76857 | 94999
6 | 21:06.50 | 5:04.72 | 95000 | 117871
7 | 26:11.47 | 4:31.03 | 117872 | 138199
8 | 30:42.50 | 4:12.02 | 138200 | 157101
9 | 34:54.52 | 4:31.63 | 157102 | 177489
10 | 39:26.40 | 3:10.47 | 177490 | 191786


Характеристики диапазона извлечения и сообщения об ошибках

Выбранный диапазон

Имя файла D:\01 - Торрент НЕ ТРОГАТЬ\02 - мои Раздачи\2012\01 - January\01 - Foreigner\Foreigner - Agent Provocateur.wav

Пиковый уровень 100.0 %
Качество диапазона 100.0 %
CRC копии 34C40F0D
Копирование… OK

Ошибок не произошло


AccurateRip: сводка

Трек 1 точное извлечение (доверие 19) [623DFCEC]
Трек 2 точное извлечение (доверие 19) [5FA90D4E]
Трек 3 точное извлечение (доверие 19) [D1D3EB4E]
Трек 4 точное извлечение (доверие 19) [16ED0ADB]
Трек 5 точное извлечение (доверие 19) [E29256AD]
Трек 6 точное извлечение (доверие 19) [E80FFBA0]
Трек 7 точное извлечение (доверие 19) [A8E680A6]
Трек 8 точное извлечение (доверие 19) [36C5D7AE]
Трек 9 точное извлечение (доверие 19) [D69A9772]
Трек 10 точное извлечение (доверие 19) [A0F2CDDA]

Все треки извлечены точно

Конец отчёта

[CUETools log; Date: 26.10.2018 0:09:45; Version: 2.1.4]
[CTDB TOCID: s8LXculPvGEeqr_iq6L0969t.q8-] found.
Track | CTDB Status
1 | (498/536) Accurately ripped
2 | (496/536) Accurately ripped
3 | (498/536) Accurately ripped
4 | (496/536) Accurately ripped
5 | (498/536) Accurately ripped
6 | (498/536) Accurately ripped
7 | (497/536) Accurately ripped
8 | (498/536) Accurately ripped
9 | (498/536) Accurately ripped
10 | (497/536) Accurately ripped
[AccurateRip ID: 00103ed6-008288ab-8d09fd0a] found.
Track [ CRC | V2 ] Status
01 [623dfcec|e3e27fec] (035+133/359) Accurately ripped
02 [5fa90d4e|024ac4c5] (035+132/359) Accurately ripped
03 [d1d3eb4e|26a90a62] (035+134/361) Accurately ripped
04 [16ed0adb|ddb112c8] (035+132/358) Accurately ripped
05 [e29256ad|ab423d75] (035+133/358) Accurately ripped
06 [e80ffba0|fb30a171] (035+132/359) Accurately ripped
07 [a8e680a6|e28ac585] (035+132/357) Accurately ripped
08 [36c5d7ae|9c3092c3] (035+132/356) Accurately ripped
09 [d69a9772|24ee2cfc] (035+132/357) Accurately ripped
10 [a0f2cdda|d2db21eb] (035+132/353) Accurately ripped
Offsetted by 664:
01 [0914d196] (014/359) Accurately ripped
02 [2fd4d9e3] (014/359) Accurately ripped
03 [93fb38cf] (013/361) Accurately ripped
04 [201885d3] (013/358) Accurately ripped
05 [b3a979a6] (013/358) Accurately ripped
06 [5362fa48] (013/359) Accurately ripped
07 [8f17c2a6] (013/357) Accurately ripped
08 [fff9ea8d] (013/356) Accurately ripped
09 [446b3100] (013/357) Accurately ripped
10 [facb6c30] (013/353) Accurately ripped
Offsetted by 670:
01 [66ce2a35] (002/359) Accurately ripped
02 [f08f136e] (002/359) Accurately ripped
03 [139b53fb] (002/361) Accurately ripped
04 [660dfb53] (002/358) Accurately ripped
05 [de6570e3] (002/358) Accurately ripped
06 [f78f4306] (002/359) Accurately ripped
07 [e896c407] (002/357) Accurately ripped
08 [bd6837f7] (002/356) Accurately ripped
09 [c4351e18] (002/357) Accurately ripped
10 [f3fd43e9] (002/353) Accurately ripped
Offsetted by 1328:
01 [246d82ea] (015/359) Accurately ripped
02 [9e3ec311] (015/359) Accurately ripped
03 [5d95d7ae] (015/361) Accurately ripped
04 [025ab607] (015/358) Accurately ripped
05 [bc740af2] (014/358) Accurately ripped
06 [b395c90b] (015/359) Accurately ripped
07 [c5876229] (015/357) Accurately ripped
08 [c331b6b8] (014/356) Accurately ripped
09 [fb2a9236] (015/357) Accurately ripped
10 [0371dfa5] (015/353) Accurately ripped
Offsetted by 1997:
01 [25018cb8] (006/359) Accurately ripped
02 [d066395a] (006/359) Accurately ripped
03 [0524b92e] (007/361) Accurately ripped
04 [3e9c0032] (006/358) Accurately ripped
05 [6dc41e40] (005/358) Accurately ripped
06 [c6b25d49] (005/359) Accurately ripped
07 [049eb15a] (005/357) Accurately ripped
08 [54d90fd8] (005/356) Accurately ripped
09 [1b7fbf9f] (005/357) Accurately ripped
10 [d7d17fbf] (005/353) Accurately ripped
Offsetted by 2656:
01 [3be150bb] (013/359) Accurately ripped
02 [151963f7] (013/359) Accurately ripped
03 [ec5a9814] (014/361) Accurately ripped
04 [37501594] (015/358) Accurately ripped
05 [f75da2eb] (015/358) Accurately ripped
06 [9c39f78b] (014/359) Accurately ripped
07 [158f0e03] (014/357) Accurately ripped
08 [59711c03] (014/356) Accurately ripped
09 [d3c318fe] (014/357) Accurately ripped
10 [f3eafa9a] (014/353) Accurately ripped
Offsetted by -6:
01 [9c63acf2] (000/359) No match (V2 was not tested)
02 [b1aba384] (000/359) No match (V2 was not tested)
03 [4461bfc1] (000/361) No match (V2 was not tested)
04 [fe386a72] (000/358) No match (V2 was not tested)
05 [48285fcf] (000/358) No match (V2 was not tested)
06 [af40b1fe] (000/359) No match (V2 was not tested)
07 [54ffcbe0] (000/357) No match (V2 was not tested)
08 [c0c6e7ca] (000/356) No match (V2 was not tested)
09 [a7319376] (000/357) No match (V2 was not tested)
10 [a5d854c9] (000/353) No match (V2 was not tested)
Offsetted by 6:
01 [fd57d48c] (000/359) No match
02 [0dc74cf9] (000/359) No match
03 [642923fa] (000/361) No match
04 [af2728c8] (000/358) No match
05 [471da62a] (000/358) No match
06 [21a27b63] (000/359) No match (V2 was not tested)
07 [5ce7aa16] (000/357) No match
08 [46858e24] (000/356) No match
09 [42934e28] (000/357) No match
10 [e845e56f] (000/353) No match

Track Peak [ CRC32 ] [W/O NULL] [ LOG ]
– 99,9 [34C40F0D] [B8510DAF] CRC32
01 99,9 [E77EF8DE] [61C8E01E]
02 99,9 [00913701] [D67D6364]
03 99,9 [C4EA9769] [7B8DE615]
04 99,9 [3F66B4B3] [03AB51F9]
05 99,9 [3B1E1C1E] [DBC7C3B4]
06 99,9 [DAA0A9C2] [F94885A2]
07 99,9 [927D0931] [58B2BDF7]
08 99,9 [B6E1FA28] [97CEDE61]
09 99,9 [97509B18] [1E825B87]
10 99,9 [02BBEA0E] [C0F9523D]

foobar2000 1.2 / Dynamic Range Meter 1.1.1
log date: 2018-10-26 00:09:45

––––––––––––––––––––––––––––––––––––––––
Analyzed: Foreigner / Agent Provocateur
––––––––––––––––––––––––––––––––––––––––

DR Peak RMS Duration Track
––––––––––––––––––––––––––––––––––––––––
DR7 0.00 dB -9.88 dB 3:56 01-Tooth and Nail
DR8 0.00 dB -9.60 dB 3:49 02-That Was Yesterday
DR9 0.00 dB -12.13 dB 5:06 03-I Want to Know What Love Is
DR9 0.00 dB -10.84 dB 4:14 04-Growing Up the Hard Way
DR9 0.00 dB -10.11 dB 4:02 05-Reaction to Action
DR8 0.00 dB -9.92 dB 5:05 06-Stranger in My Own House
DR8 0.00 dB -10.24 dB 4:31 07-A Love in Vain
DR9 0.00 dB -11.65 dB 4:12 08-Down on Love
DR8 0.00 dB -11.42 dB 4:32 09-Two Different Worlds
DR8 0.00 dB -10.00 dB 3:11 10-She's Too Tough
––––––––––––––––––––––––––––––––––––––––

Number of tracks: 10
Official DR value: DR8

Samplerate: 44100 Hz
Channels: 2
Bits per sample: 16
Bitrate: 966 kbps
Codec: FLAC
================================================================================




Foreigner - Original Album Series (2009) 5 CD Box Set [Re-Up]