Tags
Language
Tags

Fresh Moods - 4 Studio Albums (1997-2006)

Posted By: gribovar
Fresh Moods - 4 Studio Albums (1997-2006)

Fresh Moods - 4 Studio Albums (1997-2006)
EAC Rip | FLAC (image+.cue+log) - 1,75 GB | MP3 CBR 320 kbps (LAME 3.93) - 665 MB | Covers - 230 MB
Genre: Downtempo, Dub, Electro, Future Jazz | RAR 3% Rec. | Label: Elektrolux

Fresh Moods is a musical project by the artist and producer Peter Haubfleisch. It started in 1994 based on the idea to do some productions on his own in contrast to the club tracks he did with the djs. His skills of music production are based on styles like electronic Soundtracks, Downbeat, Ambient, Chill Out, Deep House, Future Jazz, Lounge, or Easy Listening.
Fresh Moods (1997). How could you call a musical flavour which is both relaxing and funky, kickass elegant? What about Power Relax Funk? Call it what you want, it's the music of Fresh Moods that counts. Peter Haubfleisch, the man behind Fresh Moods has skills all over the place. Float between Jazzy and Funky vibes and enjoy this perfect Soundtrack on uplifting listening occasions.

Love. Death. Angels (2002). With the third album Peter Haubfleisch aka Fresh Moods once again proves his unique skills as a real freestyle-afficionado. "Love. Death. Angels" is what we call innovative as it utilizes the producer’s widespread musical roots to create something totally new. Haubfleisch knows how to deliver the goods and leaves no exception here with this collection of breathtaking gems. A wide range of ingredients such as tough dopebeats, soul, electrofunk and soundtrack-like moments are fused with his unique sample treatment, throwing in lots of little soundbits and vocal fragments. "Love. Death. Angels" is more than just another downbeat album. With superb tracks like "Find My Home" and "Got To Be" it also includes some 2step- and offbeat house-aesthetics without losing its overall relaxed vibe. It’s this atmospheric density what makes this album very special, and on top of that it is extremely original.

Exhale (2006). 'Exhale' is a perfect symbiosis of a relaxed-romantical and often cineastic-athmospherical flood of images with concrete 'headnodder' beats and thus demonstrates a clear down-to-earth feeling. A campfire blues guitar is floating over the beach ('Solarcell') along with a SloMo-HipHop-Beat and a Distortion Downbeat shows its most enamoured facet ('For Ever'). Even deeply melancholic piano melodies do not have to do without a solid Dopebeat ('So Far'). Featured by Simone Miranda's vocals, Fresh Moods present their version of deep Future Jazz Souls ('U Gone') as well.

Fresh Moods - 4 Studio Albums (1997-2006)

Fresh Moods - Fresh Moods (1997)
EAC Rip | FLAC (image+.cue+log) - 392 MB | MP3 CBR 320 kbps (LAME 3.93) - 158 MB | Covers - 54 MB
Genre: Downtempo, Dub, Future Jazz | RAR 3% Rec. | Label: Elektrolux (e1101)

Tracklist:
01. … To Jazz
02. Rhythmbreeze
03. Martine
04. Le Jazz
05. Do It Alright
06. S.T.O.S.
07. The Cool
08. Do It Alright (Dub-Delay-Mix)
09. Sky Never Die

Total time: 01:07:17

Exact Audio Copy V0.99 prebeta 5 from 4. May 2009

EAC extraction logfile from 27. August 2009, 23:46

Fresh Moods / Fresh Moods

Used drive : Optiarc DVD RW AD-7240S Adapter: 0 ID: 1

Read mode : Secure
Utilize accurate stream : Yes
Defeat audio cache : Yes
Make use of C2 pointers : No

Read offset correction : 48
Overread into Lead-In and Lead-Out : No
Fill up missing offset samples with silence : Yes
Delete leading and trailing silent blocks : No
Null samples used in CRC calculations : Yes
Used interface : Installed external ASPI interface

Used output format : User Defined Encoder
Selected bitrate : 1024 kBit/s
Quality : High
Add ID3 tag : No
Command line compressor : C:\Program Files\Exact Audio Copy\FLAC\FLAC.EXE
Additional command line options : -8 -V -T "ARTIST=%a" -T "TITLE=%t" -T "ALBUM=%g" -T "DATE=%y" -T "TRACKNUMBER=%n" -T "GENRE=%m" -T "COMMENT=%e" %s -o %d


TOC of the extracted CD

Track | Start | Length | Start sector | End sector
––––––––––––––––––––––––––––-
1 | 0:00.00 | 8:50.36 | 0 | 39785
2 | 8:50.36 | 7:33.07 | 39786 | 73767
3 | 16:23.43 | 7:19.45 | 73768 | 106737
4 | 23:43.13 | 7:27.66 | 106738 | 140328
5 | 31:11.04 | 9:07.28 | 140329 | 181381
6 | 40:18.32 | 5:37.44 | 181382 | 206700
7 | 45:56.01 | 6:33.16 | 206701 | 236191
8 | 52:29.17 | 7:03.07 | 236192 | 267923
9 | 59:32.24 | 7:44.60 | 267924 | 302783


Range status and errors

Selected range

Filename D:\_EAC_Ripped\Fresh Moods - Fresh Moods.wav

Peak level 100.0 %
Range quality 100.0 %
Test CRC C47A44C0
Copy CRC C47A44C0
Copy OK

No errors occurred


AccurateRip summary

Track 1 accurately ripped (confidence 1) [690E8B56]
Track 2 accurately ripped (confidence 1) [AE62D3A9]
Track 3 accurately ripped (confidence 1) [E1029A8C]
Track 4 accurately ripped (confidence 1) [F4957134]
Track 5 accurately ripped (confidence 1) [EFF9E57C]
Track 6 accurately ripped (confidence 1) [90F5D574]
Track 7 accurately ripped (confidence 1) [A23B080F]
Track 8 accurately ripped (confidence 1) [6DFF4E66]
Track 9 not present in database

8 track(s) accurately ripped
1 track(s) not present in the AccurateRip database

Some tracks could not be verified as accurate

End of status report

[CUETools log; Date: 14.01.2021 21:50:46; Version: 2.1.4]
[CTDB TOCID: FERrd9fZBOvjmEJvcAEb1XBIIdc-] found.
Track | CTDB Status
1 | (13/13) Accurately ripped
2 | (13/13) Accurately ripped
3 | (13/13) Accurately ripped
4 | (13/13) Accurately ripped
5 | (13/13) Accurately ripped
6 | (12/13) Accurately ripped
7 | (12/13) Accurately ripped
8 | (13/13) Accurately ripped
9 | (13/13) Accurately ripped
[AccurateRip ID: 0017bc94-00ac52b5-7c0fc509] found.
Track [ CRC | V2 ] Status
01 [690e8b56|98d9cd77] (03+06/09) Accurately ripped
02 [ae62d3a9|9f7cae21] (04+06/10) Accurately ripped
03 [e1029a8c|5b0b288b] (03+06/09) Accurately ripped
04 [f4957134|c63bad6c] (03+06/09) Accurately ripped
05 [eff9e57c|812c2c1b] (04+06/10) Accurately ripped
06 [90f5d574|5174a62d] (03+06/09) Accurately ripped
07 [a23b080f|0cd59f3c] (03+06/09) Accurately ripped
08 [6dff4e66|e903f9a6] (03+06/09) Accurately ripped
09 [24fb442d|61eaedd3] (02+06/08) Accurately ripped

Track Peak [ CRC32 ] [W/O NULL] [ LOG ]
– 100,0 [C47A44C0] [35E515F1] CRC32
01 100,0 [9592D462] [BCC17E70]
02 100,0 [2B71CF71] [2DB8413B]
03 100,0 [6C914E75] [46959528]
04 100,0 [7E075DCA] [E2E95A95]
05 100,0 [D75546B0] [5DC9C8C0]
06 100,0 [23ACFE99] [97DB9646]
07 100,0 [4E519A36] [8230F804]
08 100,0 [1A566143] [3C3B425B]
09 100,0 [34EA4E5A] [70980D35]

Fresh Moods - 4 Studio Albums (1997-2006)

Fresh Moods - Swerve (2000)
EAC Rip | FLAC (image+.cue+log) - 481 MB | MP3 CBR 320 kbps (LAME 3.93) - 173 MB | Covers - 28 MB
Genre: Downtempo, Dub, Electro | RAR 3% Rec. | Label: Elektrolux (e1000111cd)

Tracklist:
01. Rhythmbreeze (Spy Mix)
02. Delite Electronic
03. I Feel
04. Jenny
05. Big On
06. Mescalinas
07. The Brush
08. Nuklear Good
09. Stuck Off
10. Mother

Total time: 01:13:45

Exact Audio Copy V0.99 prebeta 5 from 4. May 2009

EAC extraction logfile from 28. October 2009, 22:59

Fresh Moods / Swerve

Used drive : Optiarc DVD RW AD-7240S Adapter: 0 ID: 1

Read mode : Secure
Utilize accurate stream : Yes
Defeat audio cache : Yes
Make use of C2 pointers : No

Read offset correction : 48
Overread into Lead-In and Lead-Out : No
Fill up missing offset samples with silence : Yes
Delete leading and trailing silent blocks : No
Null samples used in CRC calculations : Yes
Used interface : Installed external ASPI interface

Used output format : User Defined Encoder
Selected bitrate : 1024 kBit/s
Quality : High
Add ID3 tag : No
Command line compressor : C:\Program Files\Exact Audio Copy\FLAC\FLAC.EXE
Additional command line options : -8 -V -T "ARTIST=%a" -T "TITLE=%t" -T "ALBUM=%g" -T "DATE=%y" -T "TRACKNUMBER=%n" -T "GENRE=%m" -T "COMMENT=%e" %s -o %d


TOC of the extracted CD

Track | Start | Length | Start sector | End sector
––––––––––––––––––––––––––––-
1 | 0:00.00 | 7:10.14 | 0 | 32263
2 | 7:10.14 | 8:36.68 | 32264 | 71031
3 | 15:47.07 | 7:50.26 | 71032 | 106307
4 | 23:37.33 | 6:57.72 | 106308 | 137654
5 | 30:35.30 | 8:32.03 | 137655 | 176057
6 | 39:07.33 | 6:20.72 | 176058 | 204629
7 | 45:28.30 | 8:03.73 | 204630 | 240927
8 | 53:32.28 | 4:47.17 | 240928 | 262469
9 | 58:19.45 | 7:14.58 | 262470 | 295077
10 | 65:34.28 | 8:10.70 | 295078 | 331897


Range status and errors

Selected range

Filename D:\_EAC_Ripped\_ELUX\Fresh Moods - Swerve.wav

Peak level 100.0 %
Range quality 100.0 %
Test CRC 38DAF6DC
Copy CRC 38DAF6DC
Copy OK

No errors occurred


AccurateRip summary

Track 1 accurately ripped (confidence 3) [898F5F79]
Track 2 accurately ripped (confidence 3) [1C317100]
Track 3 accurately ripped (confidence 3) [23E38447]
Track 4 accurately ripped (confidence 3) [8F8CDE57]
Track 5 accurately ripped (confidence 3) [745D04BA]
Track 6 accurately ripped (confidence 3) [C7456DD5]
Track 7 accurately ripped (confidence 3) [B9890FA5]
Track 8 accurately ripped (confidence 3) [167E3FB6]
Track 9 accurately ripped (confidence 3) [6CB9FE68]
Track 10 accurately ripped (confidence 2) [EBC22D3B]

All tracks accurately ripped

End of status report

[CUETools log; Date: 14.01.2021 21:48:35; Version: 2.1.4]
[CTDB TOCID: 6p7yX0_vAwNYJzY6.YiZ8KzKIA0-] found.
Track | CTDB Status
1 | (14/14) Accurately ripped
2 | (14/14) Accurately ripped
3 | (14/14) Accurately ripped
4 | (14/14) Accurately ripped
5 | (14/14) Accurately ripped
6 | (14/14) Accurately ripped
7 | (13/14) Accurately ripped
8 | (14/14) Accurately ripped
9 | (13/14) Accurately ripped
10 | (13/14) Accurately ripped
[AccurateRip ID: 001c5b11-00e16402-8911490a] found.
Track [ CRC | V2 ] Status
01 [898f5f79|7da6f762] (06+10/16) Accurately ripped
02 [1c317100|0ea958bf] (06+10/16) Accurately ripped
03 [23e38447|7eb11b4a] (05+10/15) Accurately ripped
04 [8f8cde57|a5ce3c79] (06+10/16) Accurately ripped
05 [745d04ba|4ce09c81] (06+10/16) Accurately ripped
06 [c7456dd5|79dc0beb] (06+10/16) Accurately ripped
07 [b9890fa5|593bc43d] (06+10/16) Accurately ripped
08 [167e3fb6|e905e47b] (06+10/16) Accurately ripped
09 [6cb9fe68|ff88067b] (06+10/16) Accurately ripped
10 [ebc22d3b|9e61770e] (05+08/13) Accurately ripped

Track Peak [ CRC32 ] [W/O NULL] [ LOG ]
– 100,0 [38DAF6DC] [F5876B08] CRC32
01 100,0 [30107BC1] [7193D622]
02 100,0 [6A719B22] [3F0737EF]
03 100,0 [11FD7E65] [E534806D]
04 100,0 [438FF72B] [C777B894]
05 100,0 [2A823C5A] [4C4E2FD9]
06 100,0 [E972C3C2] [3C12F194]
07 96,5 [1E164847] [6DEF5340]
08 100,0 [A2607E96] [781816E5]
09 96,5 [9D8484B7] [D346E64C]
10 100,0 [4C089C3D] [EA40EC6F]

Fresh Moods - 4 Studio Albums (1997-2006)

Fresh Moods - Love. Death. Angels (2002)
EAC Rip | FLAC (image+.cue+log) - 398 MB | MP3 CBR 320 kbps (LAME 3.93) - 147 MB | Covers - 58 MB
Genre: Downtempo, Dub, Electro | RAR 3% Rec. | Label: Elektrolux (e1101011cd)

Tracklist:
01. Decisions I Made
02. Shiny Cage
03. Find My Home
04. Got To Be
05. What Do I Say
06. Parasol
07. One Two
08. Fever
09. Behind Mirnoc
10. Stand

Total time: 01:02:45

Exact Audio Copy V0.99 prebeta 5 from 4. May 2009

EAC extraction logfile from 31. October 2009, 14:40

Fresh Moods / Love. Death. Angels.

Used drive : Optiarc DVD RW AD-7220A Adapter: 1 ID: 2

Read mode : Secure
Utilize accurate stream : Yes
Defeat audio cache : Yes
Make use of C2 pointers : No

Read offset correction : 6
Overread into Lead-In and Lead-Out : No
Fill up missing offset samples with silence : Yes
Delete leading and trailing silent blocks : No
Null samples used in CRC calculations : Yes
Used interface : Installed external ASPI interface

Used output format : User Defined Encoder
Selected bitrate : 1024 kBit/s
Quality : High
Add ID3 tag : No
Command line compressor : C:\Program Files\Exact Audio Copy\Flac\flac.exe
Additional command line options : -8 -V -T "ARTIST=%a" -T "TITLE=%t" -T "ALBUM=%g" -T "DATE=%y" -T "TRACKNUMBER=%n" -T "GENRE=%m" -T "COMMENT=%e" %s -o %d


TOC of the extracted CD

Track | Start | Length | Start sector | End sector
––––––––––––––––––––––––––––-
1 | 0:00.00 | 7:36.46 | 0 | 34245
2 | 7:36.46 | 7:39.51 | 34246 | 68721
3 | 15:16.22 | 4:50.21 | 68722 | 90492
4 | 20:06.43 | 6:07.06 | 90493 | 118023
5 | 26:13.49 | 7:30.36 | 118024 | 151809
6 | 33:44.10 | 6:20.72 | 151810 | 180381
7 | 40:05.07 | 6:02.53 | 180382 | 207584
8 | 46:07.60 | 5:06.71 | 207585 | 230605
9 | 51:14.56 | 4:56.22 | 230606 | 252827
10 | 56:11.03 | 6:33.57 | 252828 | 282359


Range status and errors

Selected range

Filename Y:\_EAC_New\_ELUX\Fresh Moods - Love. Death. Angels..wav

Peak level 100.0 %
Range quality 99.9 %
Test CRC 026E0E7E
Copy CRC 026E0E7E
Copy OK

No errors occurred


AccurateRip summary

Track 1 accurately ripped (confidence 3) [C8DB09C4]
Track 2 accurately ripped (confidence 3) [FAA5FB72]
Track 3 accurately ripped (confidence 3) [03640CEF]
Track 4 accurately ripped (confidence 3) [1038920B]
Track 5 accurately ripped (confidence 3) [A26592CF]
Track 6 accurately ripped (confidence 3) [D06D5293]
Track 7 accurately ripped (confidence 2) [383E93E0]
Track 8 accurately ripped (confidence 3) [632AA2C6]
Track 9 accurately ripped (confidence 3) [B413BEAC]
Track 10 accurately ripped (confidence 3) [566E26C8]

All tracks accurately ripped

End of status report

[CUETools log; Date: 14.01.2021 21:49:21; Version: 2.1.4]
[CTDB TOCID: VO84MVCEmQTbEBNFrENafhQOKio-] found.
Track | CTDB Status
1 | (21/23) Accurately ripped
2 | (22/23) Accurately ripped
3 | (22/23) Accurately ripped
4 | (22/23) Accurately ripped
5 | (22/23) Accurately ripped
6 | (22/23) Accurately ripped
7 | (22/23) Accurately ripped
8 | (22/23) Accurately ripped
9 | (22/23) Accurately ripped
10 | (22/23) Accurately ripped
[AccurateRip ID: 0018aca0-00c2dd63-910eb40a] found.
Track [ CRC | V2 ] Status
01 [c8db09c4|cb6ee73c] (04+11/15) Accurately ripped
02 [faa5fb72|4ddd9e93] (04+11/15) Accurately ripped
03 [03640cef|b92b84d4] (04+11/15) Accurately ripped
04 [1038920b|4308416b] (04+11/15) Accurately ripped
05 [a26592cf|535c78f3] (04+11/15) Accurately ripped
06 [d06d5293|9af08683] (04+11/15) Accurately ripped
07 [383e93e0|9df1513b] (03+11/14) Accurately ripped
08 [632aa2c6|d117fe8c] (04+11/15) Accurately ripped
09 [b413beac|d9cca148] (04+10/14) Accurately ripped
10 [566e26c8|a24009c4] (04+10/14) Accurately ripped

Track Peak [ CRC32 ] [W/O NULL] [ LOG ]
– 100,0 [026E0E7E] [ED1BD4CC] CRC32
01 96,5 [26C667A6] [4FC04FC7]
02 96,5 [79082433] [4826F6CF]
03 96,5 [0F947D7A] [6BA1E26D]
04 96,5 [EC8384DD] [F017AE8C]
05 96,5 [E0EE14C2] [F4F963DB]
06 96,5 [BA1E28BF] [51CCBCDD]
07 96,5 [428F0B69] [8F333C5C]
08 96,5 [14CBE424] [BA311757]
09 96,5 [A27D5BD3] [0604DB2A]
10 100,0 [15AFBBDB] [0D34A92D]

Fresh Moods - 4 Studio Albums (1997-2006)

Fresh Moods - Exhale (2006)
EAC Rip | FLAC (image+.cue+log) - 484 MB | MP3 CBR 320 kbps (LAME 3.93) - 187 MB | Covers - 90 MB
Genre: Downtempo, Dub, Electro | RAR 3% Rec. | Label: Elektrolux (e10010001cd)

Tracklist:
01. Exhale
02. Lifechange
03. Silent Me
04. Aground
05. Ocult Friend
06. Seafly
07. Riff 01
08. Solarcell
09. For Ever
10. My Face
11. What I Say
12. So Far (Vocal Edit)
13. U Gone
14. The Touch (Enchant Mix)
15. Disconnected

Total time: 01:19:24

Exact Audio Copy V0.99 prebeta 5 from 4. May 2009

EAC extraction logfile from 25. October 2009, 20:53

Fresh Moods / Exhale

Used drive : Optiarc DVD RW AD-7240S Adapter: 0 ID: 1

Read mode : Secure
Utilize accurate stream : Yes
Defeat audio cache : Yes
Make use of C2 pointers : No

Read offset correction : 48
Overread into Lead-In and Lead-Out : No
Fill up missing offset samples with silence : Yes
Delete leading and trailing silent blocks : No
Null samples used in CRC calculations : Yes
Used interface : Installed external ASPI interface

Used output format : User Defined Encoder
Selected bitrate : 1024 kBit/s
Quality : High
Add ID3 tag : No
Command line compressor : C:\Program Files\Exact Audio Copy\FLAC\FLAC.EXE
Additional command line options : -8 -V -T "ARTIST=%a" -T "TITLE=%t" -T "ALBUM=%g" -T "DATE=%y" -T "TRACKNUMBER=%n" -T "GENRE=%m" -T "COMMENT=%e" %s -o %d


TOC of the extracted CD

Track | Start | Length | Start sector | End sector
––––––––––––––––––––––––––––-
1 | 0:00.00 | 1:34.24 | 0 | 7073
2 | 1:34.24 | 6:32.23 | 7074 | 36496
3 | 8:06.47 | 6:20.00 | 36497 | 64996
4 | 14:26.47 | 6:20.02 | 64997 | 93498
5 | 20:46.49 | 6:13.28 | 93499 | 121501
6 | 27:00.02 | 6:28.53 | 121502 | 150654
7 | 33:28.55 | 1:26.66 | 150655 | 157170
8 | 34:55.46 | 5:46.51 | 157171 | 183171
9 | 40:42.22 | 5:17.02 | 183172 | 206948
10 | 45:59.24 | 6:05.02 | 206949 | 234325
11 | 52:04.26 | 0:44.61 | 234326 | 237686
12 | 52:49.12 | 5:00.15 | 237687 | 260201
13 | 57:49.27 | 7:17.64 | 260202 | 293040
14 | 65:07.16 | 6:45.74 | 293041 | 323489
15 | 71:53.15 | 7:30.73 | 323490 | 357312


Range status and errors

Selected range

Filename D:\_EAC_Ripped\_ELUX\Fresh Moods - Exhale.wav

Peak level 97.7 %
Range quality 99.9 %
Test CRC 1FB96C6C
Copy CRC 1FB96C6C
Copy OK

No errors occurred


AccurateRip summary

Track 1 accurately ripped (confidence 2) [DB835CAB]
Track 2 accurately ripped (confidence 2) [053DA7BC]
Track 3 accurately ripped (confidence 2) [276B3131]
Track 4 accurately ripped (confidence 2) [538C474D]
Track 5 accurately ripped (confidence 2) [685C7258]
Track 6 accurately ripped (confidence 2) [3C37CC48]
Track 7 accurately ripped (confidence 2) [6044817D]
Track 8 accurately ripped (confidence 2) [5DA09A95]
Track 9 accurately ripped (confidence 2) [ED6D66DC]
Track 10 accurately ripped (confidence 3) [CBAD31BF]
Track 11 accurately ripped (confidence 2) [815F5E96]
Track 12 accurately ripped (confidence 2) [84385498]
Track 13 accurately ripped (confidence 2) [FE1373E2]
Track 14 accurately ripped (confidence 2) [F0B694C6]
Track 15 accurately ripped (confidence 2) [F3417A8E]

All tracks accurately ripped

End of status report

[CUETools log; Date: 14.01.2021 21:51:29; Version: 2.1.4]
[CTDB TOCID: 32Q9qlqzqY_RDHnHF6hzgJktmBs-] found.
Track | CTDB Status
1 | (14/14) Accurately ripped
2 | (14/14) Accurately ripped
3 | (14/14) Accurately ripped
4 | (14/14) Accurately ripped
5 | (14/14) Accurately ripped
6 | (14/14) Accurately ripped
7 | (14/14) Accurately ripped
8 | (14/14) Accurately ripped
9 | (14/14) Accurately ripped
10 | (14/14) Accurately ripped
11 | (14/14) Accurately ripped
12 | (14/14) Accurately ripped
13 | (14/14) Accurately ripped
14 | (14/14) Accurately ripped
15 | (13/14) Accurately ripped
[AccurateRip ID: 00299e97-01da76f2-d1129c0f] found.
Track [ CRC | V2 ] Status
01 [db835cab|976580d2] (06+08/14) Accurately ripped
02 [053da7bc|ee2661a8] (06+08/14) Accurately ripped
03 [276b3131|568bbd6d] (06+08/14) Accurately ripped
04 [538c474d|0fef54cf] (06+08/14) Accurately ripped
05 [685c7258|cbb28a94] (06+08/14) Accurately ripped
06 [3c37cc48|9664a04a] (06+08/14) Accurately ripped
07 [6044817d|29e56b48] (06+08/14) Accurately ripped
08 [5da09a95|fa7f99ef] (06+08/14) Accurately ripped
09 [ed6d66dc|b9dd9dec] (06+08/14) Accurately ripped
10 [cbad31bf|4044b107] (07+08/15) Accurately ripped
11 [815f5e96|1777a5d6] (06+08/14) Accurately ripped
12 [84385498|4c3eac4e] (06+08/14) Accurately ripped
13 [fe1373e2|ba8cc83f] (06+08/14) Accurately ripped
14 [f0b694c6|0b9bda94] (06+08/14) Accurately ripped
15 [f3417a8e|c3dc53b8] (06+07/13) Accurately ripped

Track Peak [ CRC32 ] [W/O NULL] [ LOG ]
– 97,7 [1FB96C6C] [9D522D47] CRC32
01 97,7 [2E43B379] [43FF9613]
02 97,7 [7CF61CEA] [C9FB21F9]
03 97,7 [1EFFD8D4] [F1BBE3D1]
04 97,7 [90D40DA2] [EDE37994]
05 97,7 [052EF498] [5C172F0A]
06 97,7 [3B972869] [C77BCA1D]
07 91,6 [C068F544] [C5FEC403]
08 97,7 [623607DB] [7F0B2AC3]
09 97,7 [A882ACF6] [728ABBA2]
10 97,7 [7BA97AB8] [34F1BEED]
11 97,3 [C912ED5D] [490B8AB2]
12 97,7 [B9F3B9A5] [6F7B8483]
13 97,7 [A52236D1] [034EDF2E]
14 97,7 [E88DC87E] [B69327D3]
15 97,1 [0A6DB8C1] [C66135E4]

Thanks to EPSmuz