Subcategories
Please register here if you want to download anything!

If domain in your address bar is different from the list below
PLEASE LEAVE THAT SITE IMMEDIATELY
❗IT'S A DANGEROUS FAKE❗



Spicy Magazines for Men! ;-)

Gino Vannelli - Albums Collection 1974-1987 (7CD) Non-Remastered Releases [Combined Re-Up]

Posted By: Designol
Gino Vannelli - Albums Collection 1974-1987 (7CD) Non-Remastered Releases [Combined Re-Up]

Gino Vannelli - Albums Collection 1974-1987 (7CD)
XLD | FLAC | Tracks (Cue&Log) ~ 1.7 Gb | Mp3 (CBR320) ~ 754 Mb | Complete Scans
Genre: Soft Rock, Pop/Rock, Jazz-Rock, Jazz-Pop, Fusion, Blue-Eyed Soul | Time: 04:29:09

Gino Vannelli (born June 16, 1952) is a Canadian virtuoso pop/rock vocalist, singer and songwriter who had several hit songs in the 1970s and 1980s. His best-known singles included "I Just Wanna Stop" (1978) and "Living Inside Myself" (1981). Collection includes: Powerful People (1974); Storm At Sunup (1975); The Gist Of The Gemini (1976); A Pauper In Paradise (1977); Brother To Brother (1978); Nightwalker (1981); Big Dreamers Never Sleep (1987).

Ranging from soul to soft rock, singer and songwriter Gino Vannelli had several hits during the 1970s, including "People Gotta Move" and "I Just Wanna Stop." Vannelli learned to play the drums early in life and studied music theory at McGill University. He formed an R&B band with two brothers, but later began recording solo material for RCA in 1970. He became popular four years later when A&M released his hit single "People Gotta Move," from the Powerful People album (retitled People Gotta Move). Many albums followed, including Storm at Sunup (1975), Gist of the Gemini (1976), A Pauper in Paradise (1977), Brother to Brother (1978), Nightwalker (1981), Black Cars (1985), Big Dreamers Never Sleep (1987), Inconsolable Man (1990), and Live in Montreal (1992). After a lengthy absence from the recording studio, Vannelli returned in 1995 with Yonder Tree; Slow Love followed three years later. After yet another lengthy absence from the studio, Gino recorded the ambitious Canto in 2003 and 2006's These Are the Days, which featured remastered recordings of some of his best-known work alongside seven new compositions. A Good Thing, featuring a CD and accompanying book of poetry, was issued in early 2009, followed by another CD/book package, Stardust in the Sand, later that same year. After a decade-long hiatus, Vannelli returned in 2019 with Wilderness Road.

John Bush, Allmusic.com

Gino Vannelli - Albums Collection 1974-1987 (7CD) Non-Remastered Releases [Combined Re-Up]





Gino Vannelli - Albums Collection 1974-1987 (7CD) Non-Remastered Releases [Combined Re-Up]

Gino Vannelli - Powerful People (1974)
XLD | FLAC | Tracks (Cue&Log) ~ 219 Mb | Mp3 (CBR320) ~ 112 Mb | Scans included
Label: A&M | # CD 3120 | Time: 00:32:48

The music and singing are pleasant enough on this Montrealer's second outing. He avoids embarrassments like "Mama Coco" from the following year's Storm at Sunup, but lyrics are not his strong point. This release includes two of his stronger tunes in "People Gotta Move" and the title track. His heart is in the right place, as in a tribute to Jim Croce. Still, Vannelli should have left social commentary to others, or joined forces with a better lyricist.

Review by Mark Allan, Allmusic.com


Tracklist:

01. People Gotta Move (3:21)
02. Lady (3:42)
03. Son of a New York Gun (3:22)
04. Jack Miraculous (2:42)
05. Jo Jo (3:39)
06. Powerful People (6:12)
07. Felicia (3:03)
08. The Work Verse (2:54)
09. Poor Happy Jimmy (3:48)


X Lossless Decoder version 20131102 (145.0)

XLD extraction logfile from 2013-12-20 14:21:42 +0300

Gino Vannelli / Powerful People (CD 3120)

Used drive : HL-DT-ST DVDRAM GE20NU11 (revision CN01)
Media type : Pressed CD

Ripper mode : XLD Secure Ripper
Disable audio cache : OK for the drive with a cache less than 1375KiB
Make use of C2 pointers : NO
Read offset correction : 667
Max retry count : 20
Gap status : Analyzed, Appended

TOC of the extracted CD
Track | Start | Length | Start sector | End sector
––––––––––––––––––––––––––––-
1 | 00:00:00 | 03:21:45 | 0 | 15119
2 | 03:21:45 | 03:42:45 | 15120 | 31814
3 | 07:04:15 | 03:22:63 | 31815 | 47027
4 | 10:27:03 | 02:42:20 | 47028 | 59197
5 | 13:09:23 | 03:39:37 | 59198 | 75659
6 | 16:48:60 | 06:12:33 | 75660 | 103592
7 | 23:01:18 | 03:03:72 | 103593 | 117389
8 | 26:05:15 | 02:53:68 | 117390 | 130432
9 | 28:59:08 | 03:48:45 | 130433 | 147577

AccurateRip Summary (DiscID: 000b1b07-00520ea0-6607af09)
Track 01 : OK (v1, confidence 3/3)
Track 02 : OK (v1, confidence 3/3)
Track 03 : OK (v1, confidence 3/3)
Track 04 : OK (v1, confidence 3/3)
Track 05 : OK (v1, confidence 3/3)
Track 06 : OK (v1, confidence 3/3)
Track 07 : OK (v1, confidence 3/3)
Track 08 : OK (v1, confidence 3/3)
Track 09 : OK (v1, confidence 3/3)
->All tracks accurately ripped.

All Tracks
Album gain : -2.37 dB
Peak : 0.959686
Statistics
Read error : 0
Jitter error (maybe fixed) : 0
Retry sector count : 0
Damaged sector count : 0

Track 01
Filename : /OdW/Gino Vannelli (1974) Powerful People (CD 3120)/01. Gino Vannelli - People Gotta Move.flac
Pre-gap length : 00:02:00

Track gain : -2.46 dB
Peak : 0.864807
CRC32 hash (test run) : 86887C7B
CRC32 hash : 86887C7B
CRC32 hash (skip zero) : 054165FC
AccurateRip v1 signature : 6E1E8E00
AccurateRip v2 signature : F85C8336
->Accurately ripped (v1, confidence 3/3)
Statistics
Read error : 0
Jitter error (maybe fixed) : 0
Retry sector count : 0
Damaged sector count : 0

Track 02
Filename : /OdW/Gino Vannelli (1974) Powerful People (CD 3120)/02. Gino Vannelli - Lady.flac
Pre-gap length : 00:02:12

Track gain : -1.37 dB
Peak : 0.934387
CRC32 hash (test run) : 8A751156
CRC32 hash : 8A751156
CRC32 hash (skip zero) : 99BD3CF6
AccurateRip v1 signature : 87B13015
AccurateRip v2 signature : 1BD55A71
->Accurately ripped (v1, confidence 3/3)
Statistics
Read error : 0
Jitter error (maybe fixed) : 0
Retry sector count : 0
Damaged sector count : 0

Track 03
Filename : /OdW/Gino Vannelli (1974) Powerful People (CD 3120)/03. Gino Vannelli - Son of a New York Gun.flac
Pre-gap length : 00:01:20

Track gain : -3.97 dB
Peak : 0.959686
CRC32 hash (test run) : DCFB9E15
CRC32 hash : DCFB9E15
CRC32 hash (skip zero) : 12E2DE34
AccurateRip v1 signature : B47D97B7
AccurateRip v2 signature : F33BC87A
->Accurately ripped (v1, confidence 3/3)
Statistics
Read error : 0
Jitter error (maybe fixed) : 0
Retry sector count : 0
Damaged sector count : 0

Track 04
Filename : /OdW/Gino Vannelli (1974) Powerful People (CD 3120)/04. Gino Vannelli - Jack Miraculous.flac

Track gain : -2.89 dB
Peak : 0.922943
CRC32 hash (test run) : 502828B2
CRC32 hash : 502828B2
CRC32 hash (skip zero) : 669B9DA7
AccurateRip v1 signature : D5901F41
AccurateRip v2 signature : 7EFA9B7E
->Accurately ripped (v1, confidence 3/3)
Statistics
Read error : 0
Jitter error (maybe fixed) : 0
Retry sector count : 0
Damaged sector count : 0

Track 05
Filename : /OdW/Gino Vannelli (1974) Powerful People (CD 3120)/05. Gino Vannelli - Jo Jo.flac
Pre-gap length : 00:02:20

Track gain : -0.41 dB
Peak : 0.858185
CRC32 hash (test run) : 0A48C7D3
CRC32 hash : 0A48C7D3
CRC32 hash (skip zero) : C23C292E
AccurateRip v1 signature : 2E80155B
AccurateRip v2 signature : 666A86E7
->Accurately ripped (v1, confidence 3/3)
Statistics
Read error : 0
Jitter error (maybe fixed) : 0
Retry sector count : 0
Damaged sector count : 0

Track 06
Filename : /OdW/Gino Vannelli (1974) Powerful People (CD 3120)/06. Gino Vannelli - Powerful People.flac
Pre-gap length : 00:00:55

Track gain : -2.78 dB
Peak : 0.863068
CRC32 hash (test run) : B348BE80
CRC32 hash : B348BE80
CRC32 hash (skip zero) : 51991A4B
AccurateRip v1 signature : 188A2EEA
AccurateRip v2 signature : 1453EF9C
->Accurately ripped (v1, confidence 3/3)
Statistics
Read error : 0
Jitter error (maybe fixed) : 0
Retry sector count : 0
Damaged sector count : 0

Track 07
Filename : /OdW/Gino Vannelli (1974) Powerful People (CD 3120)/07. Gino Vannelli - Felicia.flac
Pre-gap length : 00:01:05

Track gain : -1.06 dB
Peak : 0.893860
CRC32 hash (test run) : 002B21DD
CRC32 hash : 002B21DD
CRC32 hash (skip zero) : C45D3010
AccurateRip v1 signature : CB4A2BAD
AccurateRip v2 signature : 2197AE2A
->Accurately ripped (v1, confidence 3/3)
Statistics
Read error : 0
Jitter error (maybe fixed) : 0
Retry sector count : 0
Damaged sector count : 0

Track 08
Filename : /OdW/Gino Vannelli (1974) Powerful People (CD 3120)/08. Gino Vannelli - The Work Verse.flac
Pre-gap length : 00:00:57

Track gain : -0.90 dB
Peak : 0.810181
CRC32 hash (test run) : FA5EEC45
CRC32 hash : FA5EEC45
CRC32 hash (skip zero) : 9A983EF4
AccurateRip v1 signature : 77A30FD5
AccurateRip v2 signature : B31F78CE
->Accurately ripped (v1, confidence 3/3)
Statistics
Read error : 0
Jitter error (maybe fixed) : 0
Retry sector count : 0
Damaged sector count : 0

Track 09
Filename : /OdW/Gino Vannelli (1974) Powerful People (CD 3120)/09. Gino Vannelli - Poor Happy Jimmy.flac
Pre-gap length : 00:02:18

Track gain : 2.58 dB
Peak : 0.947540
CRC32 hash (test run) : 327C63CE
CRC32 hash : 327C63CE
CRC32 hash (skip zero) : 8BF8FC59
AccurateRip v1 signature : DEE1B6D4
AccurateRip v2 signature : 201DF37E
->Accurately ripped (v1, confidence 3/3)
Statistics
Read error : 0
Jitter error (maybe fixed) : 0
Retry sector count : 0
Damaged sector count : 0

No errors occurred

End of status report

––-BEGIN XLD SIGNATURE––-
do.LonHnfBelBojaZ3u56ix0x8xcUtu5wKRnlzW.euD98BA.W8U1.1YRstQn0skTwXYLchTnsJdrazLyvf3ZiTemdtLUxjlzTjSjrmm
––-END XLD SIGNATURE––-

[CUETools log; Date: 31.10.2017 19:55:09; Version: 2.1.4]
[CTDB TOCID: yGwvtyfsdIuMNzVmkTvNapAG.4Y-] found.
Track | CTDB Status
1 | (7/7) Accurately ripped
2 | (7/7) Accurately ripped
3 | (7/7) Accurately ripped
4 | (7/7) Accurately ripped
5 | (7/7) Accurately ripped
6 | (7/7) Accurately ripped
7 | (7/7) Accurately ripped
8 | (7/7) Accurately ripped
9 | (7/7) Accurately ripped
[AccurateRip ID: 000b1b07-00520ea0-6607af09] found.
Track [ CRC | V2 ] Status
01 [6e1e8e00|f85c8336] (3+3/6) Accurately ripped
02 [87b13015|1bd55a71] (3+3/6) Accurately ripped
03 [b47d97b7|f33bc87a] (3+3/6) Accurately ripped
04 [d5901f41|7efa9b7e] (3+3/6) Accurately ripped
05 [2e80155b|666a86e7] (3+3/6) Accurately ripped
06 [188a2eea|1453ef9c] (3+3/6) Accurately ripped
07 [cb4a2bad|2197ae2a] (3+3/6) Accurately ripped
08 [77a30fd5|b31f78ce] (3+3/6) Accurately ripped
09 [dee1b6d4|201df37e] (3+3/6) Accurately ripped

Track Peak [ CRC32 ] [W/O NULL]
– 95,9 [3632129B] [A6B83F9D]
01 86,4 [86887C7B] [054165FC]
02 93,4 [8A751156] [99BD3CF6]
03 95,9 [DCFB9E15] [12E2DE34]
04 92,2 [502828B2] [669B9DA7]
05 85,8 [0A48C7D3] [C23C292E]
06 86,3 [B348BE80] [51991A4B]
07 89,3 [002B21DD] [C45D3010]
08 81,0 [FA5EEC45] [9A983EF4]
09 94,7 [327C63CE] [8BF8FC59]

foobar2000 1.2 / Dynamic Range Meter 1.1.1
log date: 2014-02-17 19:39:32

––––––––––––––––––––––––––––––––––––––––
Analyzed: Gino Vannelli / Powerful People (CD 3120)
––––––––––––––––––––––––––––––––––––––––

DR Peak RMS Duration Track
––––––––––––––––––––––––––––––––––––––––
DR13 -1.26 dB -17.28 dB 3:22 01-People Gotta Move
DR14 -0.59 dB -19.67 dB 3:43 02-Lady
DR12 -0.36 dB -15.96 dB 3:23 03-Son of a New York Gun
DR13 -0.70 dB -15.88 dB 2:42 04-Jack Miraculous
DR13 -1.33 dB -18.77 dB 3:39 05-Jo Jo
DR12 -1.28 dB -17.97 dB 6:12 06-Powerful People
DR14 -0.97 dB -19.13 dB 3:04 07-Felicia
DR13 -1.83 dB -21.11 dB 2:54 08-The Work Verse
DR16 -0.47 dB -21.98 dB 3:49 09-Poor Happy Jimmy
––––––––––––––––––––––––––––––––––––––––

Number of tracks: 9
Official DR value: DR13

Samplerate: 44100 Hz
Channels: 2
Bits per sample: 16
Bitrate: 667 kbps
Codec: FLAC
================================================================================

Gino Vannelli - Albums Collection 1974-1987 (7CD) Non-Remastered Releases [Combined Re-Up]

Gino Vannelli - Albums Collection 1974-1987 (7CD) Non-Remastered Releases [Combined Re-Up]




Gino Vannelli - Albums Collection 1974-1987 (7CD) Non-Remastered Releases [Combined Re-Up]

Gino Vannelli - Storm At Sunup (1975)
XLD | FLAC | Tracks (Cue&Log) ~ 210 Mb | Mp3 (CBR320) ~ 82 Mb | Scans ~ 130 Mb
Label: A&M | # CD 4533 | Time: 00:36:00

In the mid-'70s, Vannelli automatically got to the forefront of R&B due to his soulful vocals and the melodic musical arrangements. The only problem with work of Vannelli is that it often veered from the ridiculous to the sublime with absolutely no middle ground. On the bright side, whenever his lyrics hit the right note they were matched by his near-operatic vocals. 1975's Storm at Sunup, his third A&M effort, offers a lot of instances on the yin and yang. The atmospheric "Love Me Now" perfectly captures Vannelli as one of the more wishy-washy and self-absorbed singers as he croons "take me as I am/the storm in your life." The album's best song, "Keep on Walking" beautifully captures a sense of bleak romanticism as Vannelli turns in a mesmerizing vocal. The ARP heavy sound that typified his early work shows up on "Love Is a Night," and it has some tricky chord changes as he recounts his conquests. The clumsy lyrics of "Mama Coco" and "Gettin' High" are so bad they are nearly embarrassments. While those songs are odd, the best of Storm at Sunup certainly captures Vannelli's classic mid-'70s sound.

Review by Jason Elias, Allmusic.com


Tracklist:

01. Storm at Sunup (06:35)
02. Love Me Now (03:53)
03. Mama Coco (03:09)
04. Father and Son (03:17)
05. Where Am I Going (07:49)
06. Keep On Walking (03:51)
07. Love is a Night (03:55)
08. Gettin' High (03:27)


X Lossless Decoder version 20131102 (145.0)

XLD extraction logfile from 2014-02-25 16:11:49 +0200

Gino Vannelli / Storm At Sunup (CD 4533)

Used drive : HL-DT-ST DVDRW GSA-S10N (revision BP10)
Media type : Pressed CD

Ripper mode : XLD Secure Ripper
Disable audio cache : OK for the drive with a cache less than 1375KiB
Make use of C2 pointers : NO
Read offset correction : 667
Max retry count : 20
Gap status : Analyzed, Appended

TOC of the extracted CD
Track | Start | Length | Start sector | End sector
––––––––––––––––––––––––––––-
1 | 00:00:00 | 06:35:20 | 0 | 29644
2 | 06:35:20 | 03:53:15 | 29645 | 47134
3 | 10:28:35 | 03:09:30 | 47135 | 61339
4 | 13:37:65 | 03:17:70 | 61340 | 76184
5 | 16:55:60 | 07:49:68 | 76185 | 111427
6 | 24:45:53 | 03:51:40 | 111428 | 128792
7 | 28:37:18 | 03:55:15 | 128793 | 146432
8 | 32:32:33 | 03:27:55 | 146433 | 162012

AccurateRip Summary (DiscID: 000ba45c-004cb379-72087008)
Track 01 : OK (v1+v2, confidence 10/10)
Track 02 : OK (v1+v2, confidence 10/10)
Track 03 : OK (v1+v2, confidence 10/10)
Track 04 : OK (v1+v2, confidence 10/10)
Track 05 : OK (v1+v2, confidence 10/10)
Track 06 : OK (v1+v2, confidence 10/10)
Track 07 : OK (v1+v2, confidence 10/10)
Track 08 : OK (v1+v2, confidence 10/10)
->All tracks accurately ripped.

All Tracks
Album gain : -2.48 dB
Peak : 0.911987
Statistics
Read error : 0
Jitter error (maybe fixed) : 0
Retry sector count : 0
Damaged sector count : 0

Track 01
Filename : /OdW/Gino Vannelli (1975) Storm At Sunup (CD 4533)/01. Gino Vannelli - Storm at Sunup.flac
Pre-gap length : 00:02:00

Track gain : -1.97 dB
Peak : 0.911987
CRC32 hash (test run) : 9FAB1185
CRC32 hash : 9FAB1185
CRC32 hash (skip zero) : F274BB58
AccurateRip v1 signature : 19C8C578
AccurateRip v2 signature : 02A919ED
->Accurately ripped (v1+v2, confidence 8+2/10)
Statistics
Read error : 0
Jitter error (maybe fixed) : 0
Retry sector count : 0
Damaged sector count : 0

Track 02
Filename : /OdW/Gino Vannelli (1975) Storm At Sunup (CD 4533)/02. Gino Vannelli - Love Me Now.flac

Track gain : -2.86 dB
Peak : 0.911987
CRC32 hash (test run) : 4369A283
CRC32 hash : 4369A283
CRC32 hash (skip zero) : D773EB84
AccurateRip v1 signature : 2195AA08
AccurateRip v2 signature : C4460474
->Accurately ripped (v1+v2, confidence 8+2/10)
Statistics
Read error : 0
Jitter error (maybe fixed) : 0
Retry sector count : 0
Damaged sector count : 0

Track 03
Filename : /OdW/Gino Vannelli (1975) Storm At Sunup (CD 4533)/03. Gino Vannelli - Mama Coco.flac
Pre-gap length : 00:01:27

Track gain : -4.05 dB
Peak : 0.911987
CRC32 hash (test run) : 7C54913D
CRC32 hash : 7C54913D
CRC32 hash (skip zero) : 03440948
AccurateRip v1 signature : 7C81BDE9
AccurateRip v2 signature : 16E92A87
->Accurately ripped (v1+v2, confidence 8+2/10)
Statistics
Read error : 0
Jitter error (maybe fixed) : 0
Retry sector count : 0
Damaged sector count : 0

Track 04
Filename : /OdW/Gino Vannelli (1975) Storm At Sunup (CD 4533)/04. Gino Vannelli - Father and Son.flac
Pre-gap length : 00:01:15

Track gain : -0.01 dB
Peak : 0.875275
CRC32 hash (test run) : 76FD1500
CRC32 hash : 76FD1500
CRC32 hash (skip zero) : 09C1D566
AccurateRip v1 signature : D88C322E
AccurateRip v2 signature : 770100C9
->Accurately ripped (v1+v2, confidence 8+2/10)
Statistics
Read error : 0
Jitter error (maybe fixed) : 0
Retry sector count : 0
Damaged sector count : 0

Track 05
Filename : /OdW/Gino Vannelli (1975) Storm At Sunup (CD 4533)/05. Gino Vannelli - Where Am I Going.flac
Pre-gap length : 00:02:05

Track gain : -2.63 dB
Peak : 0.911957
CRC32 hash (test run) : 848E59ED
CRC32 hash : 848E59ED
CRC32 hash (skip zero) : 4C722830
AccurateRip v1 signature : AF4DC6C8
AccurateRip v2 signature : 0DD9FDFC
->Accurately ripped (v1+v2, confidence 8+2/10)
Statistics
Read error : 0
Jitter error (maybe fixed) : 0
Retry sector count : 0
Damaged sector count : 0

Track 06
Filename : /OdW/Gino Vannelli (1975) Storm At Sunup (CD 4533)/06. Gino Vannelli - Keep On Walking.flac
Pre-gap length : 00:00:08

Track gain : -0.74 dB
Peak : 0.911987
CRC32 hash (test run) : 016CDF37
CRC32 hash : 016CDF37
CRC32 hash (skip zero) : 712447EC
AccurateRip v1 signature : C2816CB9
AccurateRip v2 signature : 98FFCECD
->Accurately ripped (v1+v2, confidence 8+2/10)
Statistics
Read error : 0
Jitter error (maybe fixed) : 0
Retry sector count : 0
Damaged sector count : 0

Track 07
Filename : /OdW/Gino Vannelli (1975) Storm At Sunup (CD 4533)/07. Gino Vannelli - Love is a Night.flac

Track gain : -2.89 dB
Peak : 0.911957
CRC32 hash (test run) : 2BDA2ECA
CRC32 hash : 2BDA2ECA
CRC32 hash (skip zero) : A06FA266
AccurateRip v1 signature : 35C4C9F1
AccurateRip v2 signature : 19DD7D36
->Accurately ripped (v1+v2, confidence 8+2/10)
Statistics
Read error : 0
Jitter error (maybe fixed) : 0
Retry sector count : 0
Damaged sector count : 0

Track 08
Filename : /OdW/Gino Vannelli (1975) Storm At Sunup (CD 4533)/08. Gino Vannelli - Gettin' High.flac
Pre-gap length : 00:01:43

Track gain : 1.03 dB
Peak : 0.822144
CRC32 hash (test run) : 45C9B4A4
CRC32 hash : 45C9B4A4
CRC32 hash (skip zero) : 001FC4C2
AccurateRip v1 signature : 502091DE
AccurateRip v2 signature : 66670C91
->Accurately ripped (v1+v2, confidence 8+2/10)
Statistics
Read error : 0
Jitter error (maybe fixed) : 0
Retry sector count : 0
Damaged sector count : 0

No errors occurred

End of status report

––-BEGIN XLD SIGNATURE––-
Z_r6abtJuDrOs2Cg3vAK9Rpv2dxMYhTonrReUnQWwfFhtIyYKBn0VAJJTi7rpCU2TXmJ9as3_Q7x4o1WwTga7jaNvoMKo6ZQJqMcWjm
––-END XLD SIGNATURE––-

foobar2000 1.2 / Dynamic Range Meter 1.1.1
log date: 2014-02-27 17:07:39

––––––––––––––––––––––––––––––––––––––––
Analyzed: Gino Vannelli / Storm At Sunup (CD 4533)
––––––––––––––––––––––––––––––––––––––––

DR Peak RMS Duration Track
––––––––––––––––––––––––––––––––––––––––
DR13 -0.80 dB -16.71 dB 6:35 01-Storm at Sunup
DR13 -0.80 dB -14.87 dB 3:53 02-Love Me Now
DR13 -0.80 dB -14.85 dB 3:09 03-Mama Coco
DR15 -1.16 dB -21.23 dB 3:18 04-Father and Son
DR14 -0.80 dB -17.14 dB 7:50 05-Where Am I Going
DR16 -0.80 dB -19.51 dB 3:52 06-Keep On Walking
DR14 -0.80 dB -16.37 dB 3:55 07-Love is a Night
DR16 -1.70 dB -19.70 dB 3:28 08-Gettin' High
––––––––––––––––––––––––––––––––––––––––

Number of tracks: 8
Official DR value: DR14

Samplerate: 44100 Hz
Channels: 2
Bits per sample: 16
Bitrate: 739 kbps
Codec: FLAC
================================================================================

Gino Vannelli - Albums Collection 1974-1987 (7CD) Non-Remastered Releases [Combined Re-Up]

Gino Vannelli - Albums Collection 1974-1987 (7CD) Non-Remastered Releases [Combined Re-Up]




Gino Vannelli - Albums Collection 1974-1987 (7CD) Non-Remastered Releases [Combined Re-Up]

Gino Vannelli - The Gist Of The Gemini (1976)
XLD | FLAC | Tracks (Cue&Log) ~ 281 Mb | Mp3 (CBR320) ~ 119 Mb | Scans included
Label: A&M | # CD 3112 | Time: 00:42:26

Romantic progressive pop with layered piano and synthesizer atop outrageously pretentious lyrics about love and war. Those who can get past lines like "A post-war eunuch/A lover that is lame" will find some relaxed, smoky melodies here, especially the closer "Summers of My Life." "Fly into This Night" was a minor FM hit that lands a hefty keyboard punch courtesy of his brother, Joe Vannelli. Instrumentally, this is perhaps Vannelli's best effort. The lyrics are quite amusing, though that might not have been his intention.

Review by Peter Kurtz, Allmusic.com


Tracklist:

01. Love Of My Life (04:31)
02. Ugly Man (03:53)
03. A New Fix For '76 (03:33)
04. Omens Of Love (04:31)
05. Fly Into This Night (03:26)
06. Prelude To The War (Instr.) (04:31)
07. The Battle Cry (Instr.) (01:54)
08. To The War (04:35)
09. Carnal Question (02:35)
10. After The Last Battle (Instr.) (01:59)
11. To The War (Reflection) (02:11)
12. Summers Of My Life (04:34)


X Lossless Decoder version 20131102 (145.0)

XLD extraction logfile from 2014-03-04 21:49:27 +0200

Gino Vannelli / The Gist Of The Gemini (CD 3112)

Used drive : HL-DT-ST DVDRW GSA-S10N (revision BP10)
Media type : Pressed CD

Ripper mode : XLD Secure Ripper
Disable audio cache : OK for the drive with a cache less than 1375KiB
Make use of C2 pointers : NO
Read offset correction : 667
Max retry count : 20
Gap status : Analyzed, Appended

TOC of the extracted CD
Track | Start | Length | Start sector | End sector
––––––––––––––––––––––––––––-
1 | 00:00:32 | 04:32:48 | 32 | 20479
2 | 04:33:05 | 03:55:27 | 20480 | 38131
3 | 08:28:32 | 03:34:65 | 38132 | 54246
4 | 12:03:22 | 04:33:23 | 54247 | 74744
5 | 16:36:45 | 03:26:62 | 74745 | 90256
6 | 20:03:32 | 04:31:50 | 90257 | 110631
7 | 24:35:07 | 01:54:20 | 110632 | 119201
8 | 26:29:27 | 04:35:15 | 119202 | 139841
9 | 31:04:42 | 02:35:15 | 139842 | 151481
10 | 33:39:57 | 01:59:65 | 151482 | 160471
11 | 35:39:47 | 02:11:38 | 160472 | 170334
12 | 37:51:10 | 04:34:65 | 170335 | 190949

AccurateRip Summary (DiscID: 00142768-00b85603-9909f20c)
Track 01 : OK (v2, confidence 2/9)
Track 02 : OK (v2, confidence 2/10)
Track 03 : OK (v2, confidence 2/9)
Track 04 : OK (v2, confidence 2/10)
Track 05 : OK (v2, confidence 2/10)
Track 06 : OK (v2, confidence 2/10)
Track 07 : OK (v2, confidence 2/8)
Track 08 : OK (v2, confidence 2/8)
Track 09 : OK (v2, confidence 2/8)
Track 10 : OK (v2, confidence 2/10)
Track 11 : OK (v2, confidence 2/10)
Track 12 : OK (v2, confidence 2/10)
->All tracks accurately ripped.

All Tracks
Album gain : -2.27 dB
Peak : 0.977234
Statistics
Read error : 0
Jitter error (maybe fixed) : 0
Retry sector count : 0
Damaged sector count : 0

Track 01
Filename : /OdW/Gino Vannelli (1976) The Gist Of The Gemini (CD 3112)/01. Gino Vannelli - Love Of My Life.flac
Pre-gap length : 00:02:32

Track gain : -2.39 dB
Peak : 0.843811
CRC32 hash (test run) : E6371273
CRC32 hash : E6371273
CRC32 hash (skip zero) : B5B28836
AccurateRip v1 signature : 037FEAA3
AccurateRip v2 signature : 66A72193
->Accurately ripped (v2, confidence 2/9)
Statistics
Read error : 0
Jitter error (maybe fixed) : 0
Retry sector count : 0
Damaged sector count : 0

Track 02
Filename : /OdW/Gino Vannelli (1976) The Gist Of The Gemini (CD 3112)/02. Gino Vannelli - Ugly Man.flac
Pre-gap length : 00:01:45

Track gain : -1.18 dB
Peak : 0.836487
CRC32 hash (test run) : ED965361
CRC32 hash : ED965361
CRC32 hash (skip zero) : 0FA9B428
AccurateRip v1 signature : 94431FC5
AccurateRip v2 signature : 03843C44
->Accurately ripped (v2, confidence 2/10)
Statistics
Read error : 0
Jitter error (maybe fixed) : 0
Retry sector count : 0
Damaged sector count : 0

Track 03
Filename : /OdW/Gino Vannelli (1976) The Gist Of The Gemini (CD 3112)/03. Gino Vannelli - A New Fix For '76.flac
Pre-gap length : 00:02:07

Track gain : -3.01 dB
Peak : 0.929047
CRC32 hash (test run) : 0D4B09AE
CRC32 hash : 0D4B09AE
CRC32 hash (skip zero) : 11032502
AccurateRip v1 signature : 1D845D75
AccurateRip v2 signature : 8BCB0EB4
->Accurately ripped (v2, confidence 2/9)
Statistics
Read error : 0
Jitter error (maybe fixed) : 0
Retry sector count : 0
Damaged sector count : 0

Track 04
Filename : /OdW/Gino Vannelli (1976) The Gist Of The Gemini (CD 3112)/04. Gino Vannelli - Omens Of Love.flac
Pre-gap length : 00:01:25

Track gain : -0.71 dB
Peak : 0.977234
CRC32 hash (test run) : BAFAEF82
CRC32 hash : BAFAEF82
CRC32 hash (skip zero) : EC35FC79
AccurateRip v1 signature : 0D391714
AccurateRip v2 signature : 6702FE8A
->Accurately ripped (v2, confidence 2/10)
Statistics
Read error : 0
Jitter error (maybe fixed) : 0
Retry sector count : 0
Damaged sector count : 0

Track 05
Filename : /OdW/Gino Vannelli (1976) The Gist Of The Gemini (CD 3112)/05. Gino Vannelli - Fly Into This Night.flac
Pre-gap length : 00:01:63

Track gain : -3.57 dB
Peak : 0.977234
CRC32 hash (test run) : D5D16356
CRC32 hash : D5D16356
CRC32 hash (skip zero) : C90941FB
AccurateRip v1 signature : C0D60866
AccurateRip v2 signature : 0C1AD6D1
->Accurately ripped (v2, confidence 2/10)
Statistics
Read error : 0
Jitter error (maybe fixed) : 0
Retry sector count : 0
Damaged sector count : 0

Track 06
Filename : /OdW/Gino Vannelli (1976) The Gist Of The Gemini (CD 3112)/06. Gino Vannelli - Prelude To The War (Instr.).flac
Pre-gap length : 00:00:22

Track gain : -2.57 dB
Peak : 0.893433
CRC32 hash (test run) : 885A30AB
CRC32 hash : 885A30AB
CRC32 hash (skip zero) : 4A57B239
AccurateRip v1 signature : 1D664418
AccurateRip v2 signature : 17FB894D
->Accurately ripped (v2, confidence 2/10)
Statistics
Read error : 0
Jitter error (maybe fixed) : 0
Retry sector count : 0
Damaged sector count : 0

Track 07
Filename : /OdW/Gino Vannelli (1976) The Gist Of The Gemini (CD 3112)/07. Gino Vannelli - The Battle Cry (Instr.).flac

Track gain : -2.11 dB
Peak : 0.977234
CRC32 hash (test run) : 7CDA35E3
CRC32 hash : 7CDA35E3
CRC32 hash (skip zero) : 97BED256
AccurateRip v1 signature : DCAD2CE9
AccurateRip v2 signature : 1AAC6E15
->Accurately ripped (v2, confidence 2/8)
Statistics
Read error : 0
Jitter error (maybe fixed) : 0
Retry sector count : 0
Damaged sector count : 0

Track 08
Filename : /OdW/Gino Vannelli (1976) The Gist Of The Gemini (CD 3112)/08. Gino Vannelli - To The War.flac

Track gain : -2.33 dB
Peak : 0.977234
CRC32 hash (test run) : F4B3F66D
CRC32 hash : F4B3F66D
CRC32 hash (skip zero) : E68BE67F
AccurateRip v1 signature : 2FA90BDF
AccurateRip v2 signature : 10CA18E6
->Accurately ripped (v2, confidence 2/8)
Statistics
Read error : 0
Jitter error (maybe fixed) : 0
Retry sector count : 0
Damaged sector count : 0

Track 09
Filename : /OdW/Gino Vannelli (1976) The Gist Of The Gemini (CD 3112)/09. Gino Vannelli - Carnal Question.flac

Track gain : -3.25 dB
Peak : 0.977234
CRC32 hash (test run) : 35C72BD9
CRC32 hash : 35C72BD9
CRC32 hash (skip zero) : 721AD43B
AccurateRip v1 signature : 40AA3C1F
AccurateRip v2 signature : B22B26F4
->Accurately ripped (v2, confidence 2/8)
Statistics
Read error : 0
Jitter error (maybe fixed) : 0
Retry sector count : 0
Damaged sector count : 0

Track 10
Filename : /OdW/Gino Vannelli (1976) The Gist Of The Gemini (CD 3112)/10. Gino Vannelli - After The Last Battle (Instr.).flac

Track gain : 2.69 dB
Peak : 0.511139
CRC32 hash (test run) : 6508375E
CRC32 hash : 6508375E
CRC32 hash (skip zero) : 8188E631
AccurateRip v1 signature : 72156B93
AccurateRip v2 signature : 26F2604F
->Accurately ripped (v2, confidence 2/10)
Statistics
Read error : 0
Jitter error (maybe fixed) : 0
Retry sector count : 0
Damaged sector count : 0

Track 11
Filename : /OdW/Gino Vannelli (1976) The Gist Of The Gemini (CD 3112)/11. Gino Vannelli - To The War (Reflection).flac

Track gain : -2.01 dB
Peak : 0.875397
CRC32 hash (test run) : 1CEF9A19
CRC32 hash : 1CEF9A19
CRC32 hash (skip zero) : 16F50A98
AccurateRip v1 signature : FA475BF3
AccurateRip v2 signature : 22A7CB4C
->Accurately ripped (v2, confidence 2/10)
Statistics
Read error : 0
Jitter error (maybe fixed) : 0
Retry sector count : 0
Damaged sector count : 0

Track 12
Filename : /OdW/Gino Vannelli (1976) The Gist Of The Gemini (CD 3112)/12. Gino Vannelli - Summers Of My Life.flac

Track gain : 0.15 dB
Peak : 0.854095
CRC32 hash (test run) : 84C9F2FA
CRC32 hash : 84C9F2FA
CRC32 hash (skip zero) : 3784E714
AccurateRip v1 signature : 4527B960
AccurateRip v2 signature : 430BBDC1
->Accurately ripped (v2, confidence 2/10)
Statistics
Read error : 0
Jitter error (maybe fixed) : 0
Retry sector count : 0
Damaged sector count : 0

No errors occurred

End of status report

––-BEGIN XLD SIGNATURE––-
NRXDyKk0S_WCxbibKqanbGVC1pCyv7SsjHIiStGwmQKlR3PY3e2C3qRKGZP1MojggCcJXKhWrxMRLGEK6U9mpOr6Kbz4WLzq4ozlJve
––-END XLD SIGNATURE––-

foobar2000 1.2 / Dynamic Range Meter 1.1.1
log date: 2014-03-17 14:58:48

––––––––––––––––––––––––––––––––––––––––
Analyzed: Gino Vannelli / The Gist Of The Gemini (CD 3112)
––––––––––––––––––––––––––––––––––––––––

DR Peak RMS Duration Track
––––––––––––––––––––––––––––––––––––––––
DR13 -1.48 dB -17.37 dB 4:33 01-Love Of My Life
DR14 -1.55 dB -19.26 dB 3:55 02-Ugly Man
DR13 -0.64 dB -16.76 dB 3:35 03-A New Fix For '76
DR16 -0.20 dB -20.84 dB 4:33 04-Omens Of Love
DR14 -0.20 dB -16.32 dB 3:27 05-Fly Into This Night
DR13 -0.98 dB -19.22 dB 4:32 06-Prelude To The War (Instr.)
DR14 -0.20 dB -16.97 dB 1:54 07-The Battle Cry (Instr.)
DR14 -0.20 dB -17.83 dB 4:35 08-To The War
DR14 -0.20 dB -16.20 dB 2:35 09-Carnal Question
DR10 -5.83 dB -20.59 dB 2:00 10-After The Last Battle (Instr.)
DR13 -1.16 dB -17.96 dB 2:12 11-To The War (Reflection)
DR15 -1.37 dB -19.36 dB 4:35 12-Summers Of My Life
––––––––––––––––––––––––––––––––––––––––

Number of tracks: 12
Official DR value: DR13

Samplerate: 44100 Hz
Channels: 2
Bits per sample: 16
Bitrate: 824 kbps
Codec: FLAC
================================================================================

Gino Vannelli - Albums Collection 1974-1987 (7CD) Non-Remastered Releases [Combined Re-Up]

Gino Vannelli - Albums Collection 1974-1987 (7CD) Non-Remastered Releases [Combined Re-Up]




Gino Vannelli - Albums Collection 1974-1987 (7CD) Non-Remastered Releases [Combined Re-Up]

Gino Vannelli - A Pauper In Paradise (1977)
XLD | FLAC | Tracks (Cue&Log) ~ 264 Mb | Mp3 (CBR320) ~ 129 Mb | Scans included
Label: A&M | # CD 4664 | Time: 00:41:00

Gino Vannelli's musical creativity reached a high point in 1977 with the release of his fifth album "A Pauper In Paradise". Like his previous album, "Gist of The Gemini", "Pauper.." is high on dynamic musical arrangements and showcases Vannelli's vocals at their very best.

The opening track "Mardi Gras", is a jolly slow shuffle with some excellent jazzy arrangements. This is a fun piece which will have you smiling in no time.

Tracks such as "Valleys of Valhalla" and "A Song and Dance" are in the light-pop genre while the album's hit "One Night With You" has a faint touch of disco.

"The Surest Things Can Change" is a gentle ballad perfect for late-night slow dancing with that special someone.

The main highlights of this album are represented in its second half. Both "Black and Blue" and the four-movement title track were recorded at the famous Abbey Road Studios in London with The Royal Philharmonic Orchestra. The end results are beyond belief. "Black and Blue" displays Vannelli's dynamic vocals in full range as the orchestra provides a beautiful lush backup behind him.

The album's epic title track is very much in the same vein as The Moody Blues' "Days of Future Passed" in that it features extended orchestral passages with embelishments from Gino's backup band (consisting of three keyboarists including brother Joe Vannelli plus a drummer and two percussionists). This piece is not rock nor is it commercial pop. The majority of this piece is definitely programmatic classical music (ie: classical music with an overall story and concept). It is only during the third movement that the orchestra is not center of attention. Here, Gino's band lets loose with a progressive rock/jazz fusion hybrid loaded with busy percussion patterns and skittering keyboard passages. This piece as whole demonstrates Gino Vannelli's great strength as a composer and not just a vocalist as the majority of it is instrumental with only a few vocal lines at the very end of the last movement.

"A Pauper In Paradise" is definitely one of Gino Vannelli's finest albums and makes for a perfect match alongside "The Gist Of The Gemini". Although I did not hear this album when it was first released in 1977, I must say that in 2003, "A Pauper In Paradise" sounds like a brand new album. It offers something fresh and exciting from this brilliant vocalist and composer.

Review by Louie Bourland


Tracklist:

01. Mardi Gras (03:29)
02. Valleys Of Valhalla (04:25)
03. The Surest Things Can Change (04:38)
04. One Night With You (04:20)
05. A Song And Dance (03:42)
06. Black And Blue (04:24)
07. A Pauper In Paradise - 1st Movement (04:46)
08. A Pauper In Paradise - 2nd Movement (02:29)
09. A Pauper In Paradise - 3rd Movement (04:22)
10. A Pauper In Paradise - 4th Movement (04:20)


X Lossless Decoder version 20131102 (145.0)

XLD extraction logfile from 2014-01-19 12:16:32 +0300

Gino Vannelli / A Pauper In Paradise (CD 4664)

Used drive : HL-DT-ST DVDRAM GE20NU11 (revision CN01)
Media type : Pressed CD

Ripper mode : XLD Secure Ripper
Disable audio cache : OK for the drive with a cache less than 1375KiB
Make use of C2 pointers : NO
Read offset correction : 667
Max retry count : 20
Gap status : Analyzed, Appended

TOC of the extracted CD
Track | Start | Length | Start sector | End sector
––––––––––––––––––––––––––––-
1 | 00:00:00 | 03:29:00 | 0 | 15674
2 | 03:29:00 | 04:25:15 | 15675 | 35564
3 | 07:54:15 | 04:38:05 | 35565 | 56419
4 | 12:32:20 | 04:20:58 | 56420 | 75977
5 | 16:53:03 | 03:42:60 | 75978 | 92687
6 | 20:35:63 | 04:24:67 | 92688 | 112554
7 | 25:00:55 | 04:46:33 | 112555 | 134037
8 | 29:47:13 | 02:29:55 | 134038 | 145267
9 | 32:16:68 | 04:22:35 | 145268 | 164952
10 | 36:39:28 | 04:20:67 | 164953 | 184519

List of alternate offset correction values
# | Absolute | Relative | Confidence
–––––––––––––––––––––
1 | 405 | -262 | 3

AccurateRip Summary (DiscID: 000f873c-007c4ea3-76099c0a)
Track 01 : OK (v1, confidence 4/7)
Track 02 : OK (v1, confidence 4/7)
Track 03 : OK (v1, confidence 4/7)
Track 04 : OK (v1, confidence 4/7)
Track 05 : OK (v1, confidence 4/7)
Track 06 : OK (v1, confidence 4/7)
Track 07 : OK (v1, confidence 4/7)
Track 08 : OK (v1, confidence 4/7)
Track 09 : OK (v1, confidence 4/7)
Track 10 : OK (v1, confidence 4/7)
->All tracks accurately ripped.

All Tracks
Album gain : -2.01 dB
Peak : 0.933197
Statistics
Read error : 0
Jitter error (maybe fixed) : 0
Retry sector count : 0
Damaged sector count : 0

Track 01
Filename : /OdW/Gino Vannelli (1977) A Pauper In Paradise (CD 4664)/01. Gino Vannelli - Mardi Gras.flac
Pre-gap length : 00:02:00

Track gain : -2.12 dB
Peak : 0.749268
CRC32 hash (test run) : A0D32C9D
CRC32 hash : A0D32C9D
CRC32 hash (skip zero) : D06219BD
AccurateRip v1 signature : 73392E4F
AccurateRip v2 signature : 192C6F8F
->Accurately ripped (v1, confidence 4/7)
Statistics
Read error : 0
Jitter error (maybe fixed) : 0
Retry sector count : 0
Damaged sector count : 0

Track 02
Filename : /OdW/Gino Vannelli (1977) A Pauper In Paradise (CD 4664)/02. Gino Vannelli - Valleys Of Valhalla.flac
Pre-gap length : 00:00:32

Track gain : -2.70 dB
Peak : 0.843994
CRC32 hash (test run) : AB3628FC
CRC32 hash : AB3628FC
CRC32 hash (skip zero) : 598145BA
AccurateRip v1 signature : 2A882D19
AccurateRip v2 signature : BB5B1383
->Accurately ripped (v1, confidence 4/7)
Statistics
Read error : 0
Jitter error (maybe fixed) : 0
Retry sector count : 0
Damaged sector count : 0

Track 03
Filename : /OdW/Gino Vannelli (1977) A Pauper In Paradise (CD 4664)/03. Gino Vannelli - The Surest Things Can Change.flac
Pre-gap length : 00:01:35

Track gain : 0.04 dB
Peak : 0.864929
CRC32 hash (test run) : 747D3D29
CRC32 hash : 747D3D29
CRC32 hash (skip zero) : 97BC2DA8
AccurateRip v1 signature : 110A6041
AccurateRip v2 signature : 017E6F5A
->Accurately ripped (v1, confidence 4/7)
Statistics
Read error : 0
Jitter error (maybe fixed) : 0
Retry sector count : 0
Damaged sector count : 0

Track 04
Filename : /OdW/Gino Vannelli (1977) A Pauper In Paradise (CD 4664)/04. Gino Vannelli - One Night With You.flac
Pre-gap length : 00:01:07

Track gain : -2.22 dB
Peak : 0.893982
CRC32 hash (test run) : A17E7565
CRC32 hash : A17E7565
CRC32 hash (skip zero) : C86231B1
AccurateRip v1 signature : A07221AC
AccurateRip v2 signature : 9772963D
->Accurately ripped (v1, confidence 4/7)
Statistics
Read error : 0
Jitter error (maybe fixed) : 0
Retry sector count : 0
Damaged sector count : 0

Track 05
Filename : /OdW/Gino Vannelli (1977) A Pauper In Paradise (CD 4664)/05. Gino Vannelli - A Song And Dance.flac
Pre-gap length : 00:01:13

Track gain : -1.63 dB
Peak : 0.722992
CRC32 hash (test run) : 2830C85C
CRC32 hash : 2830C85C
CRC32 hash (skip zero) : 2A3E40D9
AccurateRip v1 signature : 14024BC7
AccurateRip v2 signature : FDAA147F
->Accurately ripped (v1, confidence 4/7)
Statistics
Read error : 0
Jitter error (maybe fixed) : 0
Retry sector count : 0
Damaged sector count : 0

Track 06
Filename : /OdW/Gino Vannelli (1977) A Pauper In Paradise (CD 4664)/06. Gino Vannelli - Black And Blue.flac
Pre-gap length : 00:01:63

Track gain : -0.44 dB
Peak : 0.641541
CRC32 hash (test run) : 457050A1
CRC32 hash : 457050A1
CRC32 hash (skip zero) : A6D0C15B
AccurateRip v1 signature : 3A48239F
AccurateRip v2 signature : 13700E91
->Accurately ripped (v1, confidence 4/7)
Statistics
Read error : 0
Jitter error (maybe fixed) : 0
Retry sector count : 0
Damaged sector count : 0

Track 07
Filename : /OdW/Gino Vannelli (1977) A Pauper In Paradise (CD 4664)/07. Gino Vannelli - A Pauper In Paradise - 1st Movement.flac
Pre-gap length : 00:01:17

Track gain : -0.64 dB
Peak : 0.643250
CRC32 hash (test run) : 6188DE33
CRC32 hash : 6188DE33
CRC32 hash (skip zero) : 78D95B8A
AccurateRip v1 signature : 93774D5F
AccurateRip v2 signature : E794AC9C
->Accurately ripped (v1, confidence 4/7)
Statistics
Read error : 0
Jitter error (maybe fixed) : 0
Retry sector count : 0
Damaged sector count : 0

Track 08
Filename : /OdW/Gino Vannelli (1977) A Pauper In Paradise (CD 4664)/08. Gino Vannelli - A Pauper In Paradise - 2nd Movement.flac

Track gain : -0.34 dB
Peak : 0.668335
CRC32 hash (test run) : BE4ABD3E
CRC32 hash : BE4ABD3E
CRC32 hash (skip zero) : 4BE8806B
AccurateRip v1 signature : 0B94614A
AccurateRip v2 signature : 0F56A614
->Accurately ripped (v1, confidence 4/7)
Statistics
Read error : 0
Jitter error (maybe fixed) : 0
Retry sector count : 0
Damaged sector count : 0

Track 09
Filename : /OdW/Gino Vannelli (1977) A Pauper In Paradise (CD 4664)/09. Gino Vannelli - A Pauper In Paradise - 3rd Movement.flac

Track gain : -3.99 dB
Peak : 0.933197
CRC32 hash (test run) : 5891D9B4
CRC32 hash : 5891D9B4
CRC32 hash (skip zero) : 05E080E4
AccurateRip v1 signature : 72CF4E22
AccurateRip v2 signature : 56026D5E
->Accurately ripped (v1, confidence 4/7)
Statistics
Read error : 0
Jitter error (maybe fixed) : 0
Retry sector count : 0
Damaged sector count : 0

Track 10
Filename : /OdW/Gino Vannelli (1977) A Pauper In Paradise (CD 4664)/10. Gino Vannelli - A Pauper In Paradise - 4th Movement.flac

Track gain : 0.92 dB
Peak : 0.722595
CRC32 hash (test run) : 105CF575
CRC32 hash : 105CF575
CRC32 hash (skip zero) : 35323F48
AccurateRip v1 signature : 3EE4FC04
AccurateRip v2 signature : 2F2674DA
->Accurately ripped (v1, confidence 4/7)
Statistics
Read error : 0
Jitter error (maybe fixed) : 0
Retry sector count : 0
Damaged sector count : 0

No errors occurred

End of status report

––-BEGIN XLD SIGNATURE––-
bQXLhKpYfZliXADiN2.Nuvli0UXSUNVemoiz9t0IjcKFwsfNxg6hVOHF0Eyj8JU8zmMWaffiOvO81eXhjcifwt91eVbxcLqR0wNOCJm
––-END XLD SIGNATURE––-

[CUETools log; Date: 13.11.2017 18:35:55; Version: 2.1.4]
[CTDB TOCID: 94y5lt.SMXlBKWxZ0Oz.l9o5KXY-] found.
Track | CTDB Status
1 | (9/9) Accurately ripped
2 | (9/9) Accurately ripped
3 | (9/9) Accurately ripped
4 | (9/9) Accurately ripped
5 | (9/9) Accurately ripped
6 | (9/9) Accurately ripped
7 | (9/9) Accurately ripped
8 | (9/9) Accurately ripped
9 | (9/9) Accurately ripped
10 | (9/9) Accurately ripped
[AccurateRip ID: 000f873c-007c4ea3-76099c0a] found.
Track [ CRC | V2 ] Status
01 [73392e4f|192c6f8f] (4+0/9) Accurately ripped
02 [2a882d19|bb5b1383] (4+0/9) Accurately ripped
03 [110a6041|017e6f5a] (4+0/9) Accurately ripped
04 [a07221ac|9772963d] (4+0/9) Accurately ripped
05 [14024bc7|fdaa147f] (4+0/9) Accurately ripped
06 [3a48239f|13700e91] (4+0/9) Accurately ripped
07 [93774d5f|e794ac9c] (4+0/9) Accurately ripped
08 [0b94614a|0f56a614] (4+0/9) Accurately ripped
09 [72cf4e22|56026d5e] (4+0/9) Accurately ripped
10 [3ee4fc04|2f2674da] (4+0/9) Accurately ripped
Offsetted by -262:
01 [970484ad] (3/9) Accurately ripped
02 [825d4245] (3/9) Accurately ripped
03 [b297199b] (3/9) Accurately ripped
04 [2658e764] (3/9) Accurately ripped
05 [48e99fc9] (3/9) Accurately ripped
06 [32bfbaa3] (3/9) Accurately ripped
07 [8c1e9d82] (3/9) Accurately ripped
08 [f8370353] (3/9) Accurately ripped
09 [e044ccd9] (3/9) Accurately ripped
10 [b04ecbc1] (3/9) Accurately ripped

Track Peak [ CRC32 ] [W/O NULL]
– 93,3 [61108169] [23E9FFF1]
01 74,9 [A0D32C9D] [D06219BD]
02 84,4 [AB3628FC] [598145BA]
03 86,4 [747D3D29] [97BC2DA8]
04 89,4 [A17E7565] [C86231B1]
05 72,3 [2830C85C] [2A3E40D9]
06 64,1 [457050A1] [A6D0C15B]
07 64,3 [6188DE33] [78D95B8A]
08 66,8 [BE4ABD3E] [4BE8806B]
09 93,3 [5891D9B4] [05E080E4]
10 72,2 [105CF575] [35323F48]

foobar2000 1.2 / Dynamic Range Meter 1.1.1
log date: 2014-02-27 21:49:53

––––––––––––––––––––––––––––––––––––––––
Analyzed: Gino Vannelli / A Pauper In Paradise (CD 4664)
––––––––––––––––––––––––––––––––––––––––

DR Peak RMS Duration Track
––––––––––––––––––––––––––––––––––––––––
DR11 -2.51 dB -15.56 dB 3:29 01-Mardi Gras
DR12 -1.47 dB -16.26 dB 4:25 02-Valleys Of Valhalla
DR14 -1.26 dB -18.83 dB 4:38 03-The Surest Things Can Change
DR11 -0.97 dB -15.84 dB 4:21 04-One Night With You
DR12 -2.82 dB -16.20 dB 3:43 05-A Song And Dance
DR11 -3.86 dB -19.50 dB 4:25 06-Black And Blue
DR11 -3.83 dB -20.60 dB 4:46 07-A Pauper In Paradise - 1st Movement
DR12 -3.50 dB -21.30 dB 2:30 08-A Pauper In Paradise - 2nd Movement
DR11 -0.60 dB -15.62 dB 4:22 09-A Pauper In Paradise - 3rd Movement
DR12 -2.82 dB -22.83 dB 4:21 10-A Pauper In Paradise - 4th Movement
––––––––––––––––––––––––––––––––––––––––

Number of tracks: 10
Official DR value: DR12

Samplerate: 44100 Hz
Channels: 2
Bits per sample: 16
Bitrate: 597 kbps
Codec: FLAC
================================================================================

Gino Vannelli - Albums Collection 1974-1987 (7CD) Non-Remastered Releases [Combined Re-Up]

Gino Vannelli - Albums Collection 1974-1987 (7CD) Non-Remastered Releases [Combined Re-Up]




Gino Vannelli - Albums Collection 1974-1987 (7CD) Non-Remastered Releases [Combined Re-Up]

Gino Vannelli - Brother To Brother (1978)
XLD | FLAC | Tracks (Cue&Log) ~ 270 Mb | Mp3 (CBR320) ~ 111 Mb | Scans included
Label: A&M | # CD 3170 | Time: 00:41:10

By this point, Vannelli has pared away the often-bizarre edges of his sound and became more mainstream. That's not a bad thing. This album's predecessor, A Pauper in Paradise, seemed to blow up his pretensions to skyscraper size with only the melodic and gorgeous "The Surest Things Can Change" coming out unscathed. The good news is that Brother to Brother seems to pick up from that point. The big hit here, the sexy and confident "I Just Want to Stop," gets a great vocal from Vannelli and the backing vocalists. Throughout, this one gets the sense that Vannelli finally got what made him special vocally and lyrically. "Love and Emotion" and "Feel Like Flying" have a maturity that he couldn't have pulled off two albums before. That is also true of the pensive "Wheels of Life," a song that's so melodically rich and thought-provoking, it's surprising that Peabo Bryson didn't cover it on one of his albums. Gino Vannelli's often more personal than more artists, and the final track proves it. The sleek and well-arranged "People I Belong To" has Vannelli examining the lives of his parents and brothers in a way that can't help but be affecting. After a few years of successful albums for A&M, Brother to Brother coalesced the sound and is recommended to fans of pop and R&B.

Review by Jason Elias, Allmusic.com


Tracklist:

1. Appaloosa (4:44)
2. The River Must Flow (3:50)
3. I Just Wanna Stop (3:38)
4. Love And Emotion (3:50)
5. Feel Like Flying (5:20)
6. Brother To Brother (7:19)
7. Wheels Of Life (4:15)
8. The Evil Eye (4:13)
9. People I Belong To (4:01)


X Lossless Decoder version 20131102 (145.0)

XLD extraction logfile from 2014-01-19 13:23:32 +0300

Gino Vannelli / Brother To Brother (CD 3170)

Used drive : HL-DT-ST DVDRAM GE20NU11 (revision CN01)
Media type : Pressed CD

Ripper mode : XLD Secure Ripper
Disable audio cache : OK for the drive with a cache less than 1375KiB
Make use of C2 pointers : NO
Read offset correction : 667
Max retry count : 20
Gap status : Analyzed, Appended

TOC of the extracted CD
Track | Start | Length | Start sector | End sector
––––––––––––––––––––––––––––-
1 | 00:00:00 | 04:43:60 | 0 | 21284
2 | 04:43:60 | 03:49:65 | 21285 | 38524
3 | 08:33:50 | 03:38:28 | 38525 | 54902
4 | 12:12:03 | 03:50:15 | 54903 | 72167
5 | 16:02:18 | 05:19:47 | 72168 | 96139
6 | 21:21:65 | 07:19:13 | 96140 | 129077
7 | 28:41:03 | 04:15:00 | 129078 | 148202
8 | 32:56:03 | 04:13:12 | 148203 | 167189
9 | 37:09:15 | 04:01:03 | 167190 | 185267

List of alternate offset correction values
# | Absolute | Relative | Confidence
–––––––––––––––––––––
1 | 846 | 179 | 15

AccurateRip Summary (DiscID: 000ded78-00672e0e-7909a609)
Track 01 : OK (v1+v2, confidence 5/20)
Track 02 : OK (v1+v2, confidence 5/20)
Track 03 : OK (v1+v2, confidence 5/19)
Track 04 : OK (v1+v2, confidence 5/19)
Track 05 : OK (v1+v2, confidence 5/19)
Track 06 : OK (v1+v2, confidence 5/20)
Track 07 : OK (v1+v2, confidence 5/20)
Track 08 : OK (v1+v2, confidence 5/20)
Track 09 : OK (v1+v2, confidence 5/19)
->All tracks accurately ripped.

All Tracks
Album gain : -2.45 dB
Peak : 0.934235
Statistics
Read error : 0
Jitter error (maybe fixed) : 0
Retry sector count : 0
Damaged sector count : 0

Track 01
Filename : /OdW/Gino Vannelli (1978) Brother To Brother (CD 3170)/01. Gino Vannelli - Appaloosa.flac
Pre-gap length : 00:02:00

Track gain : -3.31 dB
Peak : 0.685760
CRC32 hash (test run) : FC890890
CRC32 hash : FC890890
CRC32 hash (skip zero) : A3635EE7
AccurateRip v1 signature : A37002F7
AccurateRip v2 signature : 693759DC
->Accurately ripped (v1+v2, confidence 2+3/20)
Statistics
Read error : 0
Jitter error (maybe fixed) : 0
Retry sector count : 0
Damaged sector count : 0

Track 02
Filename : /OdW/Gino Vannelli (1978) Brother To Brother (CD 3170)/02. Gino Vannelli - The River Must Flow.flac

Track gain : -2.37 dB
Peak : 0.622559
CRC32 hash (test run) : DB2C7F6B
CRC32 hash : DB2C7F6B
CRC32 hash (skip zero) : 5CA1D4DF
AccurateRip v1 signature : 48BDFF43
AccurateRip v2 signature : 1E78C4A0
->Accurately ripped (v1+v2, confidence 2+3/20)
Statistics
Read error : 0
Jitter error (maybe fixed) : 0
Retry sector count : 0
Damaged sector count : 0

Track 03
Filename : /OdW/Gino Vannelli (1978) Brother To Brother (CD 3170)/03. Gino Vannelli - I Just Wanna Stop.flac

Track gain : -2.27 dB
Peak : 0.813324
CRC32 hash (test run) : 8E3761AD
CRC32 hash : 8E3761AD
CRC32 hash (skip zero) : 5D9E3ECB
AccurateRip v1 signature : F5E075E7
AccurateRip v2 signature : CB094ED6
->Accurately ripped (v1+v2, confidence 2+3/19)
Statistics
Read error : 0
Jitter error (maybe fixed) : 0
Retry sector count : 0
Damaged sector count : 0

Track 04
Filename : /OdW/Gino Vannelli (1978) Brother To Brother (CD 3170)/04. Gino Vannelli - Love And Emotion.flac
Pre-gap length : 00:01:10

Track gain : -3.53 dB
Peak : 0.934235
CRC32 hash (test run) : CDA0AA78
CRC32 hash : CDA0AA78
CRC32 hash (skip zero) : C764587E
AccurateRip v1 signature : AACE09F9
AccurateRip v2 signature : E21C1E0B
->Accurately ripped (v1+v2, confidence 2+3/19)
Statistics
Read error : 0
Jitter error (maybe fixed) : 0
Retry sector count : 0
Damaged sector count : 0

Track 05
Filename : /OdW/Gino Vannelli (1978) Brother To Brother (CD 3170)/05. Gino Vannelli - Feel Like Flying.flac
Pre-gap length : 00:00:23

Track gain : -2.30 dB
Peak : 0.855316
CRC32 hash (test run) : 2AC808FD
CRC32 hash : 2AC808FD
CRC32 hash (skip zero) : CD2FE2A1
AccurateRip v1 signature : 7B6D03B1
AccurateRip v2 signature : 7CA12ACD
->Accurately ripped (v1+v2, confidence 2+3/19)
Statistics
Read error : 0
Jitter error (maybe fixed) : 0
Retry sector count : 0
Damaged sector count : 0

Track 06
Filename : /OdW/Gino Vannelli (1978) Brother To Brother (CD 3170)/06. Gino Vannelli - Brother To Brother.flac
Pre-gap length : 00:01:70

Track gain : -1.75 dB
Peak : 0.901703
CRC32 hash (test run) : 7E90E667
CRC32 hash : 7E90E667
CRC32 hash (skip zero) : CC8881A0
AccurateRip v1 signature : 444C1446
AccurateRip v2 signature : 347B53F9
->Accurately ripped (v1+v2, confidence 2+3/20)
Statistics
Read error : 0
Jitter error (maybe fixed) : 0
Retry sector count : 0
Damaged sector count : 0

Track 07
Filename : /OdW/Gino Vannelli (1978) Brother To Brother (CD 3170)/07. Gino Vannelli - Wheels Of Life.flac

Track gain : -0.50 dB
Peak : 0.669434
CRC32 hash (test run) : 2F5649E6
CRC32 hash : 2F5649E6
CRC32 hash (skip zero) : 646621AD
AccurateRip v1 signature : 949A10DA
AccurateRip v2 signature : DB51A776
->Accurately ripped (v1+v2, confidence 2+3/20)
Statistics
Read error : 0
Jitter error (maybe fixed) : 0
Retry sector count : 0
Damaged sector count : 0

Track 08
Filename : /OdW/Gino Vannelli (1978) Brother To Brother (CD 3170)/08. Gino Vannelli - The Evil Eye.flac

Track gain : -2.19 dB
Peak : 0.766174
CRC32 hash (test run) : 9742E7DC
CRC32 hash : 9742E7DC
CRC32 hash (skip zero) : 7E026A77
AccurateRip v1 signature : C5D85CAA
AccurateRip v2 signature : 62AF2E01
->Accurately ripped (v1+v2, confidence 2+3/20)
Statistics
Read error : 0
Jitter error (maybe fixed) : 0
Retry sector count : 0
Damaged sector count : 0

Track 09
Filename : /OdW/Gino Vannelli (1978) Brother To Brother (CD 3170)/09. Gino Vannelli - People I Belong To.flac

Track gain : -1.17 dB
Peak : 0.696075
CRC32 hash (test run) : D90D4B56
CRC32 hash : D90D4B56
CRC32 hash (skip zero) : 80BE5BD9
AccurateRip v1 signature : DA12F376
AccurateRip v2 signature : 114B888E
->Accurately ripped (v1+v2, confidence 2+3/19)
Statistics
Read error : 0
Jitter error (maybe fixed) : 0
Retry sector count : 0
Damaged sector count : 0

No errors occurred

End of status report

––-BEGIN XLD SIGNATURE––-
WUWWdmQ5PCseNTZU8He7FTRoMAEnUP3lV0_yw7bS.Ugs.1jjjPhts9dn4321AeQjR3_6ceCr1yiiLschVPXyGUjYXyBF69nBpnDSAwy
––-END XLD SIGNATURE––-

[CUETools log; Date: 01.11.2017 19:16:14; Version: 2.1.4]
[CTDB TOCID: 83hXJZqq2d0SsYTdZx35jVP_F9k-] found.
Track | CTDB Status
1 | (23/23) Accurately ripped
2 | (23/23) Accurately ripped
3 | (23/23) Accurately ripped
4 | (23/23) Accurately ripped
5 | (23/23) Accurately ripped
6 | (23/23) Accurately ripped
7 | (23/23) Accurately ripped
8 | (23/23) Accurately ripped
9 | (23/23) Accurately ripped
[AccurateRip ID: 000ded78-00672e0e-7909a609] found.
Track [ CRC | V2 ] Status
01 [a37002f7|693759dc] (02+05/27) Accurately ripped
02 [48bdff43|1e78c4a0] (02+05/27) Accurately ripped
03 [f5e075e7|cb094ed6] (02+05/26) Accurately ripped
04 [aace09f9|e21c1e0b] (02+05/26) Accurately ripped
05 [7b6d03b1|7ca12acd] (02+05/26) Accurately ripped
06 [444c1446|347b53f9] (02+05/27) Accurately ripped
07 [949a10da|db51a776] (02+05/27) Accurately ripped
08 [c5d85caa|62af2e01] (02+05/27) Accurately ripped
09 [da12f376|114b888e] (02+05/25) Accurately ripped
Offsetted by 179:
01 [c07223c1] (11/27) Accurately ripped
02 [eecd98d5] (11/27) Accurately ripped
03 [0d019672] (10/26) Accurately ripped
04 [92af963c] (10/26) Accurately ripped
05 [ab2edbed] (10/26) Accurately ripped
06 [a8c9130f] (11/27) Accurately ripped
07 [12412a59] (11/27) Accurately ripped
08 [b4197ef0] (11/27) Accurately ripped
09 [0d6e5ceb] (10/25) Accurately ripped

Track Peak [ CRC32 ] [W/O NULL]
– 93,4 [B6893D05] [7A978298]
01 68,5 [FC890890] [A3635EE7]
02 62,2 [DB2C7F6B] [5CA1D4DF]
03 81,3 [8E3761AD] [5D9E3ECB]
04 93,4 [CDA0AA78] [C764587E]
05 85,5 [2AC808FD] [CD2FE2A1]
06 90,1 [7E90E667] [CC8881A0]
07 66,9 [2F5649E6] [646621AD]
08 76,6 [9742E7DC] [7E026A77]
09 69,6 [D90D4B56] [80BE5BD9]

foobar2000 1.2 / Dynamic Range Meter 1.1.1
log date: 2017-11-01 19:14:44

––––––––––––––––––––––––––––––––––––––––
Analyzed: Gino Vannelli / Brother To Brother (CD 3170)
––––––––––––––––––––––––––––––––––––––––

DR Peak RMS Duration Track
––––––––––––––––––––––––––––––––––––––––
DR10 -3.28 dB -15.05 dB 4:44 01-Appaloosa
DR10 -4.12 dB -16.03 dB 3:50 02-The River Must Flow
DR12 -1.79 dB -17.12 dB 3:38 03-I Just Wanna Stop
DR12 -0.59 dB -14.81 dB 3:50 04-Love And Emotion
DR13 -1.36 dB -16.39 dB 5:20 05-Feel Like Flying
DR13 -0.90 dB -17.14 dB 7:19 06-Brother To Brother
DR11 -3.49 dB -17.90 dB 4:15 07-Wheels Of Life
DR12 -2.31 dB -16.23 dB 4:13 08-The Evil Eye
DR11 -3.15 dB -17.76 dB 4:01 09-People I Belong To
––––––––––––––––––––––––––––––––––––––––

Number of tracks: 9
Official DR value: DR12

Samplerate: 44100 Hz
Channels: 2
Bits per sample: 16
Bitrate: 802 kbps
Codec: FLAC
================================================================================

Gino Vannelli - Albums Collection 1974-1987 (7CD) Non-Remastered Releases [Combined Re-Up]

Gino Vannelli - Albums Collection 1974-1987 (7CD) Non-Remastered Releases [Combined Re-Up]




Gino Vannelli - Albums Collection 1974-1987 (7CD) Non-Remastered Releases [Combined Re-Up]

Gino Vannelli - Nightwalker (1981)
EAC | XLD | Tracks (Cue&Log) ~ 253 Mb | Mp3 (CBR320) ~ 112 Mb | Scans included
Label: Arista | # ARCD 8186 | Time: 00:36:35

Gino Vannelli is one of the few artists to effortlessly navigate between pop and R&B. With the songs "Walking," "The Surest Things Can Change," and his 1978 classic "I Just Wanna Stop," Vannelli's work is always filled with both skill and passion. After six successful years at A&M he signed with Arista in 1981. Nightwalker is his label debut. During the three years between albums, not only did pop music come into vogue again, but he grew as a writer and singer. This album reflects the change. The dramatic title track has him singing overripe lyrics like "I can't live in this world without love, without you." The powerful "Put the Weight on My Shoulders" has him doing some good vocal riffs. Although most of his albums took a tumble when he decided to pick the pace, Nightwalker is actually better for its faster tracks. "Stay With Me" has him singing the horrible come on, "The only crime I see/is killing time with me." The searing guitars and Vannelli's sense of fun makes up for it. The album's biggest hit, "Living Inside Myself," with its haunting electric piano and Vannelli's phrasing, is compelling drama yet not overdone. The last track is another expert ballad. "Sally (She Says the Sweetest Things)" has a strong chorus that he nailed every time out. Nightwalker, co-produced by Vannelli and his brothers Joe Vannelli and Ross Vannelli, is one of his best and most accessible efforts.

Review by Jason Elias, Allmusic.com


Tracklist:

1. Nightwalker (5:08)
2. Seek And You Will Find (4:40)
3. Put The Weight On My Shoulders (4:46)
4. I Believe (4:11)
5. Santa Rosa (4:13)
6. Living Inside Myself (4:24)
7. Stay With Me (4:44)
8. Sally (She Says The Sweetest Things) (4:31)


X Lossless Decoder version 20131102 (145.0)

XLD extraction logfile from 2014-02-25 17:01:00 +0200

Gino Vannelli / Nightwalker (ARCD8186)

Used drive : HL-DT-ST DVDRW GSA-S10N (revision BP10)
Media type : Pressed CD

Ripper mode : XLD Secure Ripper
Disable audio cache : OK for the drive with a cache less than 1375KiB
Make use of C2 pointers : NO
Read offset correction : 667
Max retry count : 20
Gap status : Analyzed, Appended

TOC of the extracted CD
Track | Start | Length | Start sector | End sector
––––––––––––––––––––––––––––-
1 | 00:00:00 | 05:07:50 | 0 | 23074
2 | 05:07:50 | 04:40:25 | 23075 | 44099
3 | 09:48:00 | 04:45:47 | 44100 | 65521
4 | 14:33:47 | 04:10:65 | 65522 | 84336
5 | 18:44:37 | 04:12:38 | 84337 | 103274
6 | 22:57:00 | 04:23:55 | 103275 | 123054
7 | 27:20:55 | 04:43:65 | 123055 | 144344
8 | 32:04:45 | 04:30:55 | 144345 | 164649

AccurateRip Summary (DiscID: 000b7ae7-004bfc9d-6d089308)
Track 01 : OK (v1+v2, confidence 5/5)
Track 02 : OK (v1+v2, confidence 5/5)
Track 03 : OK (v1+v2, confidence 5/5)
Track 04 : OK (v1+v2, confidence 5/5)
Track 05 : OK (v1+v2, confidence 5/5)
Track 06 : OK (v1+v2, confidence 5/5)
Track 07 : OK (v1+v2, confidence 5/5)
Track 08 : OK (v1+v2, confidence 5/5)
->All tracks accurately ripped.

All Tracks
Album gain : -3.95 dB
Peak : 1.000000
Statistics
Read error : 0
Jitter error (maybe fixed) : 0
Retry sector count : 0
Damaged sector count : 0

Track 01
Filename : /OdW/Gino Vannelli (1981) Nightwalker (ARCD8186)/01. Gino Vannelli - Nightwalker.flac
Pre-gap length : 00:02:00

Track gain : -3.99 dB
Peak : 1.000000
CRC32 hash (test run) : 54339E8F
CRC32 hash : 54339E8F
CRC32 hash (skip zero) : C72DF56D
AccurateRip v1 signature : A7969B11
AccurateRip v2 signature : 4E3D5A2A
->Accurately ripped (v1+v2, confidence 2+3/5)
Statistics
Read error : 0
Jitter error (maybe fixed) : 0
Retry sector count : 0
Damaged sector count : 0

Track 02
Filename : /OdW/Gino Vannelli (1981) Nightwalker (ARCD8186)/02. Gino Vannelli - Seek And You Will Find.flac

Track gain : -3.17 dB
Peak : 1.000000
CRC32 hash (test run) : 9DC29A64
CRC32 hash : 9DC29A64
CRC32 hash (skip zero) : 084A0D8D
AccurateRip v1 signature : 400C928D
AccurateRip v2 signature : F6A99E9F
->Accurately ripped (v1+v2, confidence 2+3/5)
Statistics
Read error : 0
Jitter error (maybe fixed) : 0
Retry sector count : 0
Damaged sector count : 0

Track 03
Filename : /OdW/Gino Vannelli (1981) Nightwalker (ARCD8186)/03. Gino Vannelli - Put The Weight On My Shoulders.flac

Track gain : -3.67 dB
Peak : 0.999969
CRC32 hash (test run) : 2F9C95BE
CRC32 hash : 2F9C95BE
CRC32 hash (skip zero) : 0F95EB0B
AccurateRip v1 signature : B9B4CB60
AccurateRip v2 signature : BF442173
->Accurately ripped (v1+v2, confidence 2+3/5)
Statistics
Read error : 0
Jitter error (maybe fixed) : 0
Retry sector count : 0
Damaged sector count : 0

Track 04
Filename : /OdW/Gino Vannelli (1981) Nightwalker (ARCD8186)/04. Gino Vannelli - I Believe.flac

Track gain : -2.78 dB
Peak : 0.895355
CRC32 hash (test run) : 73787CFC
CRC32 hash : 73787CFC
CRC32 hash (skip zero) : A1514E1D
AccurateRip v1 signature : 1A29F670
AccurateRip v2 signature : 711C54E8
->Accurately ripped (v1+v2, confidence 2+3/5)
Statistics
Read error : 0
Jitter error (maybe fixed) : 0
Retry sector count : 0
Damaged sector count : 0

Track 05
Filename : /OdW/Gino Vannelli (1981) Nightwalker (ARCD8186)/05. Gino Vannelli - Santa Rosa.flac
Pre-gap length : 00:01:00

Track gain : -4.34 dB
Peak : 1.000000
CRC32 hash (test run) : 2F7C6D0A
CRC32 hash : 2F7C6D0A
CRC32 hash (skip zero) : 2E2B2A1B
AccurateRip v1 signature : F926FCFF
AccurateRip v2 signature : C15D17CE
->Accurately ripped (v1+v2, confidence 2+3/5)
Statistics
Read error : 0
Jitter error (maybe fixed) : 0
Retry sector count : 0
Damaged sector count : 0

Track 06
Filename : /OdW/Gino Vannelli (1981) Nightwalker (ARCD8186)/06. Gino Vannelli - Living Inside Myself.flac
Pre-gap length : 00:04:25

Track gain : -3.27 dB
Peak : 1.000000
CRC32 hash (test run) : 0D6F099E
CRC32 hash : 0D6F099E
CRC32 hash (skip zero) : 522ECFF4
AccurateRip v1 signature : D582AD41
AccurateRip v2 signature : 3F7EA883
->Accurately ripped (v1+v2, confidence 2+3/5)
Statistics
Read error : 0
Jitter error (maybe fixed) : 0
Retry sector count : 0
Damaged sector count : 0

Track 07
Filename : /OdW/Gino Vannelli (1981) Nightwalker (ARCD8186)/07. Gino Vannelli - Stay With Me.flac

Track gain : -5.48 dB
Peak : 1.000000
CRC32 hash (test run) : 639303D2
CRC32 hash : 639303D2
CRC32 hash (skip zero) : 1D0027FA
AccurateRip v1 signature : 8558AC93
AccurateRip v2 signature : 4ACB87D7
->Accurately ripped (v1+v2, confidence 2+3/5)
Statistics
Read error : 0
Jitter error (maybe fixed) : 0
Retry sector count : 0
Damaged sector count : 0

Track 08
Filename : /OdW/Gino Vannelli (1981) Nightwalker (ARCD8186)/08. Gino Vannelli - Sally (She Says The Sweetest Things).flac

Track gain : -1.79 dB
Peak : 1.000000
CRC32 hash (test run) : 0A6142F0
CRC32 hash : 0A6142F0
CRC32 hash (skip zero) : 48D524C5
AccurateRip v1 signature : 3894ECE2
AccurateRip v2 signature : B9AFD7C1
->Accurately ripped (v1+v2, confidence 2+3/5)
Statistics
Read error : 0
Jitter error (maybe fixed) : 0
Retry sector count : 0
Damaged sector count : 0

No errors occurred

End of status report

––-BEGIN XLD SIGNATURE––-
vc2WfUJ1MhVY8usdQImv1jwkqNSL7EK9TBLM5zQuhQ0DiARh3VjOzmuwDnmndOSYCAk_NSHNcFs8x7PbFi3879bMOG1Z7oNTkSdighO
––-END XLD SIGNATURE––-

[CUETools log; Date: 03.11.2017 4:08:46; Version: 2.1.4]
[CTDB TOCID: EEPs_Gz1vJhlp77ZAYihyAwZXtk-] found.
Track | CTDB Status
1 | (5/5) Accurately ripped
2 | (5/5) Accurately ripped
3 | (5/5) Accurately ripped
4 | (5/5) Accurately ripped
5 | (4/5) Accurately ripped
6 | (4/5) Accurately ripped
7 | (5/5) Accurately ripped
8 | (4/5) Accurately ripped
[AccurateRip ID: 000b7ae7-004bfc9d-6d089308] found.
Track [ CRC | V2 ] Status
01 [a7969b11|4e3d5a2a] (2+7/9) Accurately ripped
02 [400c928d|f6a99e9f] (2+7/9) Accurately ripped
03 [b9b4cb60|bf442173] (2+7/9) Accurately ripped
04 [1a29f670|711c54e8] (2+7/9) Accurately ripped
05 [f926fcff|c15d17ce] (2+6/8) Accurately ripped
06 [d582ad41|3f7ea883] (2+6/8) Accurately ripped
07 [8558ac93|4acb87d7] (2+6/8) Accurately ripped
08 [3894ece2|b9afd7c1] (2+6/8) Accurately ripped

Track Peak [ CRC32 ] [W/O NULL]
– 100,0 [5B8B5B1D] [506F4D94]
01 100,0 [54339E8F] [C72DF56D]
02 100,0 [9DC29A64] [084A0D8D]
03 100,0 [2F9C95BE] [0F95EB0B]
04 89,5 [73787CFC] [A1514E1D]
05 100,0 [2F7C6D0A] [2E2B2A1B]
06 100,0 [0D6F099E] [522ECFF4]
07 100,0 [639303D2] [1D0027FA]
08 100,0 [0A6142F0] [48D524C5]

foobar2000 1.2 / Dynamic Range Meter 1.1.1
log date: 2017-11-03 04:10:28

––––––––––––––––––––––––––––––––––––––––
Analyzed: Gino Vannelli / Nightwalker (ARCD8186)
––––––––––––––––––––––––––––––––––––––––

DR Peak RMS Duration Track
––––––––––––––––––––––––––––––––––––––––
DR12 0.00 dB -15.33 dB 5:08 01-Nightwalker
DR13 0.00 dB -14.89 dB 4:40 02-Seek And You Will Find
DR12 0.00 dB -15.79 dB 4:46 03-Put The Weight On My Shoulders
DR12 -0.96 dB -16.36 dB 4:11 04-I Believe
DR12 0.00 dB -14.02 dB 4:13 05-Santa Rosa
DR13 0.00 dB -15.78 dB 4:24 06-Living Inside Myself
DR11 0.00 dB -13.29 dB 4:44 07-Stay With Me
DR13 0.00 dB -17.89 dB 4:31 08-Sally (She Says The Sweetest Things)
––––––––––––––––––––––––––––––––––––––––

Number of tracks: 8
Official DR value: DR12

Samplerate: 44100 Hz
Channels: 2
Bits per sample: 16
Bitrate: 716 kbps
Codec: FLAC
================================================================================

Gino Vannelli - Albums Collection 1974-1987 (7CD) Non-Remastered Releases [Combined Re-Up]

Gino Vannelli - Albums Collection 1974-1987 (7CD) Non-Remastered Releases [Combined Re-Up]




Gino Vannelli - Albums Collection 1974-1987 (7CD) Non-Remastered Releases [Combined Re-Up]

Gino Vannelli - Big Dreamers Never Sleep (1987)
XLD | FLAC | Tracks (Cue&Log) ~ 260 Mb | Mp3 (CBR320) ~ 89 Mb | Scans ~ 145 Mb
Label: CBS Associated | # ZK 40337 | 00:39:10

Upon listening to Gino's 1985 release Black Cars it might've seemed that the man had lost a good portion of muse, emphasizing style to a greater degree over substance musically. It's important to know that the 1980's were a heavy, soul searching time for Mr.Vannelli and there were a lot of creative transitions along the way. This album represents that in many important ways. Produced and written in collaboration with his two brothers Ross and Joe,the latter of whom has been part of his music from the outset this album in many ways is the superior of the previous album in the way that Gino's vocals,whilst still obedient to the slicker 80's style vocals have more of their cutomary power and depth and the lyrical and melodic focus of the music is a good deal broader. One can see here that he is still fighting with the side of himself that desired popular musical success and his far reaching artistic bent with which we all became aquianted in the 70's.

The final cut on this album actually focuses on that element of his fame and does so in a more funky way than Gino has ever done his the latter end of the previous decade;"King For A Day" (not the Steely Dan song obviously) has a strong techno jazz/funk element to it with it's clever use of sequencers and a stronger use of the jazz/classical Stevie Wonder-like unexpected chord changes that Gino made his name with during the salad years of his career. "In The Name Of Money" begins the album on a similar if somewhat more subdued note whereas the chillier tone of "Down With Love" and especially "Shape Like A Man" have a strong period Sting flavor to them both musically and vocally. Of course being a singer/songwriter of great cunning and versatility Gino also throws a good dose of the unexpected into this album,notably with it's best known hit "Wild Horses",a compelling fusing of a country/rock and jazz-pop style that sounds something like Joe Zawinul and Bruce Springsteen re-recording "I'm On Fire" together,if one can imagine such a thing. There's also "Persona Non Grata",a pointed tale of modern immigration problems set to a finely honed latin funk/rock/salsa type rhythm.

Much as it's important to note this is Gino Vannelli's final,and as it would up third actual release,of the 80's decade it's also important to note that in the decade following this album Gino would swiftly turn his back on pop music entirely and embrace jazz and different foreign language projects. Yes it all seemed like the typical "artist-tries-to-find-himself-by-embracing-something-preceived-to-be-exotic" type of creative mission I suppose but even with his work in the 70's one could tell Gino was a tremendous musical talent who even then seemed to be using the minimum of his skills in that regard. And to think of someone which such an ability diving headlong into embracing 80's pop may seem more than a little silly it was actually an important part of Gino using the medium of the decades popular music style to rediscover his creative muse that may have started to erode at the beginning of the decade.

Review by Andre S. Grindle, Amazon.com


Gino Vannelli can usually be counted on to produce albums with excellent sound, tight musicianship, and most importantly, great pop songs. Unfortunately, the most important element is missing here. The songs aren't bad, but none seem to stick with listener after several plays. When Vannelli pulls it all together, it's magical; regrettably, there's no magic here.

Review by Tim Griggs, Allmusic.com


Tracklist:

1. In the Name of the Money (3:55)
2. Time Out (4:39)
3. Wild Horses (4:41)
4. Young Lover (3:23)
5. Down With Love (4:27)
6. Persona Non Grata (4:18)
7. Something Tells Me (4:24)
8. Shape Me Like a Man (4:52)
9. King for a Day (4:31)


X Lossless Decoder version 20131102 (145.0)

XLD extraction logfile from 2013-12-20 13:40:40 +0300

Gino Vannelli / Big Dreamers Never Sleep (ZK 40337)

Used drive : HL-DT-ST DVDRAM GE20NU11 (revision CN01)
Media type : Pressed CD

Ripper mode : XLD Secure Ripper
Disable audio cache : OK for the drive with a cache less than 1375KiB
Make use of C2 pointers : NO
Read offset correction : 667
Max retry count : 20
Gap status : Analyzed, Appended

TOC of the extracted CD
Track | Start | Length | Start sector | End sector
––––––––––––––––––––––––––––-
1 | 00:00:00 | 03:55:25 | 0 | 17649
2 | 03:55:25 | 04:38:60 | 17650 | 38559
3 | 08:34:10 | 04:40:47 | 38560 | 59606
4 | 13:14:57 | 03:22:68 | 59607 | 74824
5 | 16:37:50 | 04:26:55 | 74825 | 94829
6 | 21:04:30 | 04:18:00 | 94830 | 114179
7 | 25:22:30 | 04:24:00 | 114180 | 133979
8 | 29:46:30 | 04:52:22 | 133980 | 155901
9 | 34:38:52 | 04:30:68 | 155902 | 176219

List of alternate offset correction values
# | Absolute | Relative | Confidence
–––––––––––––––––––––
1 | 763 | 96 | 6

AccurateRip Summary (DiscID: 000d35da-00612ea4-88092d09)
Track 01 : OK (v1+v2, confidence 10/16)
Track 02 : OK (v1+v2, confidence 10/16)
Track 03 : OK (v1+v2, confidence 10/16)
Track 04 : OK (v1+v2, confidence 10/16)
Track 05 : OK (v1+v2, confidence 9/15)
Track 06 : OK (v1+v2, confidence 9/15)
Track 07 : OK (v1+v2, confidence 10/16)
Track 08 : OK (v1+v2, confidence 10/16)
Track 09 : OK (v1+v2, confidence 9/15)
->All tracks accurately ripped.

All Tracks
Album gain : -3.83 dB
Peak : 0.992279
Statistics
Read error : 0
Jitter error (maybe fixed) : 0
Retry sector count : 0
Damaged sector count : 0

Track 01
Filename : /OdW/Gino Vannelli (1987) Big Dreamers Never Sleep (ZK 40337)/01. Gino Vannelli - In the Name of the Money.flac
Pre-gap length : 00:02:00

Track gain : -4.83 dB
Peak : 0.932648
CRC32 hash (test run) : 48228170
CRC32 hash : 48228170
CRC32 hash (skip zero) : A6FE5523
AccurateRip v1 signature : 0BD5D4BF
AccurateRip v2 signature : 73888DAA
->Accurately ripped (v1+v2, confidence 6+4/16)
Statistics
Read error : 0
Jitter error (maybe fixed) : 0
Retry sector count : 0
Damaged sector count : 0

Track 02
Filename : /OdW/Gino Vannelli (1987) Big Dreamers Never Sleep (ZK 40337)/02. Gino Vannelli - Time Out.flac
Pre-gap length : 00:01:00

Track gain : -5.15 dB
Peak : 0.992279
CRC32 hash (test run) : 9804B95A
CRC32 hash : 9804B95A
CRC32 hash (skip zero) : 1D22FFB7
AccurateRip v1 signature : EDDC611A
AccurateRip v2 signature : 54D08ECD
->Accurately ripped (v1+v2, confidence 6+4/16)
Statistics
Read error : 0
Jitter error (maybe fixed) : 0
Retry sector count : 0
Damaged sector count : 0

Track 03
Filename : /OdW/Gino Vannelli (1987) Big Dreamers Never Sleep (ZK 40337)/03. Gino Vannelli - Wild Horses.flac
Pre-gap length : 00:03:30

Track gain : -3.92 dB
Peak : 0.871735
CRC32 hash (test run) : A40185E5
CRC32 hash : A40185E5
CRC32 hash (skip zero) : 3652C26F
AccurateRip v1 signature : 2FFFF3BC
AccurateRip v2 signature : 64CCA326
->Accurately ripped (v1+v2, confidence 6+4/16)
Statistics
Read error : 0
Jitter error (maybe fixed) : 0
Retry sector count : 0
Damaged sector count : 0

Track 04
Filename : /OdW/Gino Vannelli (1987) Big Dreamers Never Sleep (ZK 40337)/04. Gino Vannelli - Young Lover.flac
Pre-gap length : 00:02:42

Track gain : -4.59 dB
Peak : 0.891724
CRC32 hash (test run) : 583BE741
CRC32 hash : 583BE741
CRC32 hash (skip zero) : AC936049
AccurateRip v1 signature : D018931D
AccurateRip v2 signature : 1466CB2C
->Accurately ripped (v1+v2, confidence 6+4/16)
Statistics
Read error : 0
Jitter error (maybe fixed) : 0
Retry sector count : 0
Damaged sector count : 0

Track 05
Filename : /OdW/Gino Vannelli (1987) Big Dreamers Never Sleep (ZK 40337)/05. Gino Vannelli - Down With Love.flac
Pre-gap length : 00:01:15

Track gain : -1.86 dB
Peak : 0.954437
CRC32 hash (test run) : 15481A06
CRC32 hash : 15481A06
CRC32 hash (skip zero) : 2727EAF5
AccurateRip v1 signature : 010EAB38
AccurateRip v2 signature : 5CC17000
->Accurately ripped (v1+v2, confidence 6+3/15)
Statistics
Read error : 0
Jitter error (maybe fixed) : 0
Retry sector count : 0
Damaged sector count : 0

Track 06
Filename : /OdW/Gino Vannelli (1987) Big Dreamers Never Sleep (ZK 40337)/06. Gino Vannelli - Persona Non Grata.flac
Pre-gap length : 00:02:53

Track gain : -2.48 dB
Peak : 0.990906
CRC32 hash (test run) : 5DB1AD9A
CRC32 hash : 5DB1AD9A
CRC32 hash (skip zero) : 28BEB630
AccurateRip v1 signature : E31CEE1B
AccurateRip v2 signature : 1A060E65
->Accurately ripped (v1+v2, confidence 6+3/15)
Statistics
Read error : 0
Jitter error (maybe fixed) : 0
Retry sector count : 0
Damaged sector count : 0

Track 07
Filename : /OdW/Gino Vannelli (1987) Big Dreamers Never Sleep (ZK 40337)/07. Gino Vannelli - Something Tells Me.flac
Pre-gap length : 00:01:43

Track gain : -1.01 dB
Peak : 0.875946
CRC32 hash (test run) : 7D5BB4A7
CRC32 hash : 7D5BB4A7
CRC32 hash (skip zero) : B3A45CE8
AccurateRip v1 signature : DD6EC7B2
AccurateRip v2 signature : 71FC348A
->Accurately ripped (v1+v2, confidence 6+4/16)
Statistics
Read error : 0
Jitter error (maybe fixed) : 0
Retry sector count : 0
Damaged sector count : 0

Track 08
Filename : /OdW/Gino Vannelli (1987) Big Dreamers Never Sleep (ZK 40337)/08. Gino Vannelli - Shape Me Like a Man.flac
Pre-gap length : 00:03:35

Track gain : -2.46 dB
Peak : 0.964661
CRC32 hash (test run) : D00AAFEE
CRC32 hash : D00AAFEE
CRC32 hash (skip zero) : 0DC491A2
AccurateRip v1 signature : 354B551F
AccurateRip v2 signature : 609A2B45
->Accurately ripped (v1+v2, confidence 6+4/16)
Statistics
Read error : 0
Jitter error (maybe fixed) : 0
Retry sector count : 0
Damaged sector count : 0

Track 09
Filename : /OdW/Gino Vannelli (1987) Big Dreamers Never Sleep (ZK 40337)/09. Gino Vannelli - King for a Day.flac
Pre-gap length : 00:02:52

Track gain : -2.42 dB
Peak : 0.959961
CRC32 hash (test run) : A64E3041
CRC32 hash : A64E3041
CRC32 hash (skip zero) : 5125A6E4
AccurateRip v1 signature : EC93FBE1
AccurateRip v2 signature : 15E69CE4
->Accurately ripped (v1+v2, confidence 5+4/15)
Statistics
Read error : 0
Jitter error (maybe fixed) : 0
Retry sector count : 0
Damaged sector count : 0

No errors occurred

End of status report

––-BEGIN XLD SIGNATURE––-
APNG_C.P2prn76BsPERAgEzhVoAvaDlWk.BpaRcBHhlEieaFQ5ZMw050Z.no7y8OLeBrQDdjUOIPB3pn6g.ZijlpmOWqjB8OMWq4CDG
––-END XLD SIGNATURE––-

[CUETools log; Date: 09.10.2018 19:01:06; Version: 2.1.4]
[CTDB TOCID: OySXTSghuoMwDCcvr3HPSOQSgqU-] found.
Track | CTDB Status
1 | (16/16) Accurately ripped
2 | (16/16) Accurately ripped
3 | (16/16) Accurately ripped
4 | (16/16) Accurately ripped
5 | (16/16) Accurately ripped
6 | (16/16) Accurately ripped
7 | (16/16) Accurately ripped
8 | (16/16) Accurately ripped
9 | (16/16) Accurately ripped
[AccurateRip ID: 000d35da-00612ea4-88092d09] found.
Track [ CRC | V2 ] Status
01 [0bd5d4bf|73888daa] (06+05/21) Accurately ripped
02 [eddc611a|54d08ecd] (06+05/21) Accurately ripped
03 [2ffff3bc|64cca326] (06+05/21) Accurately ripped
04 [d018931d|1466cb2c] (06+05/21) Accurately ripped
05 [010eab38|5cc17000] (06+04/20) Accurately ripped
06 [e31cee1b|1a060e65] (06+04/20) Accurately ripped
07 [dd6ec7b2|71fc348a] (06+05/21) Accurately ripped
08 [354b551f|609a2b45] (06+05/21) Accurately ripped
09 [ec93fbe1|15e69ce4] (05+05/20) Accurately ripped
Offsetted by 96:
01 [a614a6ff] (02/21) Accurately ripped
02 [4e73e47a] (02/21) Accurately ripped
03 [32ed077c] (02/21) Accurately ripped
04 [98adfc3d] (02/21) Accurately ripped
05 [a2cf0178] (02/20) Accurately ripped
06 [a3bb4a7b] (02/20) Accurately ripped
07 [8d6d0a32] (02/21) Accurately ripped
08 [eb0a89bf] (02/21) Accurately ripped
09 [597aacf1] (02/20) Accurately ripped

Track Peak [ CRC32 ] [W/O NULL]
– 99,2 [550E60A8] [D93A91CB]
01 93,2 [48228170] [A6FE5523]
02 99,2 [9804B95A] [1D22FFB7]
03 87,1 [A40185E5] [3652C26F]
04 89,1 [583BE741] [AC936049]
05 95,4 [15481A06] [2727EAF5]
06 99,0 [5DB1AD9A] [28BEB630]
07 87,5 [7D5BB4A7] [B3A45CE8]
08 96,4 [D00AAFEE] [0DC491A2]
09 95,9 [A64E3041] [5125A6E4]

foobar2000 1.2 / Dynamic Range Meter 1.1.1
log date: 2018-10-09 18:57:54

––––––––––––––––––––––––––––––––––––––––
Analyzed: Gino Vannelli / Big Dreamers Never Sleep (ZK 40337)
––––––––––––––––––––––––––––––––––––––––

DR Peak RMS Duration Track
––––––––––––––––––––––––––––––––––––––––
DR10 -0.61 dB -13.80 dB 3:55 01-In the Name of the Money
DR11 -0.07 dB -13.66 dB 4:39 02-Time Out
DR10 -1.19 dB -13.66 dB 4:41 03-Wild Horses
DR10 -1.00 dB -14.50 dB 3:23 04-Young Lover
DR14 -0.41 dB -17.35 dB 4:27 05-Down With Love
DR14 -0.08 dB -16.34 dB 4:18 06-Persona Non Grata
DR13 -1.15 dB -17.12 dB 4:24 07-Something Tells Me
DR13 -0.31 dB -16.05 dB 4:52 08-Shape Me Like a Man
DR13 -0.35 dB -16.52 dB 4:31 09-King for a Day
––––––––––––––––––––––––––––––––––––––––

Number of tracks: 9
Official DR value: DR12

Samplerate: 44100 Hz
Channels: 2
Bits per sample: 16
Bitrate: 991 kbps
Codec: FLAC
================================================================================

Gino Vannelli - Albums Collection 1974-1987 (7CD) Non-Remastered Releases [Combined Re-Up]

Gino Vannelli - Albums Collection 1974-1987 (7CD) Non-Remastered Releases [Combined Re-Up]




All thanks to original releaser - Olaf der Weisse

More interesting music in My Blog