Tags
Language
Tags

Gipsy Kings - Estrellas (1995)

Posted By: v3122
Gipsy Kings - Estrellas (1995)

Gipsy Kings - Estrellas (1995)
EAC | Flac(Image) + Cue + Log & MP3 CBR 320Kbps
Sony / Columbia / P. E. M., 481345 2 | ~ 330 or 119 Mb | Artwork(jpg) -> 62 Mb
Flamenco, Flamenco Rumba

Estrellas is the seventh studio album by the Gipsy Kings released in 1995 in Europe and a year later in the United States, under the title Tierra Gitana.

The present album was later released as Tierra Gitana for the American audience, albeit with a different song order. The only differences are the replacement of the song "Los Peces en el Rio" for the instrumental song "Forever"; the song "Mujer" is also slightly different. Also, "A Tu Vera" is a different version than the one that appeared on The Best of the Gipsy Kings…

~ wiki
Gipsy Kings - Estrellas (1995):

Gipsy Kings - Estrellas (1995)

Tracklist:

01. La rumba de Nicolás [0:03:58.30]
02. A ti a ti [0:03:46.30]
03. Siempre acaba tu vida [0:04:58.37]
04. Forever (instrumental) [0:03:53.65]
05. Mujer [0:04:17.15]
06. Campesino [0:03:32.30]
07. Cataluña (instrumental) [0:03:44.10]
08. Igual se entonces [0:04:01.45]
09. Pajarito [0:03:07.68]
10. Tierra gitana (instrumental) [0:03:29.27]
11. A Tu a Vera [0:03:12.43]
12. Mi corazón [0:04:30.57]
13. Estrellas (instrumental) [0:03:32.53]

Exact Audio Copy V1.3 from 2. September 2016

EAC extraction logfile from 13. June 2020, 23:30

Gipsy Kings / Estrellas (481345 2)

Used drive : HL-DT-STDVDRAM GE20NU11 Adapter: 1 ID: 0

Read mode : Secure
Utilize accurate stream : Yes
Defeat audio cache : Yes
Make use of C2 pointers : No

Read offset correction : 667
Overread into Lead-In and Lead-Out : No
Fill up missing offset samples with silence : Yes
Delete leading and trailing silent blocks : No
Null samples used in CRC calculations : Yes
Used interface : Native Win32 interface for Win NT & 2000

Used output format : User Defined Encoder
Selected bitrate : 896 kBit/s
Quality : High
Add ID3 tag : No
Command line compressor : C:\Program Files\Exact Audio Copy\Flac\flac.exe
Additional command line options : -V -8 -T "Date=%year%" -T "Genre=%genre%" %source%


TOC of the extracted CD

Track | Start | Length | Start sector | End sector
––––––––––––––––––––––––––––-
1 | 0:00.00 | 3:58.30 | 0 | 17879
2 | 3:58.30 | 3:46.30 | 17880 | 34859
3 | 7:44.60 | 4:58.37 | 34860 | 57246
4 | 12:43.22 | 3:53.65 | 57247 | 74786
5 | 16:37.12 | 4:17.15 | 74787 | 94076
6 | 20:54.27 | 3:32.30 | 94077 | 110006
7 | 24:26.57 | 3:44.10 | 110007 | 126816
8 | 28:10.67 | 4:01.45 | 126817 | 144936
9 | 32:12.37 | 3:07.68 | 144937 | 159029
10 | 35:20.30 | 3:29.27 | 159030 | 174731
11 | 38:49.57 | 3:12.43 | 174732 | 189174
12 | 42:02.25 | 4:30.57 | 189175 | 209481
13 | 46:33.07 | 3:32.53 | 209482 | 225434


Range status and errors

Selected range

Filename Z:\OdW\Gipsy Kings - 1995 - Estrellas (481345 2)\Gipsy Kings - Estrellas (481345 2).wav

Peak level 98.5 %
Extraction speed 4.5 X
Range quality 99.9 %
Test CRC 1B214584
Copy CRC 1B214584
Copy OK

No errors occurred


AccurateRip summary

Track 1 accurately ripped (confidence 40) [6925231A] (AR v2)
Track 2 accurately ripped (confidence 40) [A58FBCB3] (AR v2)
Track 3 accurately ripped (confidence 39) [83F6B6E6] (AR v2)
Track 4 accurately ripped (confidence 39) [4D778242] (AR v2)
Track 5 accurately ripped (confidence 39) [9AE9A365] (AR v2)
Track 6 accurately ripped (confidence 40) [8435FF7F] (AR v2)
Track 7 accurately ripped (confidence 39) [53D0BC4E] (AR v2)
Track 8 accurately ripped (confidence 39) [F871E876] (AR v2)
Track 9 accurately ripped (confidence 39) [FC5D6BDB] (AR v2)
Track 10 accurately ripped (confidence 39) [101BBE63] (AR v2)
Track 11 accurately ripped (confidence 39) [4F5B5081] (AR v2)
Track 12 accurately ripped (confidence 39) [5A6914EB] (AR v2)
Track 13 accurately ripped (confidence 39) [A8D80595] (AR v2)

All tracks accurately ripped

End of status report

–– CUETools DB Plugin V2.1.6

[CTDB TOCID: d6M6Fv5.Mp2o5Mq0StpMKtsveo0-] found
Submit result: d6M6Fv5.Mp2o5Mq0StpMKtsveo0- has been confirmed
Track | CTDB Status
1 | (189/191) Accurately ripped
2 | (189/191) Accurately ripped
3 | (188/191) Accurately ripped
4 | (188/191) Accurately ripped
5 | (188/191) Accurately ripped
6 | (189/191) Accurately ripped
7 | (189/191) Accurately ripped
8 | (188/191) Accurately ripped
9 | (187/191) Accurately ripped
10 | (188/191) Accurately ripped
11 | (187/191) Accurately ripped
12 | (189/191) Accurately ripped
13 | (186/191) Accurately ripped


==== Log checksum A968355BD0339D1AD1E72F36895A0ECD2BFB0785F4DCE093BD05D2B017E160D2 ====


[CUETools log; Date: 13.06.2020 23:58:36; Version: 2.1.5]
[CTDB TOCID: d6M6Fv5.Mp2o5Mq0StpMKtsveo0-] found.
Track | CTDB Status
1 | (190/192) Accurately ripped
2 | (190/192) Accurately ripped
3 | (189/192) Accurately ripped
4 | (189/192) Accurately ripped
5 | (189/192) Accurately ripped
6 | (190/192) Accurately ripped
7 | (190/192) Accurately ripped
8 | (189/192) Accurately ripped
9 | (188/192) Accurately ripped
10 | (189/192) Accurately ripped
11 | (188/192) Accurately ripped
12 | (190/192) Accurately ripped
13 | (187/192) Accurately ripped
[AccurateRip ID: 0018b222-00f508b8-bd0bbd0d] found.
Track [ CRC | V2 ] Status
01 [a160bb79|6925231a] (19+40/96) Accurately ripped
02 [93c0df85|a58fbcb3] (19+40/95) Accurately ripped
03 [5a99a842|83f6b6e6] (19+39/93) Accurately ripped
04 [e2a84395|4d778242] (19+39/93) Accurately ripped
05 [2fabc82e|9ae9a365] (19+39/93) Accurately ripped
06 [1fcb5d53|8435ff7f] (19+40/95) Accurately ripped
07 [379eb325|53d0bc4e] (19+39/94) Accurately ripped
08 [47ed3431|f871e876] (19+39/94) Accurately ripped
09 [a162f2a1|fc5d6bdb] (19+39/94) Accurately ripped
10 [53d28b01|101bbe63] (19+39/94) Accurately ripped
11 [70a2ec67|4f5b5081] (19+39/94) Accurately ripped
12 [41bfad6b|5a6914eb] (19+39/94) Accurately ripped
13 [ff9632bd|a8d80595] (19+39/94) Accurately ripped
Offsetted by -894:
01 [f003ad14] (02/96) Accurately ripped
02 [d93540d3] (02/95) Accurately ripped
03 [d48bfea4] (02/93) Accurately ripped
04 [29c5ac25] (02/93) Accurately ripped
05 [c8377679] (02/93) Accurately ripped
06 [b854d903] (02/95) Accurately ripped
07 [d47810bd] (02/94) Accurately ripped
08 [1c9faf32] (02/94) Accurately ripped
09 [594bb5ff] (02/94) Accurately ripped
10 [729e1650] (02/94) Accurately ripped
11 [d5ad7300] (02/94) Accurately ripped
12 [d6e9b760] (02/94) Accurately ripped
13 [44897452] (02/94) Accurately ripped
Offsetted by -865:
01 [000f41ce] (02/96) Accurately ripped
02 [88a23b76] (02/95) Accurately ripped
03 [4e179803] (02/93) Accurately ripped
04 [75168de5] (02/93) Accurately ripped
05 [6e1c5ca8] (02/93) Accurately ripped
06 [65596174] (02/95) Accurately ripped
07 [beee4adf] (02/94) Accurately ripped
08 [dd026e4a] (02/94) Accurately ripped
09 [df330091] (02/94) Accurately ripped
10 [de5efda6] (02/94) Accurately ripped
11 [2b9d3d8a] (02/94) Accurately ripped
12 [f20546cf] (02/94) Accurately ripped
13 [276570a2] (02/94) Accurately ripped
Offsetted by -504:
01 [ce79a3e5] (03/96) Accurately ripped
02 [cad938bd] (03/95) Accurately ripped
03 [94464dca] (03/93) Accurately ripped
04 [4f7945d5] (03/93) Accurately ripped
05 [d87b83de] (03/93) Accurately ripped
06 [0f1eeb9b] (03/95) Accurately ripped
07 [e357b9e5] (03/94) Accurately ripped
08 [af1265c9] (03/94) Accurately ripped
09 [c841f40d] (03/94) Accurately ripped
10 [ae955249] (03/94) Accurately ripped
11 [ac8fdcbf] (03/94) Accurately ripped
12 [393f534b] (03/94) Accurately ripped
13 [9145f705] (03/94) Accurately ripped
Offsetted by -1529:
01 [634ce5ca] (00/96) No match (V2 was not tested)
02 [109b844e] (00/95) No match (V2 was not tested)
03 [10b9a6eb] (00/93) No match (V2 was not tested)
04 [55b82325] (00/93) No match (V2 was not tested)
05 [12ffa79c] (00/93) No match (V2 was not tested)
06 [985c8aa4] (00/95) No match (V2 was not tested)
07 [14b356ff] (00/94) No match (V2 was not tested)
08 [be26b216] (00/94) No match (V2 was not tested)
09 [c79f0001] (00/94) No match (V2 was not tested)
10 [2ae494da] (00/94) No match (V2 was not tested)
11 [26d6e576] (00/94) No match (V2 was not tested)
12 [562b60bb] (00/94) No match (V2 was not tested)
13 [e001adbe] (00/94) No match (V2 was not tested)

Track Peak [ CRC32 ] [W/O NULL] [ LOG ]
– 98,5 [1B214584] [875CE8FC] CRC32
01 97,0 [0D7C0850] [318C32FC]
02 97,7 [400A26B8] [A6A71519]
03 97,6 [1F8ED2CF] [3C6F9262]
04 96,2 [5CAD3972] [C5F13D3E]
05 97,4 [D31452A0] [DE2E3C38]
06 96,4 [3236EAEA] [22B17664]
07 96,8 [F1BA5F2B] [9F93989F]
08 97,3 [972468F7] [6AC7640C]
09 97,7 [97F5CD51] [6B313A95]
10 96,7 [EF4C7770] [5F1FCE6F]
11 97,0 [B8F9DAD1] [BF1C4429]
12 98,5 [11ACA7F6] [1F28965B]
13 96,5 [647BF219] [588C97B0]


Gipsy Kings - Estrellas (1995)

All thanks go to Olaf der Weisse

Download Gipsy Kings - Estrellas (1995):