Tags
Language
Tags

Glen Velez - Assyrian Rose (1989) {CMP}

Posted By: tiburon
Glen Velez - Assyrian Rose (1989) {CMP}

Glen Velez - Assyrian Rose (1989) {CMP}
EAC 1.0b6 | FLAC tracks level 8 | Cue+Log+M3U | Full Scans 300dpi | 260MB + 5% Recovery
MP3 CBR 320 Kbps | 128MB + 5% Recovery
Genre: Ethnic Fusion

Assyrian Rose continues the style he developed on his earlier CMP release Seven Heaven, with Layne Redmond helping out on various frame drums and Steve Gorn playing bansuri and South American flutes. They are joined by Jon Clark on French horn and Howard Levy on harmonica and piano, adding a greater melodic range to the music. Glen plays his usual variety of frame drums (from Spain and Morocco), Egyptian tambourine and various other percussion instruments. The result is a cross-cultural potpourri of earth-jazz stylings, with Glen's pulsating rhythms leading. The album ends with a solo on one of Glen's tambourines, revealing his mastery of this instrument that plays such a central role in Arabic music.
Track List
01. Blue Castle (Glen Velez) 8:08
02. Offering to Anubis (Glen Velez/Steve Gorn) 2:25
03. Assyrian Rose (Glen Velez) 7:13
04. Drala (Glen Velez/Steve Gorn) 9:15
05. Amazonas (Glen Velez/Steve Gorn) 9:25
06. Wren Chant (Glen Velez) 5:29
07. Silver Lining (Glen Velez) 4:26

musicians
Glen Velez: pandero (Spanish frame drum), gaval, wood drum, Venezuelan maracas, steel drum, riq (Egyptian tambourine), bendir (Morrocan frame drum), tamborim, Chinese opera gong & voice
Layne Redmond: gaval, Japanese frame drum, Lefima bodhran & voice
Steve Gorn: bansuri bamboo flutes & South American flutes
John Clark: french horn
Howard Levy: harmonica & piano

Produced by Kurt Renker & Walter Quintus


Exact Audio Copy V1.0 beta 6 from 9. April 2015

EAC extraction logfile from 27. August 2015, 12:27

Glen Velez / Assyrian Rose

Used drive : ASUS CRW-5232AS Adapter: 1 ID: 0

Read mode : Secure
Utilize accurate stream : Yes
Defeat audio cache : Yes
Make use of C2 pointers : No

Read offset correction : 6
Overread into Lead-In and Lead-Out : No
Fill up missing offset samples with silence : Yes
Delete leading and trailing silent blocks : No
Null samples used in CRC calculations : Yes
Used interface : Native Win32 interface for Win NT & 2000
Gap handling : Appended to previous track

Used output format : User Defined Encoder
Selected bitrate : 1024 kBit/s
Quality : High
Add ID3 tag : No
Command line compressor : C:\Program Files\Exact Audio Copy\Flac\flac.exe
Additional command line options : -V -8 -T "Genre=%genre%" -T "Artist=%artist%" -T "Title=%title%" -T "Album=%albumtitle%" -T "Date=%year%" -T "Tracknumber=%tracknr%" -T "Comment=%comment%" %source%


TOC of the extracted CD

Track | Start | Length | Start sector | End sector
––––––––––––––––––––––––––––-
1 | 0:00.33 | 8:09.40 | 33 | 36747
2 | 8:09.73 | 2:26.42 | 36748 | 47739
3 | 10:36.40 | 7:13.43 | 47740 | 80257
4 | 17:50.08 | 9:14.45 | 80258 | 121852
5 | 27:04.53 | 9:25.12 | 121853 | 164239
6 | 36:29.65 | 5:29.55 | 164240 | 188969
7 | 41:59.45 | 4:30.38 | 188970 | 209257


Track 1

Filename E:\bcdr\01. Glen Velez – Blue Castle.wav

Pre-gap length 0:00:02.44

Peak level 97.7 %
Extraction speed 2.3 X
Track quality 100.0 %
Test CRC F6C7E368
Copy CRC F6C7E368
Accurately ripped (confidence 6) [28CFD19D] (AR v2)
Copy OK

Track 2

Filename E:\bcdr\02. Glen Velez – Offering to anubis.wav

Pre-gap length 0:00:02.80

Peak level 95.5 %
Extraction speed 2.0 X
Track quality 100.0 %
Test CRC 7D20359E
Copy CRC 7D20359E
Accurately ripped (confidence 6) [8E5393E1] (AR v2)
Copy OK

Track 3

Filename E:\bcdr\03. Glen Velez – Assyrian rose.wav

Pre-gap length 0:00:01.53

Peak level 97.7 %
Extraction speed 2.1 X
Track quality 99.9 %
Test CRC 3CAA74D8
Copy CRC 3CAA74D8
Accurately ripped (confidence 6) [50707F15] (AR v2)
Copy OK

Track 4

Filename E:\bcdr\04. Glen Velez – Drala.wav

Pre-gap length 0:00:00.73

Peak level 95.5 %
Extraction speed 2.3 X
Track quality 100.0 %
Test CRC 791AF096
Copy CRC 791AF096
Accurately ripped (confidence 6) [CAC18D93] (AR v2)
Copy OK

Track 5

Filename E:\bcdr\05. Glen Velez – Amazonas.wav

Pre-gap length 0:00:00.84

Peak level 95.5 %
Extraction speed 2.3 X
Track quality 100.0 %
Test CRC 314566A2
Copy CRC 314566A2
Accurately ripped (confidence 6) [302F1824] (AR v2)
Copy OK

Track 6

Filename E:\bcdr\06. Glen Velez – Wren chant.wav

Pre-gap length 0:00:02.09

Peak level 97.7 %
Extraction speed 2.2 X
Track quality 100.0 %
Test CRC 9C77AC1D
Copy CRC 9C77AC1D
Accurately ripped (confidence 6) [4B5D6788] (AR v2)
Copy OK

Track 7

Filename E:\bcdr\07. Glen Velez – Silver lining.wav

Pre-gap length 0:00:01.09

Peak level 95.5 %
Extraction speed 2.1 X
Track quality 100.0 %
Test CRC 25737542
Copy CRC 25737542
Accurately ripped (confidence 6) [E0EBC6AF] (AR v2)
Copy OK


All tracks accurately ripped

No errors occurred

End of status report

–– CUETools DB Plugin V2.1.6

[CTDB TOCID: 9vodNnQ07h7iRyPR3OYarDPujas-] found
Submit result: 9vodNnQ07h7iRyPR3OYarDPujas- has been uploaded
Track | CTDB Status
1 | (1/1) Accurately ripped
2 | (1/1) Accurately ripped
3 | (1/1) Accurately ripped
4 | (1/1) Accurately ripped
5 | (1/1) Accurately ripped
6 | (1/1) Accurately ripped
7 | (1/1) Accurately ripped


==== Log checksum 5529F20D7A41E816A363D907B6E0706E1EB3C701C1FD01F5F7FFE09242D97E65 ====

Glen Velez - Assyrian Rose (1989) {CMP}
Glen Velez - Assyrian Rose (1989) {CMP}


Thanks to the original ripper