Tags
Language
Tags
July 2024
Su Mo Tu We Th Fr Sa
30 1 2 3 4 5 6
7 8 9 10 11 12 13
14 15 16 17 18 19 20
21 22 23 24 25 26 27
28 29 30 31 1 2 3

Gloria Gaynor - The Collection (1996) {1998, Reissue}

Posted By: popsakov
Gloria Gaynor - The Collection (1996) {1998, Reissue}

Gloria Gaynor - The Collection (1996) {1998, Reissue}
EAC Rip | FLAC (Img) + Cue + Log ~ 585 Mb | MP3 CBR320 ~ 227 Mb
Full Scans | 01:16:39 | RAR 5% Recovery
Disco, R&B, Funk, Soul | Spectrum Music #551 839-2

A collection of 18 of Gloria's hits including 'I Will Survive' and more…

***************

Track List:

01. I Will Survive [0:07:59.20]
02. Reach Out I'll Be There [0:03:07.67]
03. How High The Moon [0:03:09.33]
04. Let Me Know (I Have A Right) [0:03:16.17]
05. All I Need Is Your Sweet Lovin' [0:02:47.73]
06. Don't Stop Us [0:04:03.20]
07. Substitute [0:03:12.35]
08. Goin' Out Of My Head [0:05:33.15]
09. Anybody Wanna Party? [0:05:16.07]
10. (If You Want It) Do It Yourself [0:05:59.33]
11. Can't Fight The Feelin' [0:04:28.15]
12. One Number One [0:03:52.00]
13. I've Got You Under My Skin [0:03:48.52]
14. Tonight [0:03:33.38]
15. Honey Bee [0:02:56.02]
16. This Love Affair [0:02:41.40]
17. We Can Start All Over Again [0:05:10.48]
18. Walk On By [0:05:44.02]

Exact Audio Copy V1.1 from 23. June 2015

EAC extraction logfile from 28. May 2016, 23:29

Gloria Gaynor / The Collection

Used drive : ATAPI iHAS124 D Adapter: 0 ID: 2

Read mode : Secure
Utilize accurate stream : Yes
Defeat audio cache : Yes
Make use of C2 pointers : No

Read offset correction : 6
Overread into Lead-In and Lead-Out : No
Fill up missing offset samples with silence : Yes
Delete leading and trailing silent blocks : No
Null samples used in CRC calculations : Yes
Used interface : Installed external ASPI interface

Used output format : User Defined Encoder
Selected bitrate : 1024 kBit/s
Quality : High
Add ID3 tag : Yes
Command line compressor : C:\Program Files (x86)\Exact Audio Copy\Flac\flac.exe
Additional command line options : -6 -V -T "ARTIST=%artist%" -T "TITLE=%title%" -T "ALBUM=%albumtitle%" -T "DATE=%year%" -T "TRACKNUMBER=%tracknr%" -T "GENRE=%genre%" -T "COMMENT=%comment%" -T "BAND=%albuminterpret%" -T "COMPOSER=%composer%" %haslyrics%–tag-from-file=LYRICS="%lyricsfile%"%haslyrics% -T "DISCNUMBER=%cdnumber%" -T "TOTALDISCS=%totalcds%" -T "TOTALTRACKS=%numtracks%" %hascover%–picture="%coverfile%"%hascover% %source% -o %dest%


TOC of the extracted CD

Track | Start | Length | Start sector | End sector
––––––––––––––––––––––––––––-
1 | 0:00.00 | 7:59.20 | 0 | 35944
2 | 7:59.20 | 3:07.67 | 35945 | 50036
3 | 11:07.12 | 3:09.33 | 50037 | 64244
4 | 14:16.45 | 3:16.17 | 64245 | 78961
5 | 17:32.62 | 2:47.73 | 78962 | 91559
6 | 20:20.60 | 4:03.20 | 91560 | 109804
7 | 24:24.05 | 3:12.35 | 109805 | 124239
8 | 27:36.40 | 5:33.15 | 124240 | 149229
9 | 33:09.55 | 5:16.07 | 149230 | 172936
10 | 38:25.62 | 5:59.33 | 172937 | 199894
11 | 44:25.20 | 4:28.15 | 199895 | 220009
12 | 48:53.35 | 3:52.00 | 220010 | 237409
13 | 52:45.35 | 3:48.52 | 237410 | 254561
14 | 56:34.12 | 3:33.38 | 254562 | 270574
15 | 60:07.50 | 2:56.02 | 270575 | 283776
16 | 63:03.52 | 2:41.40 | 283777 | 295891
17 | 65:45.17 | 5:10.48 | 295892 | 319189
18 | 70:55.65 | 5:44.02 | 319190 | 344991


Range status and errors

Selected range

Filename C:\mm\Gloria Gaynor\1996 - The Collection [551 839-2]\Gloria Gaynor - The Collection.wav

Peak level 100.0 %
Extraction speed 9.8 X
Range quality 99.9 %
Test CRC 496F3440
Copy CRC 496F3440
Copy OK

No errors occurred


AccurateRip summary

Track 1 cannot be verified as accurate (confidence 7) [5116739A], AccurateRip returned [6CDE2FC8] (AR v2)
Track 2 cannot be verified as accurate (confidence 7) [51AA2E50], AccurateRip returned [295891A4] (AR v2)
Track 3 cannot be verified as accurate (confidence 7) [229CA326], AccurateRip returned [EA3A7A12] (AR v2)
Track 4 cannot be verified as accurate (confidence 7) [23348DFD], AccurateRip returned [78CA2F05] (AR v2)
Track 5 cannot be verified as accurate (confidence 7) [ECC3A289], AccurateRip returned [2D1D2EE0] (AR v2)
Track 6 cannot be verified as accurate (confidence 7) [11EC3512], AccurateRip returned [F9B1E182] (AR v2)
Track 7 cannot be verified as accurate (confidence 7) [8AB78423], AccurateRip returned [CA22D0BB] (AR v2)
Track 8 cannot be verified as accurate (confidence 7) [A742DCBE], AccurateRip returned [2E7D5D5D] (AR v2)
Track 9 cannot be verified as accurate (confidence 7) [8966BB48], AccurateRip returned [9B94A597] (AR v2)
Track 10 cannot be verified as accurate (confidence 7) [F39F6C4C], AccurateRip returned [2F33C1A4] (AR v2)
Track 11 cannot be verified as accurate (confidence 7) [4F96B33A], AccurateRip returned [898CBB30] (AR v2)
Track 12 cannot be verified as accurate (confidence 7) [9C3EEE74], AccurateRip returned [9700C0ED] (AR v2)
Track 13 cannot be verified as accurate (confidence 7) [607F9C05], AccurateRip returned [06112C41] (AR v2)
Track 14 cannot be verified as accurate (confidence 7) [3C2CDBFE], AccurateRip returned [1718F1B5] (AR v2)
Track 15 cannot be verified as accurate (confidence 7) [68F42D59], AccurateRip returned [53549993] (AR v2)
Track 16 cannot be verified as accurate (confidence 7) [B30AC62A], AccurateRip returned [88616692] (AR v2)
Track 17 cannot be verified as accurate (confidence 7) [56AC95C7], AccurateRip returned [ABF299B0] (AR v2)
Track 18 cannot be verified as accurate (confidence 7) [BDC69BF6], AccurateRip returned [326D7BA0] (AR v2)

No tracks could be verified as accurate
You may have a different pressing from the one(s) in the database

End of status report

–– CUETools DB Plugin V2.1.6

[CTDB TOCID: iBN60Cv_oqQEBd3W9PtkPUYbu20-] found
Submit result: iBN60Cv_oqQEBd3W9PtkPUYbu20- has been confirmed
Track | CTDB Status
1 | (29/31) Accurately ripped
2 | (31/31) Accurately ripped
3 | (31/31) Accurately ripped
4 | (31/31) Accurately ripped
5 | (31/31) Accurately ripped
6 | (31/31) Accurately ripped
7 | (31/31) Accurately ripped
8 | (31/31) Accurately ripped
9 | (31/31) Accurately ripped
10 | (30/31) Accurately ripped
11 | (29/31) Accurately ripped
12 | (31/31) Accurately ripped
13 | (31/31) Accurately ripped
14 | (31/31) Accurately ripped
15 | (31/31) Accurately ripped
16 | (31/31) Accurately ripped
17 | (30/31) Accurately ripped
18 | (30/31) Accurately ripped

[CUETools log; Date: 26.07.2016 0:23:14; Version: 2.1.5]
[CTDB TOCID: iBN60Cv_oqQEBd3W9PtkPUYbu20-] found.
Track | CTDB Status
1 | (33/35) Accurately ripped
2 | (35/35) Accurately ripped
3 | (35/35) Accurately ripped
4 | (35/35) Accurately ripped
5 | (35/35) Accurately ripped
6 | (35/35) Accurately ripped
7 | (35/35) Accurately ripped
8 | (35/35) Accurately ripped
9 | (35/35) Accurately ripped
10 | (34/35) Accurately ripped
11 | (33/35) Accurately ripped
12 | (35/35) Accurately ripped
13 | (35/35) Accurately ripped
14 | (35/35) Accurately ripped
15 | (35/35) Accurately ripped
16 | (35/35) Accurately ripped
17 | (34/35) Accurately ripped
18 | (34/35) Accurately ripped
[AccurateRip ID: 00326760-029a747f-3011f712] found.
Track [ CRC | V2 ] Status
01 [0a6bb028|5116739a] (00+02/23) Accurately ripped
02 [92bc4944|51aa2e50] (00+02/25) Accurately ripped
03 [a5eacbaa|229ca326] (00+02/25) Accurately ripped
04 [8dfdb5a5|23348dfd] (00+02/23) Accurately ripped
05 [6cc79c18|ecc3a289] (00+02/23) Accurately ripped
06 [e4cc1dd2|11ec3512] (00+02/23) Accurately ripped
07 [1c7ef743|8ab78423] (00+02/23) Accurately ripped
08 [deabe46d|a742dcbe] (00+02/23) Accurately ripped
09 [fa8f02e7|8966bb48] (00+02/23) Accurately ripped
10 [0f3582d4|f39f6c4c] (00+02/23) Accurately ripped
11 [a37d6ea0|4f96b33a] (00+02/23) Accurately ripped
12 [40f7a055|9c3eee74] (00+02/22) Accurately ripped
13 [bcf8cd71|607f9c05] (00+02/23) Accurately ripped
14 [0960bb1d|3c2cdbfe] (00+02/23) Accurately ripped
15 [60bf32f3|68f42d59] (00+02/23) Accurately ripped
16 [d948618a|b30ac62a] (00+02/23) Accurately ripped
17 [3205b2f0|56ac95c7] (00+02/23) Accurately ripped
18 [fd542c30|bdc69bf6] (00+02/23) Accurately ripped
Offsetted by -664:
01 [6cde2fc8] (07/23) Accurately ripped
02 [295891a4] (07/25) Accurately ripped
03 [ea3a7a12] (07/25) Accurately ripped
04 [78ca2f05] (07/23) Accurately ripped
05 [2d1d2ee0] (07/23) Accurately ripped
06 [f9b1e182] (07/23) Accurately ripped
07 [ca22d0bb] (07/23) Accurately ripped
08 [2e7d5d5d] (07/23) Accurately ripped
09 [9b94a597] (07/23) Accurately ripped
10 [2f33c1a4] (07/23) Accurately ripped
11 [898cbb30] (07/23) Accurately ripped
12 [9700c0ed] (07/22) Accurately ripped
13 [06112c41] (07/23) Accurately ripped
14 [1718f1b5] (07/23) Accurately ripped
15 [53549993] (07/23) Accurately ripped
16 [88616692] (07/23) Accurately ripped
17 [abf299b0] (07/23) Accurately ripped
18 [326d7ba0] (07/23) Accurately ripped
Offsetted by 10:
01 [0ccb1ed0] (02/23) Accurately ripped
02 [3ae07c9c] (02/25) Accurately ripped
03 [060b85f4] (02/25) Accurately ripped
04 [2a11c33d] (02/23) Accurately ripped
05 [8c94f8ba] (02/23) Accurately ripped
06 [f94d485e] (02/23) Accurately ripped
07 [09b02931] (02/23) Accurately ripped
08 [af344dc9] (02/23) Accurately ripped
09 [74473733] (02/23) Accurately ripped
10 [24514be8] (02/23) Accurately ripped
11 [70fd33a4] (02/23) Accurately ripped
12 [c8274bcb] (02/22) Accurately ripped
13 [626cde85] (02/23) Accurately ripped
14 [2ca42013] (02/23) Accurately ripped
15 [b439dd5b] (02/23) Accurately ripped
16 [dd95e23c] (02/23) Accurately ripped
17 [6c54a320] (02/23) Accurately ripped
18 [121e962c] (02/23) Accurately ripped
Offsetted by -18:
01 [06264f60] (00/23) No match (V2 was not tested)
02 [ca7b200c] (00/25) No match (V2 was not tested)
03 [5f497c58] (00/25) No match (V2 was not tested)
04 [41d99d2d] (00/23) No match (V2 was not tested)
05 [3389288e] (00/23) No match (V2 was not tested)
06 [8cb06ad6] (00/23) No match (V2 was not tested)
07 [d7f336fd] (00/23) No match (V2 was not tested)
08 [341cc061] (00/23) No match (V2 was not tested)
09 [85dd0b2b] (00/23) No match (V2 was not tested)
10 [1c69e5b0] (00/23) No match (V2 was not tested)
11 [97fdd8cc] (00/23) No match (V2 was not tested)
12 [1a6e9ee7] (00/22) No match (V2 was not tested)
13 [f98e484d] (00/23) No match (V2 was not tested)
14 [304dd22f] (00/23) No match (V2 was not tested)
15 [fdaf336b] (00/23) No match (V2 was not tested)
16 [6b2346b0] (00/23) No match (V2 was not tested)
17 [fc446900] (00/23) No match (V2 was not tested)
18 [0b1b0704] (00/23) No match (V2 was not tested)
Offsetted by 664:
01 [a7f93088] (00/23) No match (V2 was not tested)
02 [fc2000e4] (00/25) No match (V2 was not tested)
03 [619b1d42] (00/25) No match (V2 was not tested)
04 [a3313c45] (00/23) No match (V2 was not tested)
05 [ac720950] (00/23) No match (V2 was not tested)
06 [cfe65a22] (00/23) No match (V2 was not tested)
07 [6edb1dcb] (00/23) No match (V2 was not tested)
08 [8eda6b7d] (00/23) No match (V2 was not tested)
09 [59896037] (00/23) No match (V2 was not tested)
10 [ef374404] (00/23) No match (V2 was not tested)
11 [bd6e2210] (00/23) No match (V2 was not tested)
12 [eaee7fbd] (00/22) No match (V2 was not tested)
13 [73e06ea1] (00/23) No match (V2 was not tested)
14 [fba88485] (00/23) No match (V2 was not tested)
15 [6e29cc53] (00/23) No match (V2 was not tested)
16 [2a2f5c82] (00/23) No match (V2 was not tested)
17 [b818cc30] (00/23) No match (V2 was not tested)
18 [c83adcc0] (00/23) No match (V2 was not tested)
Offsetted by 2024:
01 [eaabf9c8] (00/23) No match (V2 was not tested)
02 [4f5b47a4] (00/25) No match (V2 was not tested)
03 [72fe1492] (00/25) No match (V2 was not tested)
04 [8dd87505] (00/23) No match (V2 was not tested)
05 [918b3f60] (00/23) No match (V2 was not tested)
06 [b484f482] (00/23) No match (V2 was not tested)
07 [70fda43b] (00/23) No match (V2 was not tested)
08 [5752645d] (00/23) No match (V2 was not tested)
09 [03652897] (00/23) No match (V2 was not tested)
10 [25fa16a4] (00/23) No match (V2 was not tested)
11 [e94ecc30] (00/23) No match (V2 was not tested)
12 [bc41966d] (00/22) No match (V2 was not tested)
13 [59898141] (00/23) No match (V2 was not tested)
14 [b7762735] (00/23) No match (V2 was not tested)
15 [c7545393] (00/23) No match (V2 was not tested)
16 [735bbb12] (00/23) No match (V2 was not tested)
17 [b20865b0] (00/23) No match (V2 was not tested)
18 [d3c32aa0] (00/23) No match (V2 was not tested)

Track Peak [ CRC32 ] [W/O NULL] [ LOG ]
– 100,0 [496F3440] [A6296D23] CRC32
01 100,0 [40768E23] [63BAEC84]
02 99,7 [42B6734E] [F011C7A3]
03 99,8 [255E443A] [94BC0186]
04 99,9 [9B1E0DD0] [81FF816E]
05 99,9 [02EDFAE3] [1FCAE5A6]
06 100,0 [CA4A692D] [C3B421D6]
07 99,6 [F1FF123B] [65E5D27F]
08 99,9 [4AD5005B] [0FC5465C]
09 100,0 [1C751346] [2ABC2255]
10 99,3 [59B2EBB1] [FE4325F7]
11 99,9 [2BDBA90E] [24D54441]
12 100,0 [DF66271F] [0DAAD7CC]
13 100,0 [0B71B79D] [3FA0C345]
14 99,0 [FFF5A952] [9A6AFA69]
15 100,0 [54BF924D] [6BB366F4]
16 99,0 [FB7B9D72] [FF74A795]
17 100,0 [9BBC7D4F] [7AA5EE08]
18 100,0 [284F2DD8] [99A9051F]

See also:

Gloria Gaynor - Classic Glo... Masters Collection (1999)

All thanks go to sergych

>>> My Blog <<<

DOWNLOAD: