Tags
Language
Tags
April 2024
Su Mo Tu We Th Fr Sa
31 1 2 3 4 5 6
7 8 9 10 11 12 13
14 15 16 17 18 19 20
21 22 23 24 25 26 27
28 29 30 1 2 3 4

Gong - Rejoice! I'm Dead! (2016) [2CD + DVD EarBook Set] Re-up

Posted By: v3122
Gong - Rejoice! I'm Dead! (2016) [2CD + DVD EarBook Set] Re-up

Gong - Rejoice! I'm Dead! (2016)
EAC | Flac(Image) + Cue + Log & MP3 CBR 320Kbps
Madfish Music, SMABX1049 | ~ 587 or 239 Mb | Artwork(png) -> 1.07 Gb
DVD9: NTSC 16:9 (720x480) VBR | LPCM 2 ch / DTS 6 ch / MLP 2.0 & 5.1, 24/96
Psychedelic Rock / Progressive Rock / Space Rock

This is the deluxe hardback book edition that includes 3 discs and a 48 page book. Disc 1 is the studio album. Disc 2 contains demos, spontaneous jams and additional album tracks. Disc 3 is a DVD-AV with 24/96 PCM stereo and DTS 96/24 5.1 digital surround. 48 page book includes previously unseen live, backstage and studio photos as well as poems by Daevid Allen.
Gong - Rejoice! I'm Dead! (2016) [2CD + DVD EarBook Set] Re-up

Gong - Rejoice! I'm Dead! (2016):

Gong - Rejoice! I'm Dead! (2016) [2CD + DVD EarBook Set] Re-up

Tracklist CD1:

Side 1
01 The Thing That Should Be
02 Rejoice!
03 Kapital
Side 2
04 Model Village
05 Beatrix
06 Visions
Side 3
07 The Unspeakable Stands Revealed
Side 4
08 Through Restless Seas I Come
09 Insert Yr Own Prophecy

Exact Audio Copy V1.3 from 2. September 2016

EAC extraction logfile from 3. September 2019, 19:32

Gong / Rejoice! I'm Dead! CD1

Used drive : PLEXTOR BD-R PX-B950SA Adapter: 1 ID: 1

Read mode : Secure
Utilize accurate stream : Yes
Defeat audio cache : Yes
Make use of C2 pointers : No

Read offset correction : 6
Overread into Lead-In and Lead-Out : No
Fill up missing offset samples with silence : Yes
Delete leading and trailing silent blocks : No
Null samples used in CRC calculations : Yes
Used interface : Native Win32 interface for Win NT & 2000

Used output format : Internal WAV Routines
Sample format : 44.100 Hz; 16 Bit; Stereo


TOC of the extracted CD

Track | Start | Length | Start sector | End sector
––––––––––––––––––––––––––––-
1 | 0:00.00 | 3:34.25 | 0 | 16074
2 | 3:34.25 | 10:16.58 | 16075 | 62332
3 | 13:51.08 | 3:23.26 | 62333 | 77583
4 | 17:14.34 | 6:43.31 | 77584 | 107839
5 | 23:57.65 | 2:54.68 | 107840 | 120957
6 | 26:52.58 | 4:29.23 | 120958 | 141155
7 | 31:22.06 | 11:56.25 | 141156 | 194880
8 | 43:18.31 | 6:57.62 | 194881 | 226217
9 | 50:16.18 | 9:38.12 | 226218 | 269579


Range status and errors

Selected range

Filename C:\Users\Alex\Desktop\ALLexxess\Gong\2016 Rejoice! I'm Dead! (3-Disc EarBook Madfish Music)\CD1\Gong - Rejoice! I'm Dead! CD1.wav

Peak level 100.0 %
Extraction speed 7.5 X
Range quality 100.0 %
Test CRC 7799DFBF
Copy CRC 7799DFBF
Copy OK

No errors occurred


AccurateRip summary

Track 1 accurately ripped (confidence 15) [AA78C8B0] (AR v2)
Track 2 accurately ripped (confidence 15) [CEE70081] (AR v2)
Track 3 accurately ripped (confidence 15) [E54DC9B5] (AR v2)
Track 4 accurately ripped (confidence 15) [B219838F] (AR v2)
Track 5 accurately ripped (confidence 15) [99C3C791] (AR v2)
Track 6 accurately ripped (confidence 15) [60DF5898] (AR v2)
Track 7 accurately ripped (confidence 15) [59FF2709] (AR v2)
Track 8 accurately ripped (confidence 15) [C800CD81] (AR v2)
Track 9 accurately ripped (confidence 15) [D2A291C9] (AR v2)

All tracks accurately ripped

End of status report

–– CUETools DB Plugin V2.1.6

[CTDB TOCID: 6Qrs4XUSyWtLIBfhfwUlRNlqNI4-] found
Submit result: 6Qrs4XUSyWtLIBfhfwUlRNlqNI4- has been confirmed
Track | CTDB Status
1 | (62/64) Accurately ripped
2 | (64/64) Accurately ripped
3 | (64/64) Accurately ripped
4 | (64/64) Accurately ripped
5 | (64/64) Accurately ripped
6 | (64/64) Accurately ripped
7 | (64/64) Accurately ripped
8 | (64/64) Accurately ripped
9 | (64/64) Accurately ripped


==== Log checksum F992BA8BD4606CA46189A1A142B8767847D15620987BD7FD6865DBFDC2631073 ====


[CUETools log; Date: 23.10.2019 9:07:23; Version: 2.1.4]
[AccurateRip ID: 00129071-008a72b8-690e0a09] found.
Track [ CRC | V2 ] Status
01 [e63b557f|aa78c8b0] (00+18/18) Accurately ripped
02 [7396b472|cee70081] (00+18/18) Accurately ripped
03 [5cc37e82|e54dc9b5] (00+18/18) Accurately ripped
04 [ea178b7a|b219838f] (00+18/18) Accurately ripped
05 [7e1e4757|99c3c791] (00+18/18) Accurately ripped
06 [1179f4ff|60df5898] (00+18/18) Accurately ripped
07 [191cdf7a|59ff2709] (00+18/18) Accurately ripped
08 [672d9ceb|c800cd81] (00+18/18) Accurately ripped
09 [e6204c36|d2a291c9] (00+18/18) Accurately ripped

Track Peak [ CRC32 ] [W/O NULL] [ LOG ]
– 100,0 [7799DFBF] [F3706E2D] CRC32
01 97,6 [FFC3E2FB] [647351D0]
02 100,0 [5F591659] [E3AFA323]
03 97,1 [F2500BA3] [862F7353]
04 94,9 [5959375C] [61460F89]
05 92,0 [8EDA5B17] [4D1D4876]
06 89,1 [7FA0F165] [E8A79910]
07 97,1 [5258BD6E] [38E217B1]
08 96,1 [17AE62FB] [9D853CE1]
09 97,0 [45FB89BA] [9D9355B0]


Gong - Rejoice! I'm Dead! (2016) [2CD + DVD EarBook Set] Re-up

Tracklist CD2:

01 Floating Anarchy Manifesto
02 Someone You'll Never Be
03 Kapital (Original Demo)
04 Electricity (Original Demo - Became Part Of Kapital)
05 Glastonbury Town (Rehearsal Recording)
06 Celestial Brigadier (Rehearsal Recording)
07 The Paragraph Time Chose To Forget

Exact Audio Copy V1.3 from 2. September 2016

EAC extraction logfile from 3. September 2019, 19:08

Gong / Rejoice! I'm Dead! CD2

Used drive : PLEXTOR BD-R PX-B950SA Adapter: 1 ID: 1

Read mode : Secure
Utilize accurate stream : Yes
Defeat audio cache : Yes
Make use of C2 pointers : No

Read offset correction : 6
Overread into Lead-In and Lead-Out : No
Fill up missing offset samples with silence : Yes
Delete leading and trailing silent blocks : No
Null samples used in CRC calculations : Yes
Used interface : Native Win32 interface for Win NT & 2000

Used output format : Internal WAV Routines
Sample format : 44.100 Hz; 16 Bit; Stereo


TOC of the extracted CD

Track | Start | Length | Start sector | End sector
––––––––––––––––––––––––––––-
1 | 0:00.00 | 4:26.64 | 0 | 20013
2 | 4:26.64 | 5:54.57 | 20014 | 46620
3 | 10:21.46 | 2:15.65 | 46621 | 56810
4 | 12:37.36 | 1:57.33 | 56811 | 65618
5 | 14:34.69 | 8:27.34 | 65619 | 103677
6 | 23:02.28 | 14:00.19 | 103678 | 166696
7 | 37:02.47 | 4:25.10 | 166697 | 186581


Range status and errors

Selected range

Filename C:\Users\Alex\Desktop\ALLexxess\Gong\2016 Rejoice! I'm Dead! (3-Disc EarBook Madfish Music)\CD2\Gong - Rejoice! I'm Dead! CD2.wav

Peak level 95.5 %
Extraction speed 6.8 X
Range quality 100.0 %
Test CRC 1663FAE7
Copy CRC 1663FAE7
Copy OK

No errors occurred


AccurateRip summary

Track 1 accurately ripped (confidence 2) [59EA2E81] (AR v2)
Track 2 accurately ripped (confidence 2) [1864D8D3] (AR v2)
Track 3 accurately ripped (confidence 2) [2B545241] (AR v2)
Track 4 accurately ripped (confidence 2) [61DAFBC6] (AR v2)
Track 5 accurately ripped (confidence 2) [A426B4FC] (AR v2)
Track 6 accurately ripped (confidence 2) [2C0D0F3F] (AR v2)
Track 7 accurately ripped (confidence 2) [9EE110E2] (AR v2)

All tracks accurately ripped

End of status report

–– CUETools DB Plugin V2.1.6

[CTDB TOCID: vKTJG00Ih3zskDjN6A4vBHFQYsw-] found
Submit result: vKTJG00Ih3zskDjN6A4vBHFQYsw- has been confirmed
Track | CTDB Status
1 | (9/9) Accurately ripped
2 | (9/9) Accurately ripped
3 | (9/9) Accurately ripped
4 | (9/9) Accurately ripped
5 | (9/9) Accurately ripped
6 | (9/9) Accurately ripped
7 | (8/9) Accurately ripped


==== Log checksum C6311A9A953CE187BA5A8907BB52E3A7A71FF0FD7368F5CDB3118820FD8A37A1 ====


[CUETools log; Date: 23.10.2019 9:09:21; Version: 2.1.4]
[AccurateRip ID: 0009db86-003d4ac2-6109b707] found.
Track [ CRC | V2 ] Status
01 [d861fe52|59ea2e81] (0+5/5) Accurately ripped
02 [32cf35de|1864d8d3] (0+5/5) Accurately ripped
03 [897c10b4|2b545241] (0+5/5) Accurately ripped
04 [2b03ee80|61dafbc6] (0+5/5) Accurately ripped
05 [95811fa0|a426b4fc] (0+5/5) Accurately ripped
06 [e3654b2b|2c0d0f3f] (0+5/5) Accurately ripped
07 [b5a1317b|9ee110e2] (0+5/5) Accurately ripped

Track Peak [ CRC32 ] [W/O NULL] [ LOG ]
– 95,5 [1663FAE7] [22886C73] CRC32
01 85,4 [137F6BFF] [F168D140]
02 95,5 [B3668D8B] [701A60EC]
03 80,0 [31AE75FA] [E2219D36]
04 86,8 [A28E6B96] [D249AEF9]
05 89,7 [F0121AFF] [49F5294D]
06 69,3 [27BE8289] [BD5DDE2B]
07 50,2 [6E5AB12C] [193162EA]


Gong - Rejoice! I'm Dead! (2016) [2CD + DVD EarBook Set] Re-up

Tracklist DVD:

DVD-A 24/96 MLP Lossless Stereo & 24/96 MLP Lossless 5.1 Surround
DVD-V 24/96 PCM Stereo & DTS 96 5.1 Digital Surround
01 The Thing That Should Be
02 Rejoice!
03 Kapital
04 Model Village
05 Beatrix
06 Visions
07 The Unspeakable Stands Revealed
08 Through Restless Seas I Come
09 Insert Yr Own Prophecy

Title: Gong 2016 - Rejoice! I'm Dead! - DVD
Size: 2.64 Gb ( 2 764 532,00 KBytes ) - DVD-5
Enabled regions: 1, 2, 3, 4, 5, 6, 7, 8

VTS_01 :
Play Length: 00:59:52
Video: NTSC 16:9 (720x480) VBR, Auto Letterboxed
Audio:
English (LinearPCM, 2 ch)
English (DTS, 6 ch)


Gong - Rejoice! I'm Dead! (2016) [2CD + DVD EarBook Set] Re-up

Gong - Rejoice! I'm Dead! (2016) [2CD + DVD EarBook Set] Re-up

All thanks go to ALLexxess

Gong in my Blog

Download Gong - Rejoice! I'm Dead! (2016):