Subcategories

Govi - Guitar Odyssey (1997)

Posted By: Designol
Govi - Guitar Odyssey (1997)

Govi - Guitar Odyssey (1997)
EAC | FLAC | Tracks (Cue&Log) ~ 276 Mb | Mp3 (CBR320) ~ 103 Mb | Scans ~ 79 Mb
New Age, World Fusion, New Flamenco | Label: Real Music | # RM0802 | 00:44:51

Govi sets the spirits soaring and the hips swaying on Guitar Odyssey, an intoxicating blend of guitars sweetened with breezy South American pan pipes and sensual rhythms. With a treasure chest full of tracks encompassing the high spirited “Sales of Joy,” the soulful rhumba of “Treasure Bay,” and the romantic tenderness of “Your Lingering Touch,” Govi’s virtuosity is showcased on guitar Odyssey, a truly joyful adventure.

The smooth and luxurious sounds of Govi always leave me feeling tranquil and mellowed out. This is my favorite album from the guitar maven and it sounds like turquoise waters and bright corals bathed by glorious golden sun rays. This would be a perfect soundtrack to some sailing adventure in warm, tropical weather; the mystical, silky pan pipes and guitar take me far away.

Govi was born in Germany but his many years spent living in India has greatly influenced his craft and his move to Hawaii has added en extra layer to the beautiful depth of his creative genius. The music is a fusion of many cultures and overall happiness and joy for life that he carries. I always feel that my mood improves when I listen to the sweet rhythms and this album will make anyone feel like they are on vacation. The sounds create an overall feeling of bathing in warm water with a soft tropical breeze lifting life's worries away.

All the pieces have a similar feeling to them and I actually don't have favorites because I love them all but if I had to pick then Sail of Joy, Turquoise Galleon and Lover's Moon are my top favorites. I discovered Govi while listening to Cusco when I saw that he was listed as similar artist in the world music section. Anyone who likes New Age and World sounds will be delighted with this artist.

Review by Kasia S., Amazon.com

I actually purchased Guitar Odyssey ("GO") [incidently - the first two letters of GOvi's name!] some six months ago. I admit that I've not done enough 'serious listening' to GO. Why? … because my listening time has been devoted to GOVI's three other albums in my inventory, i.e. "Seventh Heaven", "Andalusian Nights" and "Passion & Grace" !

Now, after some serious listening, I'll say that GO is worth every sen ('cents' as in 'dollars & cents') and it aptly reflects it's album title of 'Guitar Odyssey'.

The moods and ambiance created by GO is beyond words. It carasses your mind into a state of total relaxation with the superbly struck chords and rhythm. The fantastic timing, very well composed verses and beautiful guitar timbres are the things that make GO so special. GOVI's music is the Gift of life on Earth.

GO is one SPLENDID musical investment! 5-stars! Most recommended.

Review by Billy Lum, Amazon.com

Govi - Guitar Odyssey (1997)



Tracklist:

01. Sails Of Joy (5:30)
02. Magellans Beat (5:42)
03. Turquoise Galleon (5:57)
04. Lovers Moon (3:38)
05. Beach Fire Dancers (4:22)
06. Dolphin Escort (4:42)
07. Treasure Bay (5:12)
08. Your Lingering Touch (4:25)
09. Rhumba De La Noche (5:23)


Exact Audio Copy V0.99 prebeta 4 from 23. January 2008

EAC extraction logfile from 6. December 2008, 19:03

Govi / Guitar Odyssey

Used drive : PLEXTOR DVDR PX-760A Adapter: 0 ID: 0

Read mode : Secure
Utilize accurate stream : Yes
Defeat audio cache : Yes
Make use of C2 pointers : No

Read offset correction : 30
Overread into Lead-In and Lead-Out : No
Fill up missing offset samples with silence : Yes
Delete leading and trailing silent blocks : No
Null samples used in CRC calculations : Yes
Used interface : Installed external ASPI interface
Gap handling : Appended to previous track

Used output format : User Defined Encoder
Selected bitrate : 128 kBit/s
Quality : High
Add ID3 tag : No
Command line compressor : G:\Program Files\FLAC\flac.exe
Additional command line options : -8 -V -T "ARTIST=%a" -T "TITLE=%t" -T "ALBUM=%g" -T "DATE=%y" -T "TRACKNUMBER=%n" -T "GENRE=%m" -T "COMMENT=ripped by DrStandBy" %s


TOC of the extracted CD

Track | Start | Length | Start sector | End sector
––––––––––––––––––––––––––––-
1 | 0:00.00 | 5:29.55 | 0 | 24729
2 | 5:29.55 | 5:42.07 | 24730 | 50386
3 | 11:11.62 | 5:56.73 | 50387 | 77159
4 | 17:08.60 | 3:38.32 | 77160 | 93541
5 | 20:47.17 | 4:21.73 | 93542 | 113189
6 | 25:09.15 | 4:42.17 | 113190 | 134356
7 | 29:51.32 | 5:11.43 | 134357 | 157724
8 | 35:03.00 | 4:25.37 | 157725 | 177636
9 | 39:28.37 | 5:22.70 | 177637 | 201856


Track 1

Filename C:\Lossless\GOVI\1997 - Guitar Odyssey (RM0802)\01. Govi - Sails Of Joy.wav

Pre-gap length 0:00:02.00

Peak level 98.8 %
Track quality 99.9 %
Test CRC 2660D56C
Copy CRC 2660D56C
Accurately ripped (confidence 4) [5048F63C]
Copy OK

Track 2

Filename C:\Lossless\GOVI\1997 - Guitar Odyssey (RM0802)\02. Govi - Magellans Beat.wav

Pre-gap length 0:00:04.30

Peak level 95.2 %
Track quality 100.0 %
Test CRC 889A03D6
Copy CRC 889A03D6
Accurately ripped (confidence 5) [B934E085]
Copy OK

Track 3

Filename C:\Lossless\GOVI\1997 - Guitar Odyssey (RM0802)\03. Govi - Turquoise Galleon.wav

Pre-gap length 0:00:01.42

Peak level 94.2 %
Track quality 99.9 %
Test CRC C3796C44
Copy CRC C3796C44
Accurately ripped (confidence 5) [2E4AD572]
Copy OK

Track 4

Filename C:\Lossless\GOVI\1997 - Guitar Odyssey (RM0802)\04. Govi - Lovers Moon.wav

Pre-gap length 0:00:03.84

Peak level 99.9 %
Track quality 100.0 %
Test CRC 4A7F3DE0
Copy CRC 4A7F3DE0
Accurately ripped (confidence 5) [E0C04F0A]
Copy OK

Track 5

Filename C:\Lossless\GOVI\1997 - Guitar Odyssey (RM0802)\05. Govi - Beach Fire Dancers.wav

Peak level 100.0 %
Track quality 99.9 %
Test CRC 558D6547
Copy CRC 558D6547
Accurately ripped (confidence 5) [C17F77DD]
Copy OK

Track 6

Filename C:\Lossless\GOVI\1997 - Guitar Odyssey (RM0802)\06. Govi - Dolphin Escort.wav

Pre-gap length 0:00:04.00

Peak level 95.6 %
Track quality 99.9 %
Test CRC 81213E61
Copy CRC 81213E61
Accurately ripped (confidence 5) [F30E7820]
Copy OK

Track 7

Filename C:\Lossless\GOVI\1997 - Guitar Odyssey (RM0802)\07. Govi - Treasure Bay.wav

Pre-gap length 0:00:01.02

Peak level 94.4 %
Track quality 100.0 %
Test CRC 1FD6B0C4
Copy CRC 1FD6B0C4
Accurately ripped (confidence 5) [5176C109]
Copy OK

Track 8

Filename C:\Lossless\GOVI\1997 - Guitar Odyssey (RM0802)\08. Govi - Your Lingering Touch.wav

Pre-gap length 0:00:04.80

Peak level 100.0 %
Track quality 100.0 %
Test CRC 3C03EE23
Copy CRC 3C03EE23
Accurately ripped (confidence 5) [6A2C7F99]
Copy OK

Track 9

Filename C:\Lossless\GOVI\1997 - Guitar Odyssey (RM0802)\09. Govi - Rhumba De La Noche.wav

Pre-gap length 0:00:01.62

Peak level 100.0 %
Track quality 100.0 %
Test CRC 1BF403D4
Copy CRC 1BF403D4
Accurately ripped (confidence 5) [AB404AE5]
Copy OK


All tracks accurately ripped

No errors occurred

End of status report

[CUETools log; Date: 22.08.2018 23:37:21; Version: 2.1.4]
HDCD: peak extend: none, transient filter: none, gain: -4,0dB..0,0dB
[CTDB TOCID: wGOorlqhKWJCn71SxgA1F1W.lpI-] found.
Track | CTDB Status
1 | (74/82) Accurately ripped, or (2/82) differs in 215 samples @01:34:13,01:48:37,01:48:45-01:48:46,01:48:54-01:48:55,01:48:72,01:50:38-01:50:39,01:50:47-01:50:48,01:50:65,01:50:74,01:55:73,01:58:46,02:05:49,02:11:67-02:11:68,02:13:16-02:13:17,02:13:25,02:13:34-02:13:35,02:13:43-02:13:44,02:14:40-02:14:41,02:15:01-02:15:02,02:15:46
2 | (78/82) Accurately ripped
3 | (78/82) Accurately ripped
4 | (79/82) Accurately ripped
5 | (78/82) Accurately ripped
6 | (77/82) Accurately ripped
7 | (78/82) Accurately ripped
8 | (75/82) Accurately ripped, or (2/82) differs in 703 samples @00:45:70,00:47:36,00:52:30,00:54:65,02:54:41-02:54:42,02:55:70,03:08:01,03:08:35-03:08:36,03:08:69-03:08:70,03:09:11-03:09:12,03:09:29,03:10:22-03:10:23,03:10:39-03:10:40,03:10:56-03:10:57,03:11:67,03:13:54,03:18:40
9 | (76/82) Accurately ripped
[AccurateRip ID: 000fb9b9-00721202-5d0a8309] found.
Track [ CRC | V2 ] Status
01 [5048f63c|3e64318f] (09+06/79) Accurately ripped
02 [b934e085|f66dfdfa] (10+06/80) Accurately ripped
03 [2e4ad572|2525ecfb] (10+06/80) Accurately ripped
04 [e0c04f0a|02d792ef] (10+06/80) Accurately ripped
05 [c17f77dd|7387e0ec] (10+06/79) Accurately ripped
06 [f30e7820|442772e8] (10+06/80) Accurately ripped
07 [5176c109|5a42b28b] (10+06/78) Accurately ripped
08 [6a2c7f99|302f05dd] (10+06/80) Accurately ripped
09 [ab404ae5|cd8dcc34] (10+06/80) Accurately ripped
Offsetted by -237:
01 [ffc7338c] (04/79) Accurately ripped
02 [2ec11e54] (04/80) Accurately ripped
03 [d7b292f6] (04/80) Accurately ripped
04 [7d5a0642] (04/80) Accurately ripped
05 [22c49ea5] (04/79) Accurately ripped
06 [4d114cdb] (04/80) Accurately ripped
07 [7c840ee7] (04/78) Accurately ripped
08 [07cb6eee] (04/80) Accurately ripped
09 [b160ccf1] (04/80) Accurately ripped
Offsetted by 395:
01 [afb3d2aa] (24/79) Accurately ripped
02 [c1f11811] (24/80) Accurately ripped
03 [b76ffaa7] (24/80) Accurately ripped
04 [936a0d36] (24/80) Accurately ripped
05 [72e20395] (24/79) Accurately ripped
06 [d4e7b4ed] (24/80) Accurately ripped
07 [dd715223] (24/78) Accurately ripped
08 [3c8dd2f5] (24/80) Accurately ripped
09 [04e5d410] (24/80) Accurately ripped
Offsetted by -286:
01 [a9681a78] (00/79) No match (V2 was not tested)
02 [99c47ac2] (00/80) No match (V2 was not tested)
03 [53eecdb2] (00/80) No match (V2 was not tested)
04 [19e9c197] (00/80) No match (V2 was not tested)
05 [a69598a3] (00/79) No match (V2 was not tested)
06 [e77bfa49] (00/80) No match (V2 was not tested)
07 [9bab1b75] (00/78) No match (V2 was not tested)
08 [1673a2e7] (00/80) No match (V2 was not tested)
09 [b69b83d4] (00/80) No match (V2 was not tested)
Offsetted by 298:
01 [6596fee7] (00/79) No match (V2 was not tested)
02 [5feb7d61] (00/80) No match (V2 was not tested)
03 [8d16e8d9] (00/80) No match (V2 was not tested)
04 [ad78b611] (00/80) No match (V2 was not tested)
05 [dbd33281] (00/79) No match (V2 was not tested)
06 [65657884] (00/80) No match (V2 was not tested)
07 [f1bcefff] (00/78) No match (V2 was not tested)
08 [2ecb3450] (00/80) No match (V2 was not tested)
09 [d978fd01] (00/80) No match (V2 was not tested)
Offsetted by 670:
01 [9b0131cf] (00/79) No match (V2 was not tested)
02 [6ff41245] (00/80) No match (V2 was not tested)
03 [a13aa6bc] (00/80) No match (V2 was not tested)
04 [b33d8820] (00/80) No match (V2 was not tested)
05 [92283836] (00/79) No match (V2 was not tested)
06 [5740b4ab] (00/80) No match (V2 was not tested)
07 [0e9b73f2] (00/78) No match (V2 was not tested)
08 [69f2fbee] (00/80) No match (V2 was not tested)
09 [74ce7e7a] (00/80) No match (V2 was not tested)

Track Peak [ CRC32 ] [W/O NULL] [ LOG ]
– 100,0 [F7B0E19A] [1AF18C6C]
01 98,8 [2660D56C] [45C5EF01] CRC32
02 95,2 [889A03D6] [3F2EC0B8] CRC32
03 94,2 [C3796C44] [397046FD] CRC32
04 99,9 [4A7F3DE0] [21D6CE38] CRC32
05 100,0 [558D6547] [163098E2] CRC32
06 95,6 [81213E61] [AAC8B0F3] CRC32
07 94,4 [1FD6B0C4] [EAA004D5] CRC32
08 100,0 [3C03EE23] [F391FA6C] CRC32
09 100,0 [1BF403D4] [C7184DB2] CRC32

foobar2000 1.2 / Dynamic Range Meter 1.1.1
log date: 2018-08-22 22:27:40

––––––––––––––––––––––––––––––––––––––––
Analyzed: Govi / Guitar Odyssey
––––––––––––––––––––––––––––––––––––––––

DR Peak RMS Duration Track
––––––––––––––––––––––––––––––––––––––––
DR11 -0.10 dB -12.75 dB 5:30 01-Sails Of Joy
DR11 -0.42 dB -14.07 dB 5:42 02-Magellans Beat
DR10 -0.51 dB -12.64 dB 5:57 03-Turquoise Galleon
DR11 0.00 dB -13.12 dB 3:38 04-Lovers Moon
DR11 0.00 dB -12.39 dB 4:22 05-Beach Fire Dancers
DR12 -0.39 dB -14.01 dB 4:42 06-Dolphin Escort
DR9 -0.50 dB -11.51 dB 5:12 07-Treasure Bay
DR11 0.00 dB -12.52 dB 4:25 08-Your Lingering Touch
DR11 0.00 dB -12.12 dB 5:23 09-Rhumba De La Noche
––––––––––––––––––––––––––––––––––––––––

Number of tracks: 9
Official DR value: DR11

Samplerate: 44100 Hz
Channels: 2
Bits per sample: 16
Bitrate: 903 kbps
Codec: FLAC
================================================================================

Govi - Guitar Odyssey (1997)

Govi - Guitar Odyssey (1997)

All thanks to original releaser - DrStandBy

More interesting music in My Blog