Tags
Language
Tags

VA - Greatest Ever Soul & Disco (2021)

Posted By: JET 1
VA - Greatest Ever Soul & Disco (2021)

VA - Greatest Ever Soul & Disco (2021)
EAC Rip | FLAC (Tracks) +CUE, LOG | 1.92 GB
Genre: Soul, Disco, Funk | Label: Rhino Records | Catalog Number: GTST4CDW20

The popularity of classic soul and 70s disco endures, and no wonder! There's little better to lift the spirit and get your feet moving. GREATEST EVER SOUL & DISCO is a fantastic collection of 80 tracks that hit the sweet spot. Classic late-70s disco by KC & The Sunshine Band, Sister Sledge, Chaka Khan, and The Trammps? All here. Soulful sounds from Aretha Franklin, Wilson Pickett, Randy Crawford and Candy Staton? Present and correct. Funky grooves by The Meters, Bootsy Collins and Earth Wind & Fire? Ah yeah! As Chic said, "these are the good times"!

Exact Audio Copy V1.6 from 23. October 2020

EAC extraction logfile from 18. September 2021, 12:01

Various Artists / Greatest Ever Soul & Disco

Used drive : PIONEER BD-RW BDR-209D Adapter: 1 ID: 0

Read mode : Secure
Utilize accurate stream : Yes
Defeat audio cache : Yes
Make use of C2 pointers : No

Read offset correction : 667
Overread into Lead-In and Lead-Out : No
Fill up missing offset samples with silence : Yes
Delete leading and trailing silent blocks : No
Null samples used in CRC calculations : Yes
Used interface : Native Win32 interface for Win NT & 2000
Gap handling : Appended to previous track

Used output format : User Defined Encoder
Selected bitrate : 1024 kBit/s
Quality : High
Add ID3 tag : No
Command line compressor : C:\Program Files (x86)\Exact Audio Copy\Flac\flac.exe
Additional command line options : -8 -V -T "ARTIST=%artist%" -T "TITLE=%title%" -T "ALBUM=%albumtitle%" -T "DATE=%year%" -T "TRACKNUMBER=%tracknr%" -T "GENRE=%genre%" -T "PERFORMER=%albuminterpret%" -T "COMPOSER=%composer%" -T "ALBUMARTIST=%albumartist%" -T "DISCNUMBER=%cdnumber%" -T "TOTALDISCS=%totalcds%" -T "TOTALTRACKS=%numtracks%" -T "COMMENT=%comment%" %source% -o %dest%


TOC of the extracted CD

Track | Start | Length | Start sector | End sector
––––––––––––––––––––––––––––-
1 | 0:00.00 | 3:33.01 | 0 | 15975
2 | 3:33.01 | 3:32.65 | 15976 | 31940
3 | 7:05.66 | 2:45.50 | 31941 | 44365
4 | 9:51.41 | 3:08.05 | 44366 | 58470
5 | 12:59.46 | 4:02.15 | 58471 | 76635
6 | 17:01.61 | 3:03.08 | 76636 | 90368
7 | 20:04.69 | 3:32.17 | 90369 | 106285
8 | 23:37.11 | 3:30.22 | 106286 | 122057
9 | 27:07.33 | 3:44.47 | 122058 | 138904
10 | 30:52.05 | 3:50.24 | 138905 | 156178
11 | 34:42.29 | 2:44.52 | 156179 | 168530
12 | 37:27.06 | 3:44.51 | 168531 | 185381
13 | 41:11.57 | 3:17.41 | 185382 | 200197
14 | 44:29.23 | 3:17.16 | 200198 | 214988
15 | 47:46.39 | 4:22.67 | 214989 | 234705
16 | 52:09.31 | 4:52.68 | 234706 | 256673
17 | 57:02.24 | 3:29.44 | 256674 | 272392
18 | 60:31.68 | 3:49.35 | 272393 | 289602
19 | 64:21.28 | 4:11.30 | 289603 | 308457
20 | 68:32.58 | 4:40.47 | 308458 | 329504


Track 1

Filename G:\Music\VA - Greatest Ever Soul & Disco (2021) [EAC-FLAC] {GTST4CDW20}\CD1\01 - Sister Sledge - He's The Greatest Dancer.wav

Pre-gap length 0:00:02.00

Peak level 94.4 %
Extraction speed 4.9 X
Track quality 100.0 %
Test CRC D4E6DA6B
Copy CRC D4E6DA6B
Track not present in AccurateRip database
Copy OK

Track 2

Filename G:\Music\VA - Greatest Ever Soul & Disco (2021) [EAC-FLAC] {GTST4CDW20}\CD1\02 - Chic - Le Freak.wav

Pre-gap length 0:00:00.06

Peak level 100.0 %
Extraction speed 5.3 X
Track quality 100.0 %
Test CRC E65AFD13
Copy CRC E65AFD13
Track not present in AccurateRip database
Copy OK

Track 3

Filename G:\Music\VA - Greatest Ever Soul & Disco (2021) [EAC-FLAC] {GTST4CDW20}\CD1\03 - Curtis Mayfield - Move On Up.wav

Pre-gap length 0:00:00.09

Peak level 87.5 %
Extraction speed 4.6 X
Track quality 99.9 %
Test CRC 625172B0
Copy CRC 625172B0
Track not present in AccurateRip database
Copy OK

Track 4

Filename G:\Music\VA - Greatest Ever Soul & Disco (2021) [EAC-FLAC] {GTST4CDW20}\CD1\04 - The Spinners - I'll Be Around.wav

Pre-gap length 0:00:00.10

Peak level 98.8 %
Extraction speed 5.8 X
Track quality 100.0 %
Test CRC 541DED60
Copy CRC 541DED60
Track not present in AccurateRip database
Copy OK

Track 5

Filename G:\Music\VA - Greatest Ever Soul & Disco (2021) [EAC-FLAC] {GTST4CDW20}\CD1\05 - Hot Chocolate - You Sexy Thing.wav

Pre-gap length 0:00:00.10

Peak level 87.1 %
Extraction speed 6.4 X
Track quality 100.0 %
Test CRC 09CB7A95
Copy CRC 09CB7A95
Track not present in AccurateRip database
Copy OK

Track 6

Filename G:\Music\VA - Greatest Ever Soul & Disco (2021) [EAC-FLAC] {GTST4CDW20}\CD1\06 - KC & The Sunshine Band - That’s The Way (I Like It).wav

Pre-gap length 0:00:00.14

Peak level 100.0 %
Extraction speed 6.4 X
Track quality 100.0 %
Test CRC EAAB67C6
Copy CRC EAAB67C6
Track not present in AccurateRip database
Copy OK

Track 7

Filename G:\Music\VA - Greatest Ever Soul & Disco (2021) [EAC-FLAC] {GTST4CDW20}\CD1\07 - Stacy Lattisaw - Jump To The Beat.wav

Pre-gap length 0:00:00.06

Peak level 83.2 %
Extraction speed 6.8 X
Track quality 100.0 %
Test CRC 9B941704
Copy CRC 9B941704
Track not present in AccurateRip database
Copy OK

Track 8

Filename G:\Music\VA - Greatest Ever Soul & Disco (2021) [EAC-FLAC] {GTST4CDW20}\CD1\08 - Shalamar - A Night to Remember.wav

Pre-gap length 0:00:00.02

Peak level 100.0 %
Extraction speed 7.0 X
Track quality 100.0 %
Test CRC 6357996B
Copy CRC 6357996B
Track not present in AccurateRip database
Copy OK

Track 9

Filename G:\Music\VA - Greatest Ever Soul & Disco (2021) [EAC-FLAC] {GTST4CDW20}\CD1\09 - Amii Stewart - Knock On Wood.wav

Pre-gap length 0:00:00.13

Peak level 93.3 %
Extraction speed 7.4 X
Track quality 100.0 %
Test CRC 250B5BF1
Copy CRC 250B5BF1
Track not present in AccurateRip database
Copy OK

Track 10

Filename G:\Music\VA - Greatest Ever Soul & Disco (2021) [EAC-FLAC] {GTST4CDW20}\CD1\10 - Candi Staton - Suspicious Minds.wav

Pre-gap length 0:00:00.06

Peak level 100.0 %
Extraction speed 7.6 X
Track quality 100.0 %
Test CRC E0FDB8DA
Copy CRC E0FDB8DA
Track not present in AccurateRip database
Copy OK

Track 11

Filename G:\Music\VA - Greatest Ever Soul & Disco (2021) [EAC-FLAC] {GTST4CDW20}\CD1\11 - Betty Wright - Clean Up Woman.wav

Pre-gap length 0:00:00.05

Peak level 98.8 %
Extraction speed 6.2 X
Track quality 99.9 %
Test CRC DB8A3E9A
Copy CRC DB8A3E9A
Track not present in AccurateRip database
Copy OK

Track 12

Filename G:\Music\VA - Greatest Ever Soul & Disco (2021) [EAC-FLAC] {GTST4CDW20}\CD1\12 - Shirley & Company - Shame, Shame, Shame.wav

Pre-gap length 0:00:00.05

Peak level 79.4 %
Extraction speed 7.9 X
Track quality 100.0 %
Test CRC ABE74914
Copy CRC ABE74914
Track not present in AccurateRip database
Copy OK

Track 13

Filename G:\Music\VA - Greatest Ever Soul & Disco (2021) [EAC-FLAC] {GTST4CDW20}\CD1\13 - George McCrae - Rock Your Baby.wav

Pre-gap length 0:00:00.05

Peak level 100.0 %
Extraction speed 6.8 X
Track quality 99.9 %
Test CRC EC02CA91
Copy CRC EC02CA91
Track not present in AccurateRip database
Copy OK

Track 14

Filename G:\Music\VA - Greatest Ever Soul & Disco (2021) [EAC-FLAC] {GTST4CDW20}\CD1\14 - Kelly Marie - Feels Like I'm In Love.wav

Pre-gap length 0:00:00.04

Peak level 78.5 %
Extraction speed 7.0 X
Track quality 99.9 %
Test CRC 11521AE3
Copy CRC 11521AE3
Track not present in AccurateRip database
Copy OK

Track 15

Filename G:\Music\VA - Greatest Ever Soul & Disco (2021) [EAC-FLAC] {GTST4CDW20}\CD1\15 - First Choice - Let No Man Put Asunder.wav

Pre-gap length 0:00:00.14

Peak level 87.6 %
Extraction speed 8.6 X
Track quality 100.0 %
Test CRC D317EF95
Copy CRC D317EF95
Track not present in AccurateRip database
Copy OK

Track 16

Filename G:\Music\VA - Greatest Ever Soul & Disco (2021) [EAC-FLAC] {GTST4CDW20}\CD1\16 - The Whispers - And The Beat Goes On.wav

Pre-gap length 0:00:00.01

Peak level 92.7 %
Extraction speed 9.0 X
Track quality 100.0 %
Test CRC C0D0143D
Copy CRC C0D0143D
Track not present in AccurateRip database
Copy OK

Track 17

Filename G:\Music\VA - Greatest Ever Soul & Disco (2021) [EAC-FLAC] {GTST4CDW20}\CD1\17 - Crown Heights Affair - You Gave Me Love.wav

Peak level 87.2 %
Extraction speed 8.8 X
Track quality 100.0 %
Test CRC 29C090AD
Copy CRC 29C090AD
Track not present in AccurateRip database
Copy OK

Track 18

Filename G:\Music\VA - Greatest Ever Soul & Disco (2021) [EAC-FLAC] {GTST4CDW20}\CD1\18 - Rose Royce - Is It Love You're After.wav

Pre-gap length 0:00:00.06

Peak level 100.0 %
Extraction speed 9.1 X
Track quality 100.0 %
Test CRC 6D6E5CD1
Copy CRC 6D6E5CD1
Track not present in AccurateRip database
Copy OK

Track 19

Filename G:\Music\VA - Greatest Ever Soul & Disco (2021) [EAC-FLAC] {GTST4CDW20}\CD1\19 - Randy Crawford - You Might Need Somebody.wav

Pre-gap length 0:00:00.04

Peak level 88.1 %
Extraction speed 9.5 X
Track quality 100.0 %
Test CRC 406EC745
Copy CRC 406EC745
Track not present in AccurateRip database
Copy OK

Track 20

Filename G:\Music\VA - Greatest Ever Soul & Disco (2021) [EAC-FLAC] {GTST4CDW20}\CD1\20 - Rufus & Chaka Khan - Ain't Nobody.wav

Pre-gap length 0:00:00.09

Peak level 98.8 %
Extraction speed 9.8 X
Track quality 100.0 %
Test CRC 3A0BBB16
Copy CRC 3A0BBB16
Track not present in AccurateRip database
Copy OK


None of the tracks are present in the AccurateRip database

No errors occurred

End of status report

–– CUETools DB Plugin V2.1.6

[CTDB TOCID: qsBRheybbAPU80A.xD53pN_VZRw-] disk not present in database
Submit result: qsBRheybbAPU80A.xD53pN_VZRw- has been uploaded


==== Log checksum AB240E251898565CAC312F22ABC8AA1B85A8BFE92AAF59682F0BF2B5233D7AF2 ====

Exact Audio Copy V1.6 from 23. October 2020

EAC extraction logfile from 18. September 2021, 13:06

Various Artists / Greatest Ever Soul & Disco

Used drive : PIONEER BD-RW BDR-209D Adapter: 1 ID: 0

Read mode : Secure
Utilize accurate stream : Yes
Defeat audio cache : Yes
Make use of C2 pointers : No

Read offset correction : 667
Overread into Lead-In and Lead-Out : No
Fill up missing offset samples with silence : Yes
Delete leading and trailing silent blocks : No
Null samples used in CRC calculations : Yes
Used interface : Native Win32 interface for Win NT & 2000
Gap handling : Appended to previous track

Used output format : User Defined Encoder
Selected bitrate : 1024 kBit/s
Quality : High
Add ID3 tag : No
Command line compressor : C:\Program Files (x86)\Exact Audio Copy\Flac\flac.exe
Additional command line options : -8 -V -T "ARTIST=%artist%" -T "TITLE=%title%" -T "ALBUM=%albumtitle%" -T "DATE=%year%" -T "TRACKNUMBER=%tracknr%" -T "GENRE=%genre%" -T "PERFORMER=%albuminterpret%" -T "COMPOSER=%composer%" -T "ALBUMARTIST=%albumartist%" -T "DISCNUMBER=%cdnumber%" -T "TOTALDISCS=%totalcds%" -T "TOTALTRACKS=%numtracks%" -T "COMMENT=%comment%" %source% -o %dest%


TOC of the extracted CD

Track | Start | Length | Start sector | End sector
––––––––––––––––––––––––––––-
1 | 0:00.00 | 3:12.40 | 0 | 14439
2 | 3:12.40 | 3:04.67 | 14440 | 28306
3 | 6:17.32 | 2:16.36 | 28307 | 38542
4 | 8:33.68 | 3:22.64 | 38543 | 53756
5 | 11:56.57 | 3:19.23 | 53757 | 68704
6 | 15:16.05 | 3:42.22 | 68705 | 85376
7 | 18:58.27 | 3:24.05 | 85377 | 100681
8 | 22:22.32 | 3:24.32 | 100682 | 116013
9 | 25:46.64 | 2:53.34 | 116014 | 129022
10 | 28:40.23 | 3:56.54 | 129023 | 146776
11 | 32:37.02 | 3:19.08 | 146777 | 161709
12 | 35:56.10 | 2:47.18 | 161710 | 174252
13 | 38:43.28 | 3:35.05 | 174253 | 190382
14 | 42:18.33 | 2:46.51 | 190383 | 202883
15 | 45:05.09 | 3:11.02 | 202884 | 217210
16 | 48:16.11 | 2:30.31 | 217211 | 228491
17 | 50:46.42 | 4:07.05 | 228492 | 247021
18 | 54:53.47 | 2:31.36 | 247022 | 258382
19 | 57:25.08 | 2:45.57 | 258383 | 270814
20 | 60:10.65 | 5:02.24 | 270815 | 293488


Track 1

Filename G:\Music\VA - Greatest Ever Soul & Disco (2021) [EAC-FLAC] {GTST4CDW20}\CD2\01 - Aretha Franklin - Rock Steady.wav

Pre-gap length 0:00:02.00

Peak level 100.0 %
Extraction speed 4.0 X
Track quality 99.9 %
Test CRC 1BF46F55
Copy CRC 1BF46F55
Track not present in AccurateRip database
Copy OK

Track 2

Filename G:\Music\VA - Greatest Ever Soul & Disco (2021) [EAC-FLAC] {GTST4CDW20}\CD2\02 - Bettye Swann - When The Game Is Played On You.wav

Pre-gap length 0:00:00.38

Peak level 79.8 %
Extraction speed 4.3 X
Track quality 99.9 %
Test CRC 2BAD7F99
Copy CRC 2BAD7F99
Track not present in AccurateRip database
Copy OK

Track 3

Filename G:\Music\VA - Greatest Ever Soul & Disco (2021) [EAC-FLAC] {GTST4CDW20}\CD2\03 - Wilson Pickett - Don't Knock My Love Part 1.wav

Pre-gap length 0:00:00.16

Peak level 100.0 %
Extraction speed 4.9 X
Track quality 100.0 %
Test CRC 8AE1A3BD
Copy CRC 8AE1A3BD
Track not present in AccurateRip database
Copy OK

Track 4

Filename G:\Music\VA - Greatest Ever Soul & Disco (2021) [EAC-FLAC] {GTST4CDW20}\CD2\04 - Donny Hathaway - Love, Love, Love.wav

Pre-gap length 0:00:00.26

Peak level 79.4 %
Extraction speed 4.9 X
Track quality 99.9 %
Test CRC 78557058
Copy CRC 78557058
Track not present in AccurateRip database
Copy OK

Track 5

Filename G:\Music\VA - Greatest Ever Soul & Disco (2021) [EAC-FLAC] {GTST4CDW20}\CD2\05 - Baby Huey & The Baby Sitters - Hard Times.wav

Pre-gap length 0:00:00.08

Peak level 74.4 %
Extraction speed 5.9 X
Track quality 100.0 %
Test CRC 31B9D28B
Copy CRC 31B9D28B
Track not present in AccurateRip database
Copy OK

Track 6

Filename G:\Music\VA - Greatest Ever Soul & Disco (2021) [EAC-FLAC] {GTST4CDW20}\CD2\06 - The Impressions - Fool For You.wav

Pre-gap length 0:00:00.50

Peak level 100.0 %
Extraction speed 6.3 X
Track quality 100.0 %
Test CRC 4B19728A
Copy CRC 4B19728A
Track not present in AccurateRip database
Copy OK

Track 7

Filename G:\Music\VA - Greatest Ever Soul & Disco (2021) [EAC-FLAC] {GTST4CDW20}\CD2\07 - Margie Joseph - Let's Stay Together.wav

Pre-gap length 0:00:00.14

Peak level 100.0 %
Extraction speed 6.5 X
Track quality 100.0 %
Test CRC 1C7B3750
Copy CRC 1C7B3750
Track not present in AccurateRip database
Copy OK

Track 8

Filename G:\Music\VA - Greatest Ever Soul & Disco (2021) [EAC-FLAC] {GTST4CDW20}\CD2\08 - Jackie Moore - Time.wav

Pre-gap length 0:00:00.14

Peak level 83.1 %
Extraction speed 6.8 X
Track quality 100.0 %
Test CRC 418BF243
Copy CRC 418BF243
Track not present in AccurateRip database
Copy OK

Track 9

Filename G:\Music\VA - Greatest Ever Soul & Disco (2021) [EAC-FLAC] {GTST4CDW20}\CD2\09 - Al Hudson & The Soul Partners - I'm About Loving You.wav

Pre-gap length 0:00:00.21

Peak level 81.4 %
Extraction speed 6.8 X
Track quality 100.0 %
Test CRC 9CB0CFD5
Copy CRC 9CB0CFD5
Track not present in AccurateRip database
Copy OK

Track 10

Filename G:\Music\VA - Greatest Ever Soul & Disco (2021) [EAC-FLAC] {GTST4CDW20}\CD2\10 - The Moments - Jack In The Box.wav

Pre-gap length 0:00:00.09

Peak level 99.4 %
Extraction speed 6.6 X
Track quality 99.9 %
Test CRC 94EEC635
Copy CRC 94EEC635
Track not present in AccurateRip database
Copy OK

Track 11

Filename G:\Music\VA - Greatest Ever Soul & Disco (2021) [EAC-FLAC] {GTST4CDW20}\CD2\11 - The Staples - Unlock Your Mind.wav

Pre-gap length 0:00:00.25

Peak level 100.0 %
Extraction speed 7.5 X
Track quality 100.0 %
Test CRC D52F083F
Copy CRC D52F083F
Track not present in AccurateRip database
Copy OK

Track 12

Filename G:\Music\VA - Greatest Ever Soul & Disco (2021) [EAC-FLAC] {GTST4CDW20}\CD2\12 - Allen Toussaint - Soul Sister.wav

Pre-gap length 0:00:00.26

Peak level 86.7 %
Extraction speed 7.3 X
Track quality 100.0 %
Test CRC 7835DABE
Copy CRC 7835DABE
Track not present in AccurateRip database
Copy OK

Track 13

Filename G:\Music\VA - Greatest Ever Soul & Disco (2021) [EAC-FLAC] {GTST4CDW20}\CD2\13 - Brook Benton - Rainy Night In Georgia.wav

Pre-gap length 0:00:00.18

Peak level 100.0 %
Extraction speed 7.8 X
Track quality 100.0 %
Test CRC F37606A8
Copy CRC F37606A8
Track not present in AccurateRip database
Copy OK

Track 14

Filename G:\Music\VA - Greatest Ever Soul & Disco (2021) [EAC-FLAC] {GTST4CDW20}\CD2\14 - Archie Bell & The Drells - Wrap It Up.wav

Pre-gap length 0:00:00.10

Peak level 78.3 %
Extraction speed 7.6 X
Track quality 100.0 %
Test CRC 657C6EE0
Copy CRC 657C6EE0
Track not present in AccurateRip database
Copy OK

Track 15

Filename G:\Music\VA - Greatest Ever Soul & Disco (2021) [EAC-FLAC] {GTST4CDW20}\CD2\15 - Linda Lewis - Sideway Shuffle.wav

Pre-gap length 0:00:00.10

Peak level 91.5 %
Extraction speed 8.1 X
Track quality 100.0 %
Test CRC EB356CC0
Copy CRC EB356CC0
Track not present in AccurateRip database
Copy OK

Track 16

Filename G:\Music\VA - Greatest Ever Soul & Disco (2021) [EAC-FLAC] {GTST4CDW20}\CD2\16 - Barbara Lynn - You Make Me So Hot.wav

Pre-gap length 0:00:00.22

Peak level 98.5 %
Extraction speed 6.5 X
Track quality 99.9 %
Test CRC 1E2637A7
Copy CRC 1E2637A7
Track not present in AccurateRip database
Copy OK

Track 17

Filename G:\Music\VA - Greatest Ever Soul & Disco (2021) [EAC-FLAC] {GTST4CDW20}\CD2\17 - Pat Lundy - Party Music.wav

Pre-gap length 0:00:00.25

Peak level 79.4 %
Extraction speed 8.6 X
Track quality 100.0 %
Test CRC 025829D3
Copy CRC 025829D3
Track not present in AccurateRip database
Copy OK

Track 18

Filename G:\Music\VA - Greatest Ever Soul & Disco (2021) [EAC-FLAC] {GTST4CDW20}\CD2\18 - Madeline Bell - Dance, Dance, Dance.wav

Pre-gap length 0:00:00.38

Peak level 86.1 %
Extraction speed 8.2 X
Track quality 100.0 %
Test CRC A00A6F4C
Copy CRC A00A6F4C
Track not present in AccurateRip database
Copy OK

Track 19

Filename G:\Music\VA - Greatest Ever Soul & Disco (2021) [EAC-FLAC] {GTST4CDW20}\CD2\19 - The Javells feat. Nosmo King - Goodbye (Nothing To Say).wav

Pre-gap length 0:00:00.22

Peak level 100.0 %
Extraction speed 8.4 X
Track quality 100.0 %
Test CRC 28D5B584
Copy CRC 28D5B584
Track not present in AccurateRip database
Copy OK

Track 20

Filename G:\Music\VA - Greatest Ever Soul & Disco (2021) [EAC-FLAC] {GTST4CDW20}\CD2\20 - Richie Havens - Going Back To My Roots.wav

Pre-gap length 0:00:00.06

Peak level 100.0 %
Extraction speed 9.4 X
Track quality 100.0 %
Test CRC D365EFEE
Copy CRC D365EFEE
Track not present in AccurateRip database
Copy OK


None of the tracks are present in the AccurateRip database

No errors occurred

End of status report

–– CUETools DB Plugin V2.1.6

[CTDB TOCID: fFueoS4X6UtmWFJTKyj4zaRatow-] disk not present in database
Submit result: fFueoS4X6UtmWFJTKyj4zaRatow- has been uploaded


==== Log checksum 0040EC837825BD7866D56E8CF8C0ABF92DDF039EDBA7397DBEB447902E3B3BDF ====

Exact Audio Copy V1.6 from 23. October 2020

EAC extraction logfile from 18. September 2021, 14:14

Various Artists / Greatest Ever Soul & Disco

Used drive : PIONEER BD-RW BDR-209D Adapter: 1 ID: 0

Read mode : Secure
Utilize accurate stream : Yes
Defeat audio cache : Yes
Make use of C2 pointers : No

Read offset correction : 667
Overread into Lead-In and Lead-Out : No
Fill up missing offset samples with silence : Yes
Delete leading and trailing silent blocks : No
Null samples used in CRC calculations : Yes
Used interface : Native Win32 interface for Win NT & 2000
Gap handling : Appended to previous track

Used output format : User Defined Encoder
Selected bitrate : 1024 kBit/s
Quality : High
Add ID3 tag : No
Command line compressor : C:\Program Files (x86)\Exact Audio Copy\Flac\flac.exe
Additional command line options : -8 -V -T "ARTIST=%artist%" -T "TITLE=%title%" -T "ALBUM=%albumtitle%" -T "DATE=%year%" -T "TRACKNUMBER=%tracknr%" -T "GENRE=%genre%" -T "PERFORMER=%albuminterpret%" -T "COMPOSER=%composer%" -T "ALBUMARTIST=%albumartist%" -T "DISCNUMBER=%cdnumber%" -T "TOTALDISCS=%totalcds%" -T "TOTALTRACKS=%numtracks%" -T "COMMENT=%comment%" %source% -o %dest%


TOC of the extracted CD

Track | Start | Length | Start sector | End sector
––––––––––––––––––––––––––––-
1 | 0:00.00 | 3:33.41 | 0 | 16015
2 | 3:33.41 | 4:05.37 | 16016 | 34427
3 | 7:39.03 | 3:41.22 | 34428 | 51024
4 | 11:20.25 | 5:52.41 | 51025 | 77465
5 | 17:12.66 | 3:39.34 | 77466 | 93924
6 | 20:52.25 | 5:07.58 | 93925 | 117007
7 | 26:00.08 | 4:43.02 | 117008 | 138234
8 | 30:43.10 | 3:28.04 | 138235 | 153838
9 | 34:11.14 | 3:38.61 | 153839 | 170249
10 | 37:50.00 | 4:02.22 | 170250 | 188421
11 | 41:52.22 | 3:59.12 | 188422 | 206358
12 | 45:51.34 | 3:57.18 | 206359 | 224151
13 | 49:48.52 | 3:16.34 | 224152 | 238885
14 | 53:05.11 | 3:36.56 | 238886 | 255141
15 | 56:41.67 | 3:51.53 | 255142 | 272519
16 | 60:33.45 | 4:40.42 | 272520 | 293561
17 | 65:14.12 | 3:46.13 | 293562 | 310524
18 | 69:00.25 | 3:22.22 | 310525 | 325696
19 | 72:22.47 | 3:32.20 | 325697 | 341616
20 | 75:54.67 | 3:26.32 | 341617 | 357098


Track 1

Filename G:\Music\VA - Greatest Ever Soul & Disco (2021) [EAC-FLAC] {GTST4CDW20}\CD3\01 - The Trammps - Disco Inferno.wav

Pre-gap length 0:00:02.00

Peak level 83.1 %
Extraction speed 4.9 X
Track quality 100.0 %
Test CRC C798F6E6
Copy CRC C798F6E6
Track not present in AccurateRip database
Copy OK

Track 2

Filename G:\Music\VA - Greatest Ever Soul & Disco (2021) [EAC-FLAC] {GTST4CDW20}\CD3\02 - Chaka Khan - I'm Every Woman.wav

Pre-gap length 0:00:00.02

Peak level 78.5 %
Extraction speed 5.4 X
Track quality 100.0 %
Test CRC 04140CDD
Copy CRC 04140CDD
Track not present in AccurateRip database
Copy OK

Track 3

Filename G:\Music\VA - Greatest Ever Soul & Disco (2021) [EAC-FLAC] {GTST4CDW20}\CD3\03 - Loleatta Holloway - Love Sensation.wav

Pre-gap length 0:00:00.14

Peak level 100.0 %
Extraction speed 5.6 X
Track quality 100.0 %
Test CRC DD85F360
Copy CRC DD85F360
Track not present in AccurateRip database
Copy OK

Track 4

Filename G:\Music\VA - Greatest Ever Soul & Disco (2021) [EAC-FLAC] {GTST4CDW20}\CD3\04 - Norma Jean Wright - Saturday.wav

Pre-gap length 0:00:00.12

Peak level 100.0 %
Extraction speed 5.9 X
Track quality 99.9 %
Test CRC 3786416E
Copy CRC 3786416E
Track not present in AccurateRip database
Copy OK

Track 5

Filename G:\Music\VA - Greatest Ever Soul & Disco (2021) [EAC-FLAC] {GTST4CDW20}\CD3\05 - Chic - Good Times.wav

Pre-gap length 0:00:00.18

Peak level 68.1 %
Extraction speed 5.7 X
Track quality 99.9 %
Test CRC 4752623F
Copy CRC 4752623F
Track not present in AccurateRip database
Copy OK

Track 6

Filename G:\Music\VA - Greatest Ever Soul & Disco (2021) [EAC-FLAC] {GTST4CDW20}\CD3\06 - Carol Williams - Love Is You.wav

Pre-gap length 0:00:00.02

Peak level 100.0 %
Extraction speed 6.4 X
Track quality 99.9 %
Test CRC 80AC556E
Copy CRC 80AC556E
Track not present in AccurateRip database
Copy OK

Track 7

Filename G:\Music\VA - Greatest Ever Soul & Disco (2021) [EAC-FLAC] {GTST4CDW20}\CD3\07 - The Salsoul Orchestra - Run Away.wav

Pre-gap length 0:00:00.29

Peak level 86.3 %
Extraction speed 7.3 X
Track quality 100.0 %
Test CRC 47CF2C48
Copy CRC 47CF2C48
Track not present in AccurateRip database
Copy OK

Track 8

Filename G:\Music\VA - Greatest Ever Soul & Disco (2021) [EAC-FLAC] {GTST4CDW20}\CD3\08 - Carrie Lucas - Dance With You.wav

Pre-gap length 0:00:00.05

Peak level 100.0 %
Extraction speed 7.3 X
Track quality 100.0 %
Test CRC B76E8CDC
Copy CRC B76E8CDC
Track not present in AccurateRip database
Copy OK

Track 9

Filename G:\Music\VA - Greatest Ever Soul & Disco (2021) [EAC-FLAC] {GTST4CDW20}\CD3\09 - Stargard - Wear It Out.wav

Pre-gap length 0:00:00.06

Peak level 88.1 %
Extraction speed 6.6 X
Track quality 99.9 %
Test CRC 6692BC98
Copy CRC 6692BC98
Track not present in AccurateRip database
Copy OK

Track 10

Filename G:\Music\VA - Greatest Ever Soul & Disco (2021) [EAC-FLAC] {GTST4CDW20}\CD3\10 - Aurra - Checking You Out.wav

Pre-gap length 0:00:00.10

Peak level 100.0 %
Extraction speed 7.9 X
Track quality 100.0 %
Test CRC A28263B5
Copy CRC A28263B5
Track not present in AccurateRip database
Copy OK

Track 11

Filename G:\Music\VA - Greatest Ever Soul & Disco (2021) [EAC-FLAC] {GTST4CDW20}\CD3\11 - Coffee - Casanova.wav

Pre-gap length 0:00:00.13

Peak level 100.0 %
Extraction speed 8.1 X
Track quality 100.0 %
Test CRC F7570C52
Copy CRC F7570C52
Track not present in AccurateRip database
Copy OK

Track 12

Filename G:\Music\VA - Greatest Ever Soul & Disco (2021) [EAC-FLAC] {GTST4CDW20}\CD3\12 - Sparque - Let's Go Dancin'.wav

Pre-gap length 0:00:00.08

Peak level 100.0 %
Extraction speed 8.2 X
Track quality 100.0 %
Test CRC B1633C8D
Copy CRC B1633C8D
Track not present in AccurateRip database
Copy OK

Track 13

Filename G:\Music\VA - Greatest Ever Soul & Disco (2021) [EAC-FLAC] {GTST4CDW20}\CD3\13 - Retta Young - Sending Out An S.O.S..wav

Pre-gap length 0:00:00.04

Peak level 100.0 %
Extraction speed 8.1 X
Track quality 100.0 %
Test CRC 67DAF8DB
Copy CRC 67DAF8DB
Track not present in AccurateRip database
Copy OK

Track 14

Filename G:\Music\VA - Greatest Ever Soul & Disco (2021) [EAC-FLAC] {GTST4CDW20}\CD3\14 - Charo & The Salsoul Orchestra - You're Just The Right Size.wav

Pre-gap length 0:00:00.10

Peak level 100.0 %
Extraction speed 8.4 X
Track quality 100.0 %
Test CRC 919E34DA
Copy CRC 919E34DA
Track not present in AccurateRip database
Copy OK

Track 15

Filename G:\Music\VA - Greatest Ever Soul & Disco (2021) [EAC-FLAC] {GTST4CDW20}\CD3\15 - Citi - Roller Disco.wav

Pre-gap length 0:00:00.05

Peak level 73.3 %
Extraction speed 7.6 X
Track quality 99.9 %
Test CRC 1D30FABA
Copy CRC 1D30FABA
Track not present in AccurateRip database
Copy OK

Track 16

Filename G:\Music\VA - Greatest Ever Soul & Disco (2021) [EAC-FLAC] {GTST4CDW20}\CD3\16 - Barbara Mason - Don't I Ever Cross Your Mind.wav

Pre-gap length 0:00:00.05

Peak level 100.0 %
Extraction speed 9.1 X
Track quality 100.0 %
Test CRC 1AF4BD92
Copy CRC 1AF4BD92
Track not present in AccurateRip database
Copy OK

Track 17

Filename G:\Music\VA - Greatest Ever Soul & Disco (2021) [EAC-FLAC] {GTST4CDW20}\CD3\17 - The Moments - Nine Times.wav

Pre-gap length 0:00:00.05

Peak level 75.1 %
Extraction speed 8.9 X
Track quality 100.0 %
Test CRC D015FCB6
Copy CRC D015FCB6
Track not present in AccurateRip database
Copy OK

Track 18

Filename G:\Music\VA - Greatest Ever Soul & Disco (2021) [EAC-FLAC] {GTST4CDW20}\CD3\18 - The Real Thing - Let's Go Disco.wav

Pre-gap length 0:00:00.06

Peak level 81.2 %
Extraction speed 9.0 X
Track quality 100.0 %
Test CRC E33D7DBF
Copy CRC E33D7DBF
Track not present in AccurateRip database
Copy OK

Track 19

Filename G:\Music\VA - Greatest Ever Soul & Disco (2021) [EAC-FLAC] {GTST4CDW20}\CD3\19 - The Rimshots - 7-6-5-4-3-2-1 (Blow Your Whistle).wav

Pre-gap length 0:00:00.01

Peak level 95.1 %
Extraction speed 9.3 X
Track quality 100.0 %
Test CRC 21D16D0F
Copy CRC 21D16D0F
Track not present in AccurateRip database
Copy OK

Track 20

Filename G:\Music\VA - Greatest Ever Soul & Disco (2021) [EAC-FLAC] {GTST4CDW20}\CD3\20 - Candido - Jingo.wav

Pre-gap length 0:00:00.06

Peak level 96.1 %
Extraction speed 9.3 X
Track quality 100.0 %
Test CRC 58C62DB9
Copy CRC 58C62DB9
Track not present in AccurateRip database
Copy OK


None of the tracks are present in the AccurateRip database

No errors occurred

End of status report

–– CUETools DB Plugin V2.1.6

[CTDB TOCID: 1rkwlDBAzAEXfYmyBosl1gOVC24-] disk not present in database
Submit result: 1rkwlDBAzAEXfYmyBosl1gOVC24- has been uploaded


==== Log checksum C05E40BAE44E11637632742B4ED6B5A812338B482A664C2A6DE408128C9BC3D7 ====

Exact Audio Copy V1.6 from 23. October 2020

EAC extraction logfile from 18. September 2021, 16:37

Various Artists / Greatest Ever Soul & Disco

Used drive : PIONEER BD-RW BDR-209D Adapter: 1 ID: 0

Read mode : Secure
Utilize accurate stream : Yes
Defeat audio cache : Yes
Make use of C2 pointers : No

Read offset correction : 667
Overread into Lead-In and Lead-Out : No
Fill up missing offset samples with silence : Yes
Delete leading and trailing silent blocks : No
Null samples used in CRC calculations : Yes
Used interface : Native Win32 interface for Win NT & 2000
Gap handling : Appended to previous track

Used output format : User Defined Encoder
Selected bitrate : 1024 kBit/s
Quality : High
Add ID3 tag : No
Command line compressor : C:\Program Files (x86)\Exact Audio Copy\Flac\flac.exe
Additional command line options : -8 -V -T "ARTIST=%artist%" -T "TITLE=%title%" -T "ALBUM=%albumtitle%" -T "DATE=%year%" -T "TRACKNUMBER=%tracknr%" -T "GENRE=%genre%" -T "PERFORMER=%albuminterpret%" -T "COMPOSER=%composer%" -T "ALBUMARTIST=%albumartist%" -T "DISCNUMBER=%cdnumber%" -T "TOTALDISCS=%totalcds%" -T "TOTALTRACKS=%numtracks%" -T "COMMENT=%comment%" %source% -o %dest%


TOC of the extracted CD

Track | Start | Length | Start sector | End sector
––––––––––––––––––––––––––––-
1 | 0:00.00 | 3:50.61 | 0 | 17310
2 | 3:50.61 | 4:07.07 | 17311 | 35842
3 | 7:57.68 | 3:03.33 | 35843 | 49600
4 | 11:01.26 | 4:57.49 | 49601 | 71924
5 | 15:59.00 | 4:02.33 | 71925 | 90107
6 | 20:01.33 | 4:22.26 | 90108 | 109783
7 | 24:23.59 | 3:54.36 | 109784 | 127369
8 | 28:18.20 | 3:33.52 | 127370 | 143396
9 | 31:51.72 | 4:08.34 | 143397 | 162030
10 | 36:00.31 | 3:18.68 | 162031 | 176948
11 | 39:19.24 | 4:02.09 | 176949 | 195107
12 | 43:21.33 | 4:18.48 | 195108 | 214505
13 | 47:40.06 | 3:18.52 | 214506 | 229407
14 | 50:58.58 | 3:47.28 | 229408 | 246460
15 | 54:46.11 | 3:20.10 | 246461 | 261470
16 | 58:06.21 | 3:26.58 | 261471 | 276978
17 | 61:33.04 | 4:25.57 | 276979 | 296910
18 | 65:58.61 | 4:00.19 | 296911 | 314929
19 | 69:59.05 | 3:55.04 | 314930 | 332558
20 | 73:54.09 | 3:57.16 | 332559 | 350349


Track 1

Filename G:\Music\VA - Greatest Ever Soul & Disco (2021) [EAC-FLAC] {GTST4CDW20}\CD4\01 - Charles Wright & The Watts 103rd Street Rhythm Band - Express Yourself.wav

Pre-gap length 0:00:02.00

Peak level 100.0 %
Extraction speed 5.0 X
Track quality 100.0 %
Test CRC BD185C09
Copy CRC BD185C09
Track not present in AccurateRip database
Copy OK

Track 2

Filename G:\Music\VA - Greatest Ever Soul & Disco (2021) [EAC-FLAC] {GTST4CDW20}\CD4\02 - Ben E. King - Supernatural Thing Part 1.wav

Pre-gap length 0:00:00.29

Peak level 93.0 %
Extraction speed 5.4 X
Track quality 100.0 %
Test CRC C36F787E
Copy CRC C36F787E
Track not present in AccurateRip database
Copy OK

Track 3

Filename G:\Music\VA - Greatest Ever Soul & Disco (2021) [EAC-FLAC] {GTST4CDW20}\CD4\03 - The Meters - Cissy Strut.wav

Pre-gap length 0:00:00.10

Peak level 100.0 %
Extraction speed 5.6 X
Track quality 100.0 %
Test CRC BD10F8EC
Copy CRC BD10F8EC
Track not present in AccurateRip database
Copy OK

Track 4

Filename G:\Music\VA - Greatest Ever Soul & Disco (2021) [EAC-FLAC] {GTST4CDW20}\CD4\04 - Earth, Wind & Fire - I Can Feel It In My Bones.wav

Pre-gap length 0:00:00.02

Peak level 100.0 %
Extraction speed 6.4 X
Track quality 100.0 %
Test CRC 13C98E87
Copy CRC 13C98E87
Track not present in AccurateRip database
Copy OK

Track 5

Filename G:\Music\VA - Greatest Ever Soul & Disco (2021) [EAC-FLAC] {GTST4CDW20}\CD4\05 - Eddie Hazel - California Dreamin'.wav

Pre-gap length 0:00:00.14

Peak level 89.0 %
Extraction speed 6.6 X
Track quality 100.0 %
Test CRC E29ED5E1
Copy CRC E29ED5E1
Track not present in AccurateRip database
Copy OK

Track 6

Filename G:\Music\VA - Greatest Ever Soul & Disco (2021) [EAC-FLAC] {GTST4CDW20}\CD4\06 - Double Exposure - My Love Is Free.wav

Pre-gap length 0:00:00.14

Peak level 100.0 %
Extraction speed 7.0 X
Track quality 100.0 %
Test CRC EC9D00D1
Copy CRC EC9D00D1
Track not present in AccurateRip database
Copy OK

Track 7

Filename G:\Music\VA - Greatest Ever Soul & Disco (2021) [EAC-FLAC] {GTST4CDW20}\CD4\07 - Narada Michael Walden - I Shoulda Loved Ya.wav

Pre-gap length 0:00:00.05

Peak level 78.5 %
Extraction speed 7.1 X
Track quality 100.0 %
Test CRC 86056484
Copy CRC 86056484
Track not present in AccurateRip database
Copy OK

Track 8

Filename G:\Music\VA - Greatest Ever Soul & Disco (2021) [EAC-FLAC] {GTST4CDW20}\CD4\08 - Shalamar - I Owe You One.wav

Pre-gap length 0:00:00.06

Peak level 76.9 %
Extraction speed 7.3 X
Track quality 100.0 %
Test CRC 1518CAA7
Copy CRC 1518CAA7
Track not present in AccurateRip database
Copy OK

Track 9

Filename G:\Music\VA - Greatest Ever Soul & Disco (2021) [EAC-FLAC] {GTST4CDW20}\CD4\09 - Raw Silk - Do It To The Music.wav

Pre-gap length 0:00:00.02

Peak level 89.1 %
Extraction speed 7.7 X
Track quality 100.0 %
Test CRC 01439927
Copy CRC 01439927
Track not present in AccurateRip database
Copy OK

Track 10

Filename G:\Music\VA - Greatest Ever Soul & Disco (2021) [EAC-FLAC] {GTST4CDW20}\CD4\10 - Instant Funk - I Got My Mind Made Up.wav

Pre-gap length 0:00:00.14

Peak level 89.1 %
Extraction speed 7.6 X
Track quality 100.0 %
Test CRC 49A65096
Copy CRC 49A65096
Track not present in AccurateRip database
Copy OK

Track 11

Filename G:\Music\VA - Greatest Ever Soul & Disco (2021) [EAC-FLAC] {GTST4CDW20}\CD4\11 - Dazzle - Walk Before You Run.wav

Pre-gap length 0:00:00.02

Peak level 82.3 %
Extraction speed 8.1 X
Track quality 100.0 %
Test CRC 2852E441
Copy CRC 2852E441
Track not present in AccurateRip database
Copy OK

Track 12

Filename G:\Music\VA - Greatest Ever Soul & Disco (2021) [EAC-FLAC] {GTST4CDW20}\CD4\12 - Taana Gardner - Heartbeat.wav

Pre-gap length 0:00:00.12

Peak level 86.6 %
Extraction speed 7.5 X
Track quality 99.9 %
Test CRC 79016216
Copy CRC 79016216
Track not present in AccurateRip database
Copy OK

Track 13

Filename G:\Music\VA - Greatest Ever Soul & Disco (2021) [EAC-FLAC] {GTST4CDW20}\CD4\13 - Dynasty - I Don't Want To Be A Freak (But I Can't Help Myself).wav

Pre-gap length 0:00:00.09

Peak level 70.7 %
Extraction speed 8.3 X
Track quality 100.0 %
Test CRC C0927A50
Copy CRC C0927A50
Track not present in AccurateRip database
Copy OK

Track 14

Filename G:\Music\VA - Greatest Ever Soul & Disco (2021) [EAC-FLAC] {GTST4CDW20}\CD4\14 - Skyy - Call Me.wav

Pre-gap length 0:00:00.26

Peak level 91.2 %
Extraction speed 7.5 X
Track quality 99.9 %
Test CRC E8A79437
Copy CRC E8A79437
Track not present in AccurateRip database
Copy OK

Track 15

Filename G:\Music\VA - Greatest Ever Soul & Disco (2021) [EAC-FLAC] {GTST4CDW20}\CD4\15 - Positive Force - We Got The Funk.wav

Pre-gap length 0:00:00.06

Peak level 82.4 %
Extraction speed 8.6 X
Track quality 100.0 %
Test CRC A24FC8CB
Copy CRC A24FC8CB
Track not present in AccurateRip database
Copy OK

Track 16

Filename G:\Music\VA - Greatest Ever Soul & Disco (2021) [EAC-FLAC] {GTST4CDW20}\CD4\16 - Larry Graham - Sooner Or Later.wav

Pre-gap length 0:00:00.12

Peak level 100.0 %
Extraction speed 8.8 X
Track quality 100.0 %
Test CRC 0431039B
Copy CRC 0431039B
Track not present in AccurateRip database
Copy OK

Track 17

Filename G:\Music\VA - Greatest Ever Soul & Disco (2021) [EAC-FLAC] {GTST4CDW20}\CD4\17 - Bootsy Collins - Shine-O-Mite (Rag Poping).wav

Pre-gap length 0:00:00.02

Peak level 91.8 %
Extraction speed 9.4 X
Track quality 100.0 %
Test CRC 68E6E446
Copy CRC 68E6E446
Track not present in AccurateRip database
Copy OK

Track 18

Filename G:\Music\VA - Greatest Ever Soul & Disco (2021) [EAC-FLAC] {GTST4CDW20}\CD4\18 - Lakeside - Fantastic Voyage.wav

Pre-gap length 0:00:00.18

Peak level 95.0 %
Extraction speed 9.4 X
Track quality 100.0 %
Test CRC E2869A69
Copy CRC E2869A69
Track not present in AccurateRip database
Copy OK

Track 19

Filename G:\Music\VA - Greatest Ever Soul & Disco (2021) [EAC-FLAC] {GTST4CDW20}\CD4\19 - Midnight Star - Freak-A-Zoid.wav

Pre-gap length 0:00:00.13

Peak level 100.0 %
Extraction speed 8.4 X
Track quality 99.9 %
Test CRC 352331FD
Copy CRC 352331FD
Track not present in AccurateRip database
Copy OK

Track 20

Filename G:\Music\VA - Greatest Ever Soul & Disco (2021) [EAC-FLAC] {GTST4CDW20}\CD4\20 - Zapp - More Bounce To The Ounce.wav

Pre-gap length 0:00:00.12

Peak level 88.1 %
Extraction speed 9.8 X
Track quality 100.0 %
Test CRC F77C006F
Copy CRC F77C006F
Track not present in AccurateRip database
Copy OK


None of the tracks are present in the AccurateRip database

No errors occurred

End of status report

–– CUETools DB Plugin V2.1.6

[CTDB TOCID: D4_I4qVkLupLMDl8zB5eWatVoFA-] disk not present in database
Submit result: D4_I4qVkLupLMDl8zB5eWatVoFA- has been uploaded


==== Log checksum BCB7F344E42E3C635CBD185851E077AE40CFC9F71983232863F7914B117B682C ====


Tracklist :::
CD 1
01 - Sister Sledge - He's The Greatest Dancer (6:15)
02 - Chic - Le Freak (3:32)
03 - Curtis Mayfield - Move On Up (2:45)
04 - The Spinners - I'll Be Around (3:08)
05 - Hot Chocolate - You Sexy Thing (4:04)
06 - Kc & The Sunshine Band - That's The Way (I Like It) (3:05)
07 - Stacy Lattisaw - Jump To The Beat (3:21)
08 - Shalamar - A Night To Remember (3:31)
09 - Amii Stewart - Knock On Wood (4:10)
10 - Candi Staton - Suspicious Minds (3:50)
11 - Betty Wright - Clean Up Woman (2:46)
12 - Shirley & Company - Shame, Shame, Shame (4:52)
13 - George Mccrae - Rock Your Baby (3:20)
14 - Kelly Marie - Feels Like I'm In Love (3:14)
15 - First Choice - Let No Man Put Asunder (8:00)
16 - The Whispers - And The Beat Goes On (4:55)
17 - Crown Heights Affair - You Gave Me Love (5:50)
18 - Rose Royce - Is It Love You're After (5:05)
19 - Randy Crawford - You Might Need Somebody (4:14)
20 - Rufus, Chaka Khan - Ain't Nobody (4:45)

CD 2
01 - Aretha Franklin - Rock Steady (3:13)
02 - Bettye Swann - When The Game Is Played On You (3:08)
03 - Wilson Pickett - Don't Knock My Love, Pt. 1 (2:16)
04 - Donny Hathaway - Love, Love, Love (3:24)
05 - Baby Huey - Hard Times (3:23)
06 - The Impressions - Fool For You (2:52)
07 - Margie Joseph - Let's Stay Together (3:27)
08 - Jackie Moore - Time (3:28)
09 - Al Hudson, The Soul Partners - I'm About Loving You (2:54)
10 - The Moments - Jack In The Box (3:58)
11 - The Staples Aka The Staple Singers - Unlock Your Mind (3:19)
12 - Allen Toussaint - Soul Sister (2:47)
13 - Randy Crawford - Rainy Night In Georgia (5:18)
14 - Archie Bell And The Drells - Wrap It Up (2:48)
15 - Linda Lewis - Sideway Shuffle (3:11)
16 - Barbara Lynn - You Make Me So Hot (2:32)
17 - Pat Lundy - Party Music (4:09)
18 - Madeline Bell - Dance, Dance, Dance (2:34)
19 - The Javells, Nosmo King - Goodbye (Nothing To Say) (2:46)
20 - Richie Havens - Going Back To My Roots (5:03)

CD 3
01 - The Trammps - Disco Inferno (10:50)
02 - Chaka Khan - I'm Every Woman (4:07)
03 - Loleatta Holloway - Love Sensation (6:06)
04 - Norma Jean Wright - Saturday (3:28)
05 - Chic - Good Times (3:41)
06 - Carol Williams - Love Is You (5:07)
07 - The Salsoul Orchestra - Run Away (4:44)
08 - Carrie Lucas - Dance With You (6:32)
09 - Stargard - Wear It Out (5:17)
10 - Aurra - Checking You Out (6:02)
11 - Coffee - Casanova (Single Version) (3:30)
12 - Sparque - Let's Go Dancin' (8:15)
13 - Retta Young - Sending Out An S.O.S. (3:13)
14 - Charo, The Salsoul Orchestra - You're Just The Right Size (3:40)
15 - Citi - Roller Disco (7:27)
16 - Barbara Mason - Don't I Ever Cross Your Mind (5:53)
17 - The Moments - Nine Times (4:32)
18 - The Real Thing - Let's Go Disco (3:23)
19 - The Rimshots - 7-6-5-4-3-2-1 (Blow Your Whistle) (3:25)
20 - Candido - Jingo (9:26)

CD 4
01 - Charles Wright & The Watts 103Rd. Street Rhythm Band - Express Yourself (3:51)
02 - Ben E. King - Supernatural Thing, Pt. 1 (4:07)
03 - The Meters - Cissy Strut (3:05)
04 - Earth, Wind & Fire - I Can Feel It In My Bones (5:07)
05 - Eddie Hazel - California Dreamin' (6:17)
06 - Double Exposure - My Love Is Free (9:42)
07 - Narada Michael Walden - I Shoulda Loved You (3:55)
08 - Shalamar - I Owe You One (3:36)
09 - Raw Silk - Do It To The Music (6:33)
10 - Instant Funk - I Got My Mind Made Up (5:17)
11 - Dazzle - Walk Before You Run (4:06)
12 - Taana Gardner - Heartbeat (5:49)
13 - Dynasty - I Don't Want To Be A Freak (But I Can't Help Myself) (7:12)
14 - Skyy - Call Me (6:23)
15 - Positive Force - We Got The Funk (3:20)
16 - Larry Graham - Sooner Or Later (2:28)
17 - Bootsy Collins - Shine-O-Mite (Rag Poping) (4:33)
18 - Lakeside - Fantastic Voyage (6:06)
19 - Midnight Star - Freak-A-Zoid (3:59)
20 - Zapp - More Bounce To The Ounce (5:11)

Thanks to Original Re-leaser.