Tags
Language
Tags

Gianluca Capuano, Les Musiciens du Prince-Monaco - Handel: Ariodante (2021/2017) [BDRip]

Posted By: Vilboa
Gianluca Capuano, Les Musiciens du Prince-Monaco - Handel: Ariodante (2021/2017) [BDRip]

Gianluca Capuano, Les Musiciens du Prince-Monaco - Handel: Ariodante (2021/2017) [BDRip]
BluRay-rip | AVC | MKV 1280x720 / 2762 kbps / 29,970 fps | 216 min | 4,87 Gb
Audio: Italiano / AC3 / 6ch / 48.0 KHz / 448 Kbps
Classical | Unitel Edition | Sub: Italian, English, German, French, Korean, Japanese

At Salzburg Festival, Cecilia Bartoli shines as Ariodante with her dazzling coloratura in a highly acclaimed new production by the German director Christoph Loy, who is known for his clever psychological stagings. Loy turns Handel's splendid baroque opera into an exciting and differentiated reflection on gender roles. A high-class ensemble, first and foremost a brilliant Cecilia Bartoli in the trouser role of the knight Ariodante who effortlessly switches between cheerful and lamenting virtuoso singing makes the production a true triumph. At her side perform audience favourite Rolando Villazón as Lurcano and young American soprano Kathryn Lewek, praised by critics as a „true discovery“ (Neue Zürcher Zeitung). Gianluca Capuano at the podium of the Musiciens du Prince – Monaco „provides for elegance, richness of colour and a sensitive, stirring realisation of the ingenious score.“ (Kurier). „Cecilia Bartoli is a league of her own!" (Der Standard). "The singing was sensational" (LA Times)

Cast:
Ariodante - Cecilia Bartoli
The King of Scotland - Nathan Berg
Ginevra - Kathryn Lewek
Lurcanio - Rolando Villazón
Polinesso - Christophe Dumaux
Dalinda - Sandrine Piau
Odoardo - Kristofer Lundin
Salzburg Bach Choir
Les Musiciens du Prince-Monaco
Gianluca Capuano, conductor


General
Unique ID : 244260584246266034680117808338935263051 (0xB7C2E09992BAC29FBDBFE4C5CEB0AF4B)
Complete name : C:\Ariodante.mkv
Format : Matroska
Format version : Version 2
File size : 4.87 GiB
Duration : 3h 36mn
Overall bit rate : 3 228 Kbps
Movie name : Ariodante
Encoded date : UTC 2021-06-28 17:26:22
Writing application : DVDFab 9.1.6.8
Writing library : libebml v0.7.8 + libmatroska v0.8.1

Video
ID : 1
Format : AVC
Format/Info : Advanced Video Codec
Format profile : High@L4.1
Format settings, CABAC : Yes
Format settings, ReFrames : 2 frames
Format settings, GOP : M=3, N=24
Codec ID : V_MPEG4/ISO/AVC
Duration : 3h 36mn
Bit rate : 2 762 Kbps
Width : 1 280 pixels
Height : 720 pixels
Display aspect ratio : 16:9
Frame rate mode : Constant
Frame rate : 29.970 fps
Color space : YUV
Chroma subsampling : 4:2:0
Bit depth : 8 bits
Scan type : Progressive
Bits/(Pixel*Frame) : 0.100
Stream size : 4.10 GiB (84%)
Writing library : x264 core 142
Encoding settings : cabac=1 / ref=1 / deblock=1:-1:-1 / analyse=0x3:0 / me=hex / subme=5 / psy=0 / mixed_ref=0 / me_range=16 / chroma_me=1 / trellis=0 / 8x8dct=1 / cqm=0 / deadzone=21,11 / fast_pskip=1 / chroma_qp_offset=0 / threads=8 / lookahead_threads=2 / sliced_threads=0 / nr=0 / decimate=1 / interlaced=0 / bluray_compat=0 / constrained_intra=0 / bframes=2 / b_pyramid=0 / b_adapt=1 / b_bias=0 / direct=1 / weightb=1 / open_gop=0 / weightp=0 / keyint=24 / keyint_min=13 / scenecut=40 / intra_refresh=0 / rc=abr / mbtree=0 / bitrate=2762 / ratetol=1.0 / qcomp=0.60 / qpmin=0 / qpmax=69 / qpstep=4 / ip_ratio=1.40 / pb_ratio=1.30 / aq=1:1.00
Default : Yes
Forced : No
Color primaries : BT.709
Transfer characteristics : BT.709
Matrix coefficients : BT.709
Color range : Limited

Audio
ID : 2
Format : AC-3
Format/Info : Audio Coding 3
Mode extension : CM (complete main)
Format settings, Endianness : Big
Codec ID : A_AC3
Duration : 3h 36mn
Bit rate mode : Constant
Bit rate : 448 Kbps
Channel(s) : 6 channels
Channel positions : Front: L C R, Side: L R, LFE
Sampling rate : 48.0 KHz
Bit depth : 16 bits
Compression mode : Lossy
Stream size : 692 MiB (14%)
Language : Italian
Default : Yes
Forced : No

Text #1
ID : 3
Format : VobSub
Codec ID : S_VOBSUB
Codec ID/Info : The same subtitle format used on DVDs
Language : Italian
Default : Yes
Forced : No

Text #2
ID : 4
Format : VobSub
Codec ID : S_VOBSUB
Codec ID/Info : The same subtitle format used on DVDs
Language : German
Default : No
Forced : No

Text #3
ID : 5
Format : VobSub
Codec ID : S_VOBSUB
Codec ID/Info : The same subtitle format used on DVDs
Language : English
Default : No
Forced : No

Text #4
ID : 6
Format : VobSub
Codec ID : S_VOBSUB
Codec ID/Info : The same subtitle format used on DVDs
Language : French
Default : No
Forced : No

Text #5
ID : 7
Format : VobSub
Codec ID : S_VOBSUB
Codec ID/Info : The same subtitle format used on DVDs
Language : Korean
Default : No
Forced : No

Text #6
ID : 8
Format : VobSub
Codec ID : S_VOBSUB
Codec ID/Info : The same subtitle format used on DVDs
Language : Japanese
Default : No
Forced : No

Menu
00:00:00.000 : en:Chapter 01
00:01:32.492 : en:Chapter 02
00:04:10.450 : en:Chapter 03
00:05:09.976 : en:Chapter 04
00:06:50.777 : en:Chapter 05
00:09:17.790 : en:Chapter 06
00:10:07.873 : en:Chapter 07
00:11:53.846 : en:Chapter 08
00:12:26.812 : en:Chapter 09
00:16:29.288 : en:Chapter 10
00:21:03.962 : en:Chapter 11
00:23:23.535 : en:Chapter 12
00:24:03.975 : en:Chapter 13
00:25:27.893 : en:Chapter 14
00:26:44.970 : en:Chapter 15
00:30:24.989 : en:Chapter 16
00:36:31.989 : en:Chapter 17
00:36:46.837 : en:Chapter 18
00:44:00.904 : en:Chapter 19
00:45:25.789 : en:Chapter 20
00:49:44.982 : en:Chapter 21
00:50:22.953 : en:Chapter 22
00:57:08.992 : en:Chapter 23
01:00:47.777 : en:Chapter 24
01:01:39.629 : en:Chapter 25
01:12:04.787 : en:Chapter 26
01:13:56.031 : en:Chapter 27
01:15:35.797 : en:Chapter 28
01:19:49.751 : en:Chapter 29
01:20:44.806 : en:Chapter 30
01:24:23.992 : en:Chapter 31
01:25:04.532 : en:Chapter 32
01:37:48.996 : en:Chapter 33
01:38:19.994 : en:Chapter 34
01:42:44.258 : en:Chapter 35
01:47:01.615 : en:Chapter 36
01:48:26.733 : en:Chapter 37
01:54:03.970 : en:Chapter 38
01:57:19.799 : en:Chapter 39
02:00:31.591 : en:Chapter 40
02:05:54.947 : en:Chapter 41
02:08:55.894 : en:Chapter 42
02:21:46.998 : en:Chapter 43
02:27:04.982 : en:Chapter 44
02:28:16.754 : en:Chapter 45
02:29:40.972 : en:Chapter 46
02:31:40.624 : en:Chapter 47
02:33:13.951 : en:Chapter 48
02:38:45.382 : en:Chapter 49
02:42:46.790 : en:Chapter 50
02:46:30.246 : en:Chapter 51
02:48:11.748 : en:Chapter 52
02:52:21.597 : en:Chapter 53
02:57:33.209 : en:Chapter 54
03:02:46.255 : en:Chapter 55
03:09:42.404 : en:Chapter 56
03:16:52.801 : en:Chapter 57
03:20:03.992 : en:Chapter 58
03:20:55.777 : en:Chapter 59
03:23:48.149 : en:Chapter 60
03:29:37.398 : en:Chapter 61

Gianluca Capuano, Les Musiciens du Prince-Monaco - Handel: Ariodante (2021/2017) [BDRip]