Subcategories

Hank Crawford - Midnight Ramble (1983)

Posted By: Designol
Hank Crawford - Midnight Ramble (1983)

Hank Crawford - Midnight Ramble (1983)
EAC | FLAC | Image (Cue&Log) ~ 233 Mb | Mp3 (CBR320) ~ 116 Mb | Scans included
Hard Bop, Soul Jazz, Saxophone Jazz | Label: Milestone | # 0025218911221 | 00:39:30

Midnight Ramble, released in 1983 on Milestone, was saxophonist Hank Crawford's return to recording after a four-year break following his departure from Kudu. It was the beginning of a decades-long relationship with the prestigious jazz label. Crawford, a veteran of Ray Charles, had long been associated with soul-jazz groove-oriented music. On this date, he delivers a solid, straight-ahead session with some notable surprises. The first is that he plays not only his trademark alto saxophone, but also electric piano. Next is his rhythm section: Dr. John on piano and organ, Charles "Flip" Greene on bass, guitarist Calvin Newborn (brother of Phineas), and stone-cold soul-jazz drummer Bernard Purdie. But that isn't all. Crawford also includes five other horns: two trumpets, trombone, bass saxophone, and David "Fathead" Newman on tenor. Needless to say, Crawford's idea of "straight-ahead" still contains plenty, plenty soul. The program is solid, top to bottom; it's amiable, relaxed, and deeply rooted in the blues. Phineas Newborn's "Theme for Basie" and the saxophonist's own composition of the title track are highlights, as is the gospel-oriented blues of "Deep River," with Dr. John's piano leading the band. Among his better offerings, Midnight Ramble stands as one of the more inspired records Crawford cut after leaving Atlantic in 1969, and reveals that the extended downtime had helped him to regain his focus and his power (both imaginatively and compositionally) as one of the great soul and blues-oriented jazzmen in history.

Review by Thom Jurek, Allmusic.com

Hank Crawford at Allmusic
Hank Crawford at Wiki

Hank Crawford - alto saxophone, electric piano
David “Fathead” Newman - tenor saxophone
Howard Johnson - baritone saxophone
Waymon Reed - trumpet
Charlie Miller - trumpet
Dick Griffin - trombone
Calvin Newborn - guitar
Dr. John - piano, organ
Charles "Flip" Greene - bass
Bernard Purdie - drums

Tracklist:

01. Midnight Ramble (06:09)
02. Forever Mine (05:35)
03. Theme For Basie (05:55)
04. Mister C (05:57)
05. Street Of Dreams (05:09)
06. Next Time You See Me (04:50)
07. Deep River (05:52)


Exact Audio Copy V1.1 from 23. June 2015

Отчёт EAC об извлечении, выполненном 3. июля 2015, 18:25

Hank Crawford / Midnight Ramble

Дисковод: SONY CD-RW CRX230ED Adapter: 1 ID: 0

Режим чтения : Достоверность
Использование точного потока : Да
Отключение кэша аудио : Да
Использование указателей C2 : Нет

Коррекция смещения при чтении : 6
Способность читать области Lead-in и Lead-out : Нет
Заполнение пропущенных сэмплов тишиной : Да
Удаление блоков с тишиной в начале и конце : Нет
При вычислениях CRC использовались нулевые сэмплы : Да
Интерфейс : Встроенный Win32-интерфейс для Win NT/2000

Выходной формат : Внутренние WAV-операции
Формат сэмплов : 44.100 Гц; 16 бит; стерео


TOC извлечённого CD

Трек | Старт | Длительность | Начальный сектор | Конечный сектор
––––––––––––––––––––––––––––––––––-
1 | 0:00.00 | 6:09.52 | 0 | 27726
2 | 6:09.52 | 5:35.55 | 27727 | 52906
3 | 11:45.32 | 5:55.05 | 52907 | 79536
4 | 17:40.37 | 5:57.15 | 79537 | 106326
5 | 23:37.52 | 5:09.50 | 106327 | 129551
6 | 28:47.27 | 4:50.10 | 129552 | 151311
7 | 33:37.37 | 5:52.05 | 151312 | 177716


Характеристики диапазона извлечения и сообщения об ошибках

Выбранный диапазон

Имя файла F:\MusicCD\Torrent\Hank Crawford - Midnight Ramble\Hank Crawford - Midnight Ramble.wav

Пиковый уровень 100.0 %
Скорость извлечения 7.0 X
Качество диапазона 100.0 %
CRC теста 9A3858E1
CRC копии 9A3858E1
Копирование… OK

Ошибок не произошло


AccurateRip: сводка

Трек 1 : извлечено точно (доверие 1) [1AFC3B7F] (AR v2)
Трек 2 : извлечено точно (доверие 1) [EFD27727] (AR v2)
Трек 3 : извлечено точно (доверие 1) [CD983E00] (AR v2)
Трек 4 : извлечено точно (доверие 1) [AFBC6615] (AR v2)
Трек 5 : извлечено точно (доверие 1) [888A3231] (AR v2)
Трек 6 : извлечено точно (доверие 1) [1486D5CA] (AR v2)
Трек 7 : извлечено точно (доверие 1) [85523F13] (AR v2)

Все треки извлечены точно

Конец отчёта

–– CUETools DB Plugin V2.1.6

[CTDB TOCID: KwQhlbAPlL6WoxDHWRECimuZ0GE-] found
Submit result: KwQhlbAPlL6WoxDHWRECimuZ0GE- has been confirmed
Track | CTDB Status
1 | (3/3) Accurately ripped
2 | (3/3) Accurately ripped
3 | (3/3) Accurately ripped
4 | (3/3) Accurately ripped
5 | (3/3) Accurately ripped
6 | (3/3) Accurately ripped
7 | (3/3) Accurately ripped


==== Контрольная сумма отчёта 34B0423098EA3B2D6C7096A8E47BE4491943C620E0368D1AECB6BBABF103B703 ====

foobar2000 1.2 / Dynamic Range Meter 1.1.1
log date: 2015-07-05 02:51:01

––––––––––––––––––––––––––––––––––––––––
Analyzed: Hank Crawford / Midnight Ramble
––––––––––––––––––––––––––––––––––––––––

DR Peak RMS Duration Track
––––––––––––––––––––––––––––––––––––––––
DR16 0.00 dB -20.12 dB 6:10 01-Midnight Ramble
DR14 -0.44 dB -20.60 dB 5:36 02-Forever Mine
DR16 0.00 dB -20.67 dB 5:55 03-Theme For Basie
DR16 -0.03 dB -19.26 dB 5:57 04-Mister C
DR14 -2.53 dB -21.34 dB 5:10 05-Street Of Dreams
DR15 -0.63 dB -19.81 dB 4:50 06-Next Time You See Me
DR15 -1.22 dB -20.16 dB 5:52 07-Deep River
––––––––––––––––––––––––––––––––––––––––

Number of tracks: 7
Official DR value: DR15

Samplerate: 44100 Hz
Channels: 2
Bits per sample: 16
Bitrate: 733 kbps
Codec: FLAC
================================================================================

Hank Crawford - Midnight Ramble (1983)

Hank Crawford - Midnight Ramble (1983)