Tags
Language
Tags

Hans Zimmer and Junkie XL - Batman V Superman: Dawn Of Justice - Original Motion Picture Soundtrack (2016) [Deluxe Edition]

Posted By: Efgrapha
Hans Zimmer and Junkie XL - Batman V Superman: Dawn Of Justice - Original Motion Picture Soundtrack (2016) [Deluxe Edition]

Hans Zimmer and Junkie XL - Batman V Superman: Dawn Of Justice
Original Motion Picture Soundtrack (2016) Deluxe Edition, 2 CD

EAC | FLAC (Image) + cue.+log ~ 423 Mb | Mp3, CBR320 kbps ~ 188 Mb | Scans ~ 90 Mb
Soundtrack, Score | Label: WaterTower Music/Sony Classical | # 88985301172 | 01:31:16

Batman V Superman: Dawn Of Justice Original Motion Picture Soundtrack is a collaborative effort by film composers Hans Zimmer and Junkie XL. Hans and Tom created an incredibly compelling and interesting and heart-pounding new musical world for Batman, while continuing to expand on the amazing world and themes Hans had previously created for Superman. Noted director Zack Snyder, By aligning their vision with my perspective and seeing the characters anew through the lens of the film they were able to support the visual aspects of the movie in a way that elevates the film to another level. In so many ways, they become the final texture, the final note in the process of creating the world.

After working with Hans Zimmer in the music department of a handful of prior films, including as a member of Hans Zimmer & the Magnificent Six on the Amazing Spider-Man 2 soundtrack, Junkie XL (aka Tom Holkenborg) receives a co-composer credit for the pair's score to Batman v Superman: Dawn of Justice. Pulsing and ominous, the DC Comics franchise entry features clamorous orchestral fare boosted by occasional choir and electronics, altogether providing near operatic accompaniment as the two superheroes are forced to do battle. The score recording offers over 70 minutes of music, with a deluxe edition adding 20 minutes to the playing time.

Marcy Donelson, All Music Guide

As a fan of Hans Zimmer and having loved Junkie XL's work on the first couple of trailers, I was expecting a lot from this soundtrack and it didn't disappoint. It's as epic of an album as you would expect from the first on-screen meeting between the two most iconic superheroes in history. Slightly more melancholy than I would've expected, but everyone involved in the production is clear about how dark the film itself is. Superman struggling with the public perception of him in the wake of his destructive battle with Zod, and Batman dealing with his typical inner demons on top of the presence of a threat far more dangerous than anything he's ever faced. That is all brought out beautifully in the sounds present on this album.

I also enjoyed the mixture of Superman's themes from Man of Steel with the Batman theme that Junkie XL crafted for this film. Sometimes it's interwoven so seamlessly that you wouldn't expect there were two themes in one (for instance on the first track) where they're blended in a very emotional piece. "Their War Here" picks up the pace immediately as it presumably highlights the battle between Superman and Zod from Bruce Wayne's perspective - depicting the grandiose scale of the fight as well as the toll it is taking on the city. Affleck said that this Batman has suffered a lot of loss even prior to the events of this film, and from the sound of this track and what we've seen in the trailers it's safe to say he probably loses even more here. "The Red Capes are Coming" is Lex Luthor's theme and it perfectly captures the quirky, complex, and evil nature of the character. It caught me off guard at first, as it's resminiscient of Danny Elfman's Batman score in places which leans a little toward camp, but it quickly became one of my favorite tracks.

I'll leave a full, track by track review to someone who is actually an expert in music but my overall take on this soundtrack is that it's deep, bleak and tragic in parts, but it definitely ramps up the action here and there with pounding percussion and choral chants (as well as some electronic motiffs). It's an epic and emotionally enthralling soundtrack that likely depicts a film that is both of those things and more. Having not yet seen the movie in my opinion the soundtrack holds up well on its own, and I can't wait to see how it actually plays out.

Ryan Callaway, Amazon

Hans Zimmer and Junkie XL - Batman V Superman: Dawn Of Justice - Original Motion Picture Soundtrack (2016) [Deluxe Edition]


~ Hans Zimmer at Allmusic
~ Hans Zimmer Website
~ Hans Zimmer at Wiki

~ Junkie XL at Allmusic
~ Junkie XL Website
~ Junkie XL at Wiki

~ Film at IMDB
~ Film at Wiki

Tracklist:

CD1:

01. Beautiful Lie (03:47)
02. Their War Here (04:36)
03. The Red Capes Are Coming (03:31)
04. Day Of The Dead (04:02)
05. Must There Be A Superman? (04:03)
06. New Rules (04:03)
07. Do You Bleed? (04:36)
08. Problems Up Here (04:25)
09. Black And Blue (08:33)
10. Tuesday (04:00)
11. Is She With You? (05:46)
12. This Is My World (06:25)
13. Men Are Still Good (The Batman Suite) (14:08)

CD2:

01. Blood Of My Blood (04:30)
02. Vigilante (04:00)
03. May I Help You, Mr. Wayne? (03:33)
04. They Were Hunters (02:50)
05. Fight Night (04:20)


Exact Audio Copy V1.1 from 23. June 2015

EAC extraction logfile from 18. March 2016, 11:51

Hans Zimmer and Junkie XL / Batman V Superman: Dawn Of Justice CD 1

Used drive : HP DVD Writer 1170d Adapter: 1 ID: 1

Read mode : Secure
Utilize accurate stream : Yes
Defeat audio cache : Yes
Make use of C2 pointers : No

Read offset correction : 6
Overread into Lead-In and Lead-Out : No
Fill up missing offset samples with silence : Yes
Delete leading and trailing silent blocks : No
Null samples used in CRC calculations : Yes
Used interface : Native Win32 interface for Win NT & 2000

Used output format : User Defined Encoder
Selected bitrate : 1024 kBit/s
Quality : Low
Add ID3 tag : No
Command line compressor : C:\Program Files (x86)\Exact Audio Copy\FLAC\FLAC.EXE
Additional command line options : -V -8 -T "Date=%year%" -T "Genre=%genre%" -T"COMMENT=Ripped by Ungern666" -8 -V %source%


TOC of the extracted CD

Track | Start | Length | Start sector | End sector
––––––––––––––––––––––––––––-
1 | 0:00.00 | 3:47.20 | 0 | 17044
2 | 3:47.20 | 4:36.17 | 17045 | 37761
3 | 8:23.37 | 3:31.74 | 37762 | 53660
4 | 11:55.36 | 4:02.06 | 53661 | 71816
5 | 15:57.42 | 4:03.03 | 71817 | 90044
6 | 20:00.45 | 4:03.71 | 90045 | 108340
7 | 24:04.41 | 4:36.28 | 108341 | 129068
8 | 28:40.69 | 4:25.67 | 129069 | 149010
9 | 33:06.61 | 8:33.03 | 149011 | 187488
10 | 41:39.64 | 4:00.69 | 187489 | 205557
11 | 45:40.58 | 5:46.56 | 205558 | 231563
12 | 51:27.39 | 6:25.13 | 231564 | 260451
13 | 57:52.52 | 14:08.19 | 260452 | 324070


Range status and errors

Selected range

Filename C:\EAC\Ungern666\Hans Zimmer and Junkie XL - Batman V Superman- Dawn Of Justice CD 1.wav

Peak level 92.2 %
Extraction speed 8.2 X
Range quality 100.0 %
Test CRC 5C01D5B1
Copy CRC 5C01D5B1
Copy OK

No errors occurred


AccurateRip summary

Track 1 not present in database
Track 2 not present in database
Track 3 not present in database
Track 4 not present in database
Track 5 not present in database
Track 6 not present in database
Track 7 not present in database
Track 8 not present in database
Track 9 not present in database
Track 10 not present in database
Track 11 not present in database
Track 12 not present in database
Track 13 not present in database

None of the tracks are present in the AccurateRip database

End of status report

–– CUETools DB Plugin V2.1.6

[CTDB TOCID: BzwWEjIhDEcCqVBenFaF0q5YmdM-] found
Submit result: BzwWEjIhDEcCqVBenFaF0q5YmdM- has been confirmed
Track | CTDB Status
1 | (1/1) Accurately ripped
2 | (1/1) Accurately ripped
3 | (1/1) Accurately ripped
4 | (1/1) Accurately ripped
5 | (1/1) Accurately ripped
6 | (1/1) Accurately ripped
7 | (1/1) Accurately ripped
8 | (1/1) Accurately ripped
9 | (1/1) Accurately ripped
10 | (1/1) Accurately ripped
11 | (1/1) Accurately ripped
12 | (1/1) Accurately ripped
13 | (1/1) Accurately ripped


==== Log checksum 01EC7785075D44D95D40DF1A389DC0F4F39432E98CEACAD88313754DA216D484 ====

foobar2000 1.2 / Dynamic Range Meter 1.1.1
log date: 2016-04-05 20:29:28

––––––––––––––––––––––––––––––––––––––––
Analyzed: Hans Zimmer and Junkie XL / Batman V Superman: Dawn Of Justice CD 1
––––––––––––––––––––––––––––––––––––––––

DR Peak RMS Duration Track
––––––––––––––––––––––––––––––––––––––––
DR10 -0.70 dB -15.39 dB 3:47 01-Beautiful Lie
DR7 -0.70 dB -11.49 dB 4:36 02-Their War Here
DR9 -0.70 dB -15.40 dB 3:32 03-The Red Capes Are Coming
DR9 -0.70 dB -13.02 dB 4:02 04-Day Of The Dead
DR11 -0.70 dB -15.61 dB 4:03 05-Must There Be A Superman?
DR12 -0.70 dB -18.63 dB 4:04 06-New Rules
DR7 -0.70 dB -10.35 dB 4:36 07-Do You Bleed?
DR8 -0.70 dB -12.81 dB 4:26 08-Problems Up Here
DR10 -0.70 dB -13.98 dB 8:33 09-Black And Blue
DR8 -0.70 dB -12.21 dB 4:01 10-Tuesday
DR9 -0.70 dB -12.17 dB 5:47 11-Is She With You?
DR8 -0.70 dB -15.92 dB 6:25 12-This Is My World
DR7 -0.70 dB -12.71 dB 14:08 13-Men Are Still Good (The Batman Suite)
––––––––––––––––––––––––––––––––––––––––

Number of tracks: 13
Official DR value: DR9

Samplerate: 44100 Hz
Channels: 2
Bits per sample: 16
Bitrate: 656 kbps
Codec: FLAC
================================================================================


Exact Audio Copy V1.1 from 23. June 2015

EAC extraction logfile from 18. March 2016, 12:06

Hans Zimmer and Junkie XL / Batman V Superman: Dawn Of Justice CD 2

Used drive : HP DVD Writer 1170d Adapter: 1 ID: 1

Read mode : Secure
Utilize accurate stream : Yes
Defeat audio cache : Yes
Make use of C2 pointers : No

Read offset correction : 6
Overread into Lead-In and Lead-Out : No
Fill up missing offset samples with silence : Yes
Delete leading and trailing silent blocks : No
Null samples used in CRC calculations : Yes
Used interface : Native Win32 interface for Win NT & 2000

Used output format : User Defined Encoder
Selected bitrate : 1024 kBit/s
Quality : Low
Add ID3 tag : No
Command line compressor : C:\Program Files (x86)\Exact Audio Copy\FLAC\FLAC.EXE
Additional command line options : -V -8 -T "Date=%year%" -T "Genre=%genre%" -T"COMMENT=Ripped by Ungern666" -8 -V %source%


TOC of the extracted CD

Track | Start | Length | Start sector | End sector
––––––––––––––––––––––––––––-
1 | 0:00.00 | 4:30.01 | 0 | 20250
2 | 4:30.01 | 4:00.72 | 20251 | 38322
3 | 8:30.73 | 3:33.07 | 38323 | 54304
4 | 12:04.05 | 2:50.34 | 54305 | 67088
5 | 14:54.39 | 4:20.33 | 67089 | 86621


Range status and errors

Selected range

Filename C:\EAC\Ungern666\Hans Zimmer and Junkie XL - Batman V Superman- Dawn Of Justice CD 2.wav

Peak level 92.2 %
Extraction speed 4.5 X
Range quality 100.0 %
Test CRC 51087773
Copy CRC 51087773
Copy OK

No errors occurred


AccurateRip summary

Track 1 not present in database
Track 2 not present in database
Track 3 not present in database
Track 4 not present in database
Track 5 not present in database

None of the tracks are present in the AccurateRip database

End of status report

–– CUETools DB Plugin V2.1.6

[CTDB TOCID: IL8Sgy82BBF2tmBeYegr0mbsCrs-] disk not present in database
Submit result: IL8Sgy82BBF2tmBeYegr0mbsCrs- has been uploaded


==== Log checksum FF0337203835776F2712281535EB1F38D6622A3BB2F60819EF64BCF18BD1B355 ====

foobar2000 1.2 / Dynamic Range Meter 1.1.1
log date: 2016-04-05 20:29:40

––––––––––––––––––––––––––––––––––––––––
Analyzed: Hans Zimmer and Junkie XL / Batman V Superman: Dawn Of Justice CD 2
––––––––––––––––––––––––––––––––––––––––

DR Peak RMS Duration Track
––––––––––––––––––––––––––––––––––––––––
DR12 -0.70 dB -18.08 dB 4:30 01-Blood Of My Blood
DR14 -0.70 dB -21.28 dB 4:01 02-Vigilante
DR12 -6.87 dB -28.44 dB 3:33 03-May I Help You, Mr. Wayne?
DR12 -6.34 dB -25.68 dB 2:50 04-They Were Hunters
DR4 -0.70 dB -7.27 dB 4:20 05-Fight Night
––––––––––––––––––––––––––––––––––––––––

Number of tracks: 5
Official DR value: DR11

Samplerate: 44100 Hz
Channels: 2
Bits per sample: 16
Bitrate: 619 kbps
Codec: FLAC
================================================================================

Hans Zimmer and Junkie XL - Batman V Superman: Dawn Of Justice - Original Motion Picture Soundtrack (2016) [Deluxe Edition]

Hans Zimmer and Junkie XL - Batman V Superman: Dawn Of Justice - Original Motion Picture Soundtrack (2016) [Deluxe Edition]