Subcategories

VA - Heartbeat: Voices of First Nations Women (1995)

Posted By: Designol
VA - Heartbeat: Voices of First Nations Women (1995)

VA - Heartbeat: Voices of First Nations Women (1995)
EAC | FLAC | Image (Cue&Log) ~ 411 Mb (incl 5%) | Mp3 (CBR320) ~ 213 Mb (incl 5%) | Scans included
Genre: Native American, Ethnic Fusion | Label: Smithsonian Folkways | # SF CD 40415 | Time: 01:09:42

Powerful living music from Native women in the United States and Canada includes performances rarely heard beyond these artists’ communities. Ceremonial and social songs traditionally sung by women, other music now performed by women, and material that combines traditional and contemporary themes and musical forms. Thirty-four selections present a seamless range of solo, choral, and instrumental pieces, forming pulsating and driving music, the heart of Indian Country. "A majestic offering."

Review by Entertainment Weekly

This spectrum of contemporary Native American women singers (and one instrumentalist) in music ranges from the strictly traditionalist to versions that have reworked tradition lightly, mostly through influences from the ‘60s folk movement – Buffy St. Marie, who is somewhat emblematic of that process, contributes one song.

Review by John Storm Roberts, Allmusic.com

This CD is a must if you enjoy Native American music, dance and culture. Although most of the material is relatively short, it allows the CD to be filled with music representing almost every region or "culture area" of North America and a wide range of styles and periods, from contemporary to traditional and pretty much everything in between. Again, as I said this is excellent for authentic Native American music, but you should really be aware of what to expect before rushing out to get this CD. Powwow music can be rough on western ears at first. Once you get used to it though you'll really like it.

Theres a couple songs by the contemporary artists like Ulali (Cherokee) and Joanne Shenandoah (Iroquois) on here which are really great to listen to, along with Lakhota and Pueblo flute songs, love songs of the Ojibwa, social dances of the Iroquois and traditional Dine (Navajo) and Pueblo songs. Beyond that, theres also some more unusual and obscure stuff, like Betty Mae Jumper (former chief of the Seminole Nation of Florida) performing traditional Seminole songs and gospel, and Nancy Richardson (Karok IIRC) performing several songs of the Indians of northern California, including the Kick Dance which was used to initiate shaman.

Theres lots more too, including a Buffy Sainte-Marie's interesting (but quite enjoyable) mix of northern Plains style music with modern pop/rock. Overall, I cannot recommend this CD enough. Even though it only dwells on a small part of Native American music (that performed by women and even then limited to North America) it still does a wonderful job of sampling the diversity. More obscure stuff, such as that of the Nations of California and the Southeast, is included alongside contemporary and traditional music of the Plains, the Southwest and the north, so theres a really good mix. Obviously not everything was covered, but its still a nice introduction. Check it out.

Review by Zekeriyah, Amazon

Tracklist:

01. Six Nations Women Singers - Mother Earth (1:37)
02. Six Nations Women Singers - Bingo Song (1:38)
03. Six Nations Women Singers - Ho Way Hey Yo (1:35)
04. Joanne Shenandoah - Fish Dance Song (1:07)
05. Joanne Shenandoah - I May Want a Man (3:56)
06. Lillian Rainer - Taos Courting Flute Song (1:21)
07. Georgia Wettlin-Larsen - Lakota Flute Song (1:18)
08. Georgia Wettlin-Larsen - Ojibwa Love Charm Song (1:18)
09. Georgia Wettlin-Larsen - Ojibwa Love Song (1:55)
10. Anita Anquoe George - War Mothers' Song (1:47)
11. Mary Ann Meanus - Bunny Hop Dance (1:13)
12. Mary Ann Meanus - Stick Game Song (1:37)
13. Lillian Rainer - Navajo Riding Song (2:18)
14. Sweethearts of Navajoland - Let 'Em Talk (2:22)
15. Sweethearts of Navajoland - One Woman's Man (2:55)
16. Nancy Richardson - Lizard, His Song (1:42)
17. Nancy Richardson - Panther, Her Song (1:22)
18. Nancy Richardson - Kirk Dance Song (1:16)
19. Nancy Richardson - Spotted Fawn Dance (0:52)
20. Betty Mae Jumper - The Mice and the Bad Angel (0:40)
21. Betty Mae Jumper - Turtle's Song to the Wolf (0:44)
22. Geraldine Barney - Glittler Nights (5:46)
23. Geraldine Barney - Tsidii-Bird (1:25)
24. Poldine Carlo - Honor Song for an Older Sister (1:44)
25. Poldine Carlo - World War LL Honor Song (1:11)
26. Arliss Luna - Blessing Song (3:28)
27. Tewa Indian Women's Choir - Ange'in (3:21)
28. Tewa Indian Women's Choir - Holy, Holy, Holy (1:33)
29. Betty Mae Jumper - Beautiful Mansion in the Sky (1:07)
30. Betty Mae Jumper - Hallelujah (1:13)
31. Ulali - Going Home (4:46)
32. Ulali - Mother (2:52)
33. Crying Woman Singers - Northern Lights (3:47)
34. Buffy Sainte-Marie - Starwalker (3:02)


Exact Audio Copy V1.0 beta 3 from 29. August 2011

Отчёт EAC об извлечении, выполненном 5. марта 2016, 13:13

Various Artists / Heartbeat: Voices of First Nations Women

Дисковод: ASUS DRW-1814BL Adapter: 1 ID: 1

Режим чтения : Достоверность
Использование точного потока : Да
Отключение кэша аудио : Да
Использование указателей C2 : Нет

Коррекция смещения при чтении : 6
Способность читать области Lead-in и Lead-out : Нет
Заполнение пропущенных сэмплов тишиной : Да
Удаление блоков с тишиной в начале и конце : Нет
При вычислениях CRC использовались нулевые сэмплы : Да
Интерфейс : Встроенный Win32-интерфейс для Win NT/2000

Выходной формат : Пользовательский кодировщик
Выбранный битрейт : 128 kBit/s
Качество : Высокий
Добавление ID3-тега : Нет
Утилита сжатия : C:\Program Files\Exact Audio Copy\Flac\flac.exe
Дополнительные параметры : -V -8 -T "Date=%year%" -T "Genre=%genre%" %source%


TOC извлечённого CD

Трек | Старт | Длительность | Начальный сектор | Конечный сектор
––––––––––––––––––––––––––––––––––-
1 | 0:00.00 | 1:37.35 | 0 | 7309
2 | 1:37.35 | 1:37.58 | 7310 | 14642
3 | 3:15.18 | 1:35.00 | 14643 | 21767
4 | 4:50.18 | 1:06.42 | 21768 | 26759
5 | 5:56.60 | 3:55.45 | 26760 | 44429
6 | 9:52.30 | 1:20.48 | 44430 | 50477
7 | 11:13.03 | 1:17.45 | 50478 | 56297
8 | 12:30.48 | 1:17.62 | 56298 | 62134
9 | 13:48.35 | 1:54.40 | 62135 | 70724
10 | 15:43.00 | 1:47.33 | 70725 | 78782
11 | 17:30.33 | 1:12.47 | 78783 | 84229
12 | 18:43.05 | 1:36.55 | 84230 | 91484
13 | 20:19.60 | 2:17.40 | 91485 | 101799
14 | 22:37.25 | 2:22.08 | 101800 | 112457
15 | 24:59.33 | 2:54.50 | 112458 | 125557
16 | 27:54.08 | 1:42.02 | 125558 | 133209
17 | 29:36.10 | 1:22.00 | 133210 | 139359
18 | 30:58.10 | 1:15.73 | 139360 | 145057
19 | 32:14.08 | 0:52.02 | 145058 | 148959
20 | 33:06.10 | 0:39.68 | 148960 | 151952
21 | 33:46.03 | 0:44.35 | 151953 | 155287
22 | 34:30.38 | 5:46.00 | 155288 | 181237
23 | 40:16.38 | 1:24.55 | 181238 | 187592
24 | 41:41.18 | 1:43.60 | 187593 | 195377
25 | 43:25.03 | 1:10.42 | 195378 | 200669
26 | 44:35.45 | 3:27.45 | 200670 | 216239
27 | 48:03.15 | 3:20.38 | 216240 | 231277
28 | 51:23.53 | 1:32.62 | 231278 | 238239
29 | 52:56.40 | 1:06.38 | 238240 | 243227
30 | 54:03.03 | 1:12.47 | 243228 | 248674
31 | 55:15.50 | 4:45.70 | 248675 | 270119
32 | 60:01.45 | 2:51.73 | 270120 | 283017
33 | 62:53.43 | 3:47.30 | 283018 | 300072
34 | 66:40.73 | 3:01.67 | 300073 | 313714


Характеристики диапазона извлечения и сообщения об ошибках

Выбранный диапазон

Имя файла C:\Documents and Settings\biotox\Рабочий стол\Новая папка (4)\Various Artists - Heartbeat- Voices of First Nations Women.wav

Пиковый уровень 94.4 %
Скорость извлечения 8.2 X
Качество диапазона 99.9 %
CRC теста AE56C911
CRC копии AE56C911
Копирование… OK

Ошибок не произошло


AccurateRip: сводка

Трек 1 : извлечено точно (доверие 1) [B8F7B795] (AR v2)
Трек 2 : извлечено точно (доверие 1) [D93E17C2] (AR v2)
Трек 3 точность не определена (достоверность 2) [C7BE338E], AccurateRip вернул [B9C11F0F] (AR v2)
Трек 4 : извлечено точно (доверие 1) [B4F0CFDA] (AR v2)
Трек 5 точность не определена (достоверность 2) [DE96844A], AccurateRip вернул [6C57D89B] (AR v2)
Трек 6 : извлечено точно (доверие 1) [D717AFE2] (AR v2)
Трек 7 : извлечено точно (доверие 1) [D4B861D5] (AR v2)
Трек 8 : извлечено точно (доверие 1) [7C6784FB] (AR v2)
Трек 9 : извлечено точно (доверие 1) [EA53A680] (AR v2)
Трек 10 : извлечено точно (доверие 1) [A8259CBB] (AR v2)
Трек 11 точность не определена (достоверность 2) [CF7ABBFA], AccurateRip вернул [39DA5200] (AR v2)
Трек 12 точность не определена (достоверность 2) [6B7C278E], AccurateRip вернул [0AB0F4D2] (AR v2)
Трек 13 точность не определена (достоверность 2) [3F9DDBD6], AccurateRip вернул [B8D8F9B0] (AR v2)
Трек 14 : извлечено точно (доверие 1) [76C3F1F7] (AR v2)
Трек 15 точность не определена (достоверность 2) [F3A79608], AccurateRip вернул [D0974128] (AR v2)
Трек 16 : извлечено точно (доверие 1) [AB541DDF] (AR v2)
Трек 17 : извлечено точно (доверие 1) [558097B3] (AR v2)
Трек 18 : извлечено точно (доверие 1) [D600E469] (AR v2)
Трек 19 : извлечено точно (доверие 1) [F9A15C5C] (AR v2)
Трек 20 : извлечено точно (доверие 1) [140B5957] (AR v2)
Трек 21 : извлечено точно (доверие 1) [39FFA192] (AR v2)
Трек 22 : извлечено точно (доверие 1) [40724F16] (AR v2)
Трек 23 : извлечено точно (доверие 1) [07F8F159] (AR v2)
Трек 24 : извлечено точно (доверие 1) [A17814BB] (AR v2)
Трек 25 : извлечено точно (доверие 1) [8A54574C] (AR v2)
Трек 26 : извлечено точно (доверие 1) [3C6E7B17] (AR v2)
Трек 27 : извлечено точно (доверие 1) [AB867C87] (AR v2)
Трек 28 : извлечено точно (доверие 1) [662E2859] (AR v2)
Трек 29 : извлечено точно (доверие 1) [56ACB7BA] (AR v2)
Трек 30 : извлечено точно (доверие 1) [010D04E8] (AR v2)
Трек 31 : извлечено точно (доверие 1) [643C9409] (AR v2)
Трек 32 точность не определена (достоверность 1) [2A460A10], AccurateRip вернул [565C836B] (AR v2)
Трек 33 точность не определена (достоверность 1) [F2E795EB], AccurateRip вернул [11CC5E09] (AR v2)
Трек 34 : извлечено точно (доверие 1) [7C5A80F2] (AR v2)

26 трек(и) скопированы точно
8 трек(и) не удалось проверить на точность

Некоторые треки не прошли проверку на точность

Конец отчёта

==== Контрольная сумма отчёта CC240F7D36572BA5E8CFC39E85DDFC368F56AEF0647B5714395A624E2E8DA831 ====

foobar2000 1.2 / Dynamic Range Meter 1.1.1
log date: 2016-03-27 13:59:24

––––––––––––––––––––––––––––––––––––––––
Analyzed: Anita Anquoe George / Heartbeat: Voices of First Nations Women (1)
Arliss Luna / Heartbeat: Voices of First Nations Women (2)
––––––––––––––––––––––––––––––––––––––––

DR Peak RMS Duration Track
––––––––––––––––––––––––––––––––––––––––
DR15 -0.50 dB -17.93 dB 1:47 10-War Mothers' Song
DR13 -2.04 dB -18.03 dB 3:28 26-Blessing Song
––––––––––––––––––––––––––––––––––––––––

Number of tracks: 2
Official DR value: DR14

Samplerate: 44100 Hz
Channels: 2
Bits per sample: 16
Bitrate: 698 kbps
Codec: FLAC
================================================================================

––––––––––––––––––––––––––––––––––––––––
Analyzed: Betty Mae Jumper / Heartbeat: Voices of First Nations Women (1-4)
Buffy Sainte-Marie / Heartbeat: Voices of First Nations Women (5)
––––––––––––––––––––––––––––––––––––––––

DR Peak RMS Duration Track
––––––––––––––––––––––––––––––––––––––––
DR13 -3.29 dB -19.69 dB 0:40 20-The Mice and the Bad Angel
DR14 -3.20 dB -20.58 dB 0:44 21-Turtle's Song to the Wolf
DR11 -5.74 dB -20.68 dB 1:07 29-Beautiful Mansion in the Sky
DR15 -4.62 dB -21.52 dB 1:13 30-Hallelujah
DR13 -0.50 dB -16.15 dB 3:02 34-Starwalker
––––––––––––––––––––––––––––––––––––––––

Number of tracks: 5
Official DR value: DR13

Samplerate: 44100 Hz
Channels: 2
Bits per sample: 16
Bitrate: 698 kbps
Codec: FLAC
================================================================================

––––––––––––––––––––––––––––––––––––––––
Statistics for: 33-Northern Lights
Number of samples: 10028340
Duration: 3:47
––––––––––––––––––––––––––––––––––––––––

Left Right

Peak Value: -0.71 dB –- -2.38 dB
Avg RMS: -18.05 dB –- -17.73 dB
DR channel: 15.96 dB –- 14.15 dB
––––––––––––––––––––––––––––––––––––––––

Official DR Value: DR15

Samplerate: 44100 Hz
Channels: 2
Bits per sample: 16
Bitrate: 698 kbps
Codec: FLAC
================================================================================
––––––––––––––––––––––––––––––––––––––––
Analyzed: Georgia Wettlin-Larsen / Heartbeat: Voices of First Nations Women (1-3)
Geraldine Barney / Heartbeat: Voices of First Nations Women (4-5)
––––––––––––––––––––––––––––––––––––––––

DR Peak RMS Duration Track
––––––––––––––––––––––––––––––––––––––––
DR13 -3.79 dB -18.81 dB 1:18 07-Lakota Flute Song
DR13 -4.09 dB -21.07 dB 1:18 08-Ojibwa Love Charm Song
DR8 -5.46 dB -20.23 dB 1:55 09-Ojibwa Love Song
DR14 -1.05 dB -19.96 dB 5:46 22-Glittler Nights
DR13 -8.75 dB -27.18 dB 1:25 23-Tsidii-Bird
––––––––––––––––––––––––––––––––––––––––

Number of tracks: 5
Official DR value: DR12

Samplerate: 44100 Hz
Channels: 2
Bits per sample: 16
Bitrate: 698 kbps
Codec: FLAC
================================================================================

––––––––––––––––––––––––––––––––––––––––
Analyzed: Joanne Shenandoah / Heartbeat: Voices of First Nations Women (1-2)
Lillian Rainer / Heartbeat: Voices of First Nations Women (3-4)
––––––––––––––––––––––––––––––––––––––––

DR Peak RMS Duration Track
––––––––––––––––––––––––––––––––––––––––
DR12 -4.43 dB -19.13 dB 1:07 04-Fish Dance Song
DR12 -6.67 dB -20.16 dB 3:56 05-I May Want a Man
DR6 -10.71 dB -20.16 dB 1:21 06-Taos Courting Flute Song
DR9 -9.63 dB -21.46 dB 2:18 13-Navajo Riding Song
––––––––––––––––––––––––––––––––––––––––

Number of tracks: 4
Official DR value: DR10

Samplerate: 44100 Hz
Channels: 2
Bits per sample: 16
Bitrate: 698 kbps
Codec: FLAC
================================================================================

––––––––––––––––––––––––––––––––––––––––
Analyzed: Mary Ann Meanus / Heartbeat: Voices of First Nations Women (1-2)
Nancy Richardson / Heartbeat: Voices of First Nations Women (3-6)
Poldine Carlo / Heartbeat: Voices of First Nations Women (7-8)
––––––––––––––––––––––––––––––––––––––––

DR Peak RMS Duration Track
––––––––––––––––––––––––––––––––––––––––
DR15 -0.50 dB -17.92 dB 1:13 11-Bunny Hop Dance
DR12 -4.30 dB -18.86 dB 1:37 12-Stick Game Song
DR10 -6.54 dB -20.18 dB 1:42 16-Lizard, His Song
DR9 -5.10 dB -17.29 dB 1:22 17-Panther, Her Song
DR11 -5.80 dB -19.23 dB 1:16 18-Kirk Dance Song
DR10 -5.30 dB -18.88 dB 0:52 19-Spotted Fawn Dance
DR11 -5.93 dB -19.40 dB 1:44 24-Honor Song for an Older Sister
DR10 -5.16 dB -19.39 dB 1:11 25-World War LL Honor Song
––––––––––––––––––––––––––––––––––––––––

Number of tracks: 8
Official DR value: DR11

Samplerate: 44100 Hz
Channels: 2
Bits per sample: 16
Bitrate: 698 kbps
Codec: FLAC
================================================================================

––––––––––––––––––––––––––––––––––––––––
Analyzed: Six Nations Women Singers / Heartbeat: Voices of First Nations Women (1-3)
Sweethearts of Navajoland / Heartbeat: Voices of First Nations Women (4-5)
Tewa Indian Women's Choir / Heartbeat: Voices of First Nations Women (6-7)
Ulali / Heartbeat: Voices of First Nations Women (8-9)
––––––––––––––––––––––––––––––––––––––––

DR Peak RMS Duration Track
––––––––––––––––––––––––––––––––––––––––
DR14 -1.71 dB -19.68 dB 1:37 01-Mother Earth
DR15 -2.05 dB -19.32 dB 1:38 02-Bingo Song
DR17 -1.45 dB -19.88 dB 1:35 03-Ho Way Hey Yo
DR13 -2.53 dB -16.71 dB 2:22 14-Let 'Em Talk
DR12 -2.19 dB -16.43 dB 2:55 15-One Woman's Man
DR17 -3.47 dB -21.51 dB 3:21 27-Ange'in
DR13 -4.04 dB -18.91 dB 1:33 28-Holy, Holy, Holy
DR14 -1.52 dB -19.00 dB 4:46 31-Going Home
DR14 -0.50 dB -15.50 dB 2:52 32-Mother
––––––––––––––––––––––––––––––––––––––––

Number of tracks: 9
Official DR value: DR14

Samplerate: 44100 Hz
Channels: 2
Bits per sample: 16
Bitrate: 698 kbps
Codec: FLAC
================================================================================

VA - Heartbeat: Voices of First Nations Women (1995)

VA - Heartbeat: Voices of First Nations Women (1995)

All thanks to original releaser - biotox18

More interesting music in My Blog