Subcategories

Howlin' Wolf - The Complete RPM & Chess Singles As & Bs, 1951-62 (2014) 3CD Set

Posted By: Designol
Howlin' Wolf - The Complete RPM & Chess Singles As & Bs, 1951-62 (2014) 3CD Set

Howlin' Wolf - The Complete RPM & Chess Singles As & Bs, 1951-62 (2014) 3CD Set
EAC | FLAC | Tracks (Cue&Log) ~ 869 Mb | Mp3 (CBR320) ~ 502 Mb | Scans ~ 45 Mb
Chicago Blues, Electric Blues | Label: Acrobat Music | # ATCRCD9039 | 03:39:10

Chester Burnett, better known as Howlin' Wolf, was one of the most important and influential figures in Chicago Blues through the 1950s, and along with Muddy Waters helped to establish the electric blues style that laid the foundations for rock music in subsequent decades. With his imposing physical presence and loud, almost fearsome voice, he was a powerful and impressive performer, who wrote and popularised songs which have become classic standards of the genre, like "Spoonful", "Smokestack Lightning", "Killing Floor" and "Red Rooster", which became fixtures in the repertoire of bands like The Rolling Stones, who very much championed his cause and widened his reputation in the latter years of his career. This collection brings together both sides of all the singles he released through the RPM and Chess labels during the first hugely important decade of his career, along with bonus tracks comprising recordings made at sessions during this period which were not released as singles at the time. It's a great-value 80-track 3-CD set, which showcases one of the major personalities of the blues.

With his larger-than-life persona, roaring vocals, and the raw, skittering guitar lines of Hubert Sumlin behind him, Howlin’ Wolf turned out dozens of stellar Chicago blues singles for RPM and Chess Records between 1951 and 1962, including “Smokestack Lightnin’,” "Spoonful," "Red Rooster," and the magnificent “Killing Floor,” among many others. All of these, along with his other classic and essential singles (both A- and B-sides) from the first decade of his career, are collected here in this expansive, three-disc, 80-track set, which also includes several sides recorded at sessions during this period but never released.

Review by Steve Leggett, Allmusic.com

Howlin' Wolf - The Complete RPM & Chess Singles As & Bs, 1951-62 (2014) 3CD Set



Tracklist:

CD1 (01:13:23)

01. Moanin' At Midnight (2:18)
02. How Many More Years (2:42)
03. Riding In The Moonlight (2:40)
04. Morning At Midnight (2:41)
05. Passing By Blues (2:42)
06. Crying At Daybreak (3:53)
07. My Baby Stole Off (2:57)
08. I Want Your Picture (2:49)
09. Wolf Is At Your Door (2:57)
10. Holwin' Wolf Boogie (2:41)
11. Getting Old And Grey (2:41)
12. Mr. Highway Man (2:48)
13. Saddle My Pony (2:33)
14. Worried All The Time (3:09)
15. Oh, Red! (2:37)
16. My Last Affair (2:59)
17. All Night Boogie (2:15)
18. I Love My Baby (2:58)
19. No Place To Go (2:56)
20. Rockin' Daddy (3:05)
21. Baby How Long (2:53)
22. Evil Is Going On (2:55)
23. I'll Be Around (3:13)
24. Forty-Four (2:54)
25. Who Will Be The Next (2:35)
26. I Have A Little Girl (2:33)


CD2 (01:12:32)

01. Come To Me Baby (2:24)
02. Don't Mess With My Baby (2:38)
03. Smokestack Lightnin' (3:06)
04. You Can't Be Beat (3:07)
05. I Asked For Water (2:51)
06. So Glad (2:09)
07. Goin' Back Home (2:41)
08. My Life (3:07)
09. Somebody In My Home (2:22)
10. Nature (2:47)
11. Poor Boy (2:32)
12. Sittin' On Top Of The World (2:33)
13. I Didn't Know (2:25)
14. Moaning For My Baby (2:49)
15. I'm Leaving You (2:55)
16. Change My Ways (3:31)
17. Howlin' Blues (2:46)
18. I Better Go Now (2:44)
19. I'ver Been Abused (2:16)
20. Mister Airplane Man (2:43)
21. You Gonna Wreck My Life (2:51)
22. The Natchez Burning (2:11)
23. Who's Been Talking (2:23)
24. Tell Me (2:57)
25. Spoonful (2:46)
26. Howlin' For My Baby (2:35)
27. Wang Dang Doodle (2:22)


CD3 (01:13:15)

01. Back Door Man (2:50)
02. Little Baby (2:45)
03. Down In The Bottom (2:11)
04. Shake For Me (2:16)
05. The Red Rooster (2:28)
06. You'll Be Mine (2:22)
07. Goin' Down Slow (3:25)
08. Just Like I Treat You (2:49)
09. I Ain't Superstitious (2:54)
10. Mama's Baby (2:08)
11. Do The Do (2:12)
12. Keep What You Got (2:22)
13. California Blues (2:55)
14. California Boogie (2:59)
15. My Troubles And Me (3:13)
16. Worried About My Baby (2:59)
17. Brown Skin Woman (2:41)
18. House Rockin' Boogie (4:10)
19. Driving This Highway (2:53)
20. The Sun Is Rising (2:43)
21. Stealing My Clothes (3:01)
22. I'm The Wolf (2:52)
23. Highway My Friend (2:16)
24. Hold Your Money (2:11)
25. Stay Here Till My Baby Comes Back (2:37)
26. Crazy About You Baby (2:21)
27. Streamline Woman (2:41)


Exact Audio Copy V1.0 beta 3 from 29. August 2011

EAC extraction logfile from 14. September 2014, 13:56

Howlin' Wolf / The Complete RPM & Chess Singles As & Bs 1951-62 CD1

Used drive : PIONEER DVD-RW DVR-110D Adapter: 1 ID: 1

Read mode : Secure
Utilize accurate stream : Yes
Defeat audio cache : Yes
Make use of C2 pointers : No

Read offset correction : 48
Overread into Lead-In and Lead-Out : No
Fill up missing offset samples with silence : Yes
Delete leading and trailing silent blocks : No
Null samples used in CRC calculations : Yes
Used interface : Native Win32 interface for Win NT & 2000
Gap handling : Appended to previous track

Used output format : User Defined Encoder
Selected bitrate : 1024 kBit/s
Quality : High
Add ID3 tag : No
Command line compressor : C:\Program Files\FLAC\flac.exe
Additional command line options : -V -8 -T "Date=%year%" -T "Genre=%genre%" %source%


TOC of the extracted CD

Track | Start | Length | Start sector | End sector
––––––––––––––––––––––––––––-
1 | 0:00.00 | 2:18.14 | 0 | 10363
2 | 2:18.14 | 2:41.44 | 10364 | 22482
3 | 4:59.58 | 2:39.41 | 22483 | 34448
4 | 7:39.24 | 2:41.16 | 34449 | 46539
5 | 10:20.40 | 2:41.56 | 46540 | 58670
6 | 13:02.21 | 3:52.73 | 58671 | 76143
7 | 16:55.19 | 2:57.35 | 76144 | 89453
8 | 19:52.54 | 2:49.03 | 89454 | 102131
9 | 22:41.57 | 2:57.28 | 102132 | 115434
10 | 25:39.10 | 2:40.72 | 115435 | 127506
11 | 28:20.07 | 2:40.49 | 127507 | 139555
12 | 31:00.56 | 2:47.46 | 139556 | 152126
13 | 33:48.27 | 2:32.46 | 152127 | 163572
14 | 36:20.73 | 3:08.54 | 163573 | 177726
15 | 39:29.52 | 2:36.38 | 177727 | 189464
16 | 42:06.15 | 2:58.72 | 189465 | 202886
17 | 45:05.12 | 2:14.66 | 202887 | 213002
18 | 47:20.03 | 2:57.40 | 213003 | 226317
19 | 50:17.43 | 2:56.04 | 226318 | 239521
20 | 53:13.47 | 3:05.18 | 239522 | 253414
21 | 56:18.65 | 2:53.17 | 253415 | 266406
22 | 59:12.07 | 2:55.15 | 266407 | 279546
23 | 62:07.22 | 3:13.18 | 279547 | 294039
24 | 65:20.40 | 2:53.48 | 294040 | 307062
25 | 68:14.13 | 2:34.67 | 307063 | 318679
26 | 70:49.05 | 2:33.35 | 318680 | 330189


Track 1

Filename D:\Howlin' Wolf\CD 1\01 Moanin' At Midnight.wav

Pre-gap length 0:00:02.00

Peak level 100.0 %
Extraction speed 3.9 X
Track quality 100.0 %
Test CRC 130E7360
Copy CRC 130E7360
Cannot be verified as accurate (confidence 1) [DFEFE97F], AccurateRip returned [E5D33C1C] (AR v2)
Copy OK

Track 2

Filename D:\Howlin' Wolf\CD 1\02 How Many More Years.wav

Peak level 100.0 %
Extraction speed 4.5 X
Track quality 100.0 %
Test CRC 76B0B3B3
Copy CRC 76B0B3B3
Cannot be verified as accurate (confidence 1) [9A44DA0D], AccurateRip returned [D4CDA7D7] (AR v2)
Copy OK

Track 3

Filename D:\Howlin' Wolf\CD 1\03 Riding In The Moonlight.wav

Peak level 100.0 %
Extraction speed 4.8 X
Track quality 100.0 %
Test CRC 0484FDB9
Copy CRC 0484FDB9
Cannot be verified as accurate (confidence 1) [A79AD8D9], AccurateRip returned [00E87BBA] (AR v2)
Copy OK

Track 4

Filename D:\Howlin' Wolf\CD 1\04 Morning At Midnight.wav

Peak level 99.9 %
Extraction speed 4.9 X
Track quality 100.0 %
Test CRC 48847BD3
Copy CRC 48847BD3
Cannot be verified as accurate (confidence 1) [8331FCCF], AccurateRip returned [41AC5016] (AR v2)
Copy OK

Track 5

Filename D:\Howlin' Wolf\CD 1\05 Passing By Blues.wav

Peak level 92.9 %
Extraction speed 4.1 X
Track quality 100.0 %
Test CRC 372C5B4A
Copy CRC 372C5B4A
Cannot be verified as accurate (confidence 1) [C1753593], AccurateRip returned [5E64D408] (AR v2)
Copy OK

Track 6

Filename D:\Howlin' Wolf\CD 1\06 Crying At Daybreak.wav

Peak level 96.0 %
Extraction speed 4.9 X
Track quality 100.0 %
Test CRC A29AAC0F
Copy CRC A29AAC0F
Cannot be verified as accurate (confidence 1) [7821EC73], AccurateRip returned [CE43313F] (AR v2)
Copy OK

Track 7

Filename D:\Howlin' Wolf\CD 1\07 My Baby Stole Off.wav

Peak level 100.0 %
Extraction speed 5.7 X
Track quality 100.0 %
Test CRC BA9D8592
Copy CRC BA9D8592
Cannot be verified as accurate (confidence 1) [F50B7FEB], AccurateRip returned [59C4419C] (AR v2)
Copy OK

Track 8

Filename D:\Howlin' Wolf\CD 1\08 I Want Your Picture.wav

Peak level 100.0 %
Extraction speed 5.8 X
Track quality 100.0 %
Test CRC AD3B66AE
Copy CRC AD3B66AE
Cannot be verified as accurate (confidence 1) [E7201F7D], AccurateRip returned [7FE8CC27] (AR v2)
Copy OK

Track 9

Filename D:\Howlin' Wolf\CD 1\09 Wolf Is At Your Door.wav

Peak level 95.8 %
Extraction speed 6.1 X
Track quality 100.0 %
Test CRC 7EDDBD51
Copy CRC 7EDDBD51
Cannot be verified as accurate (confidence 1) [56CEDC41], AccurateRip returned [9DA28C53] (AR v2)
Copy OK

Track 10

Filename D:\Howlin' Wolf\CD 1\10 Holwin' Wolf Boogie.wav

Peak level 100.0 %
Extraction speed 6.1 X
Track quality 100.0 %
Test CRC 87F9D1C5
Copy CRC 87F9D1C5
Cannot be verified as accurate (confidence 1) [8BC6771F], AccurateRip returned [38F05C83] (AR v2)
Copy OK

Track 11

Filename D:\Howlin' Wolf\CD 1\11 Getting Old And Grey.wav

Peak level 100.0 %
Extraction speed 5.3 X
Track quality 99.9 %
Copy CRC 3A1E6A52
Cannot be verified as accurate (confidence 1) [2332BE3D], AccurateRip returned [E383A151] (AR v2)
Copy OK

Track 12

Filename D:\Howlin' Wolf\CD 1\12 Mr. Highway Man.wav

Peak level 100.0 %
Extraction speed 5.6 X
Track quality 99.9 %
Test CRC 894585BE
Copy CRC 894585BE
Cannot be verified as accurate (confidence 1) [CD2FB3F7], AccurateRip returned [4440262C] (AR v2)
Copy OK

Track 13

Filename D:\Howlin' Wolf\CD 1\13 Saddle My Pony.wav

Peak level 99.8 %
Extraction speed 6.6 X
Track quality 100.0 %
Test CRC F01164B2
Copy CRC F01164B2
Cannot be verified as accurate (confidence 1) [093ED13D], AccurateRip returned [C87B82AC] (AR v2)
Copy OK

Track 14

Filename D:\Howlin' Wolf\CD 1\14 Worried All The Time.wav

Peak level 99.1 %
Extraction speed 6.3 X
Track quality 100.0 %
Test CRC 0BB9CB84
Copy CRC A4229909
Cannot be verified as accurate (confidence 1) [BE3D30A6], AccurateRip returned [6DE892A6] (AR v2)
Copy OK

Track 15

Filename D:\Howlin' Wolf\CD 1\15 Oh, Red!.wav

Peak level 100.0 %
Extraction speed 4.7 X
Track quality 100.0 %
Test CRC 73DD5F6D
Copy CRC FD9501AD
Cannot be verified as accurate (confidence 1) [6458BD79], AccurateRip returned [FC1BF9FF] (AR v2)
Copy OK

Track 16

Filename D:\Howlin' Wolf\CD 1\16 My Last Affair.wav

Peak level 73.9 %
Extraction speed 6.2 X
Track quality 99.9 %
Test CRC FB2E1E30
Copy CRC 38B48F85
Cannot be verified as accurate (confidence 1) [FEF18A85], AccurateRip returned [FEE1963C] (AR v2)
Copy OK

Track 17

Filename D:\Howlin' Wolf\CD 1\17 All Night Boogie.wav

Peak level 100.0 %
Extraction speed 6.9 X
Track quality 100.0 %
Test CRC 78FC85A4
Copy CRC 78FC85A4
Cannot be verified as accurate (confidence 1) [FB7B1786], AccurateRip returned [44CB73A8] (AR v2)
Copy OK

Track 18

Filename D:\Howlin' Wolf\CD 1\18 I Love My Baby.wav

Peak level 96.2 %
Extraction speed 7.2 X
Track quality 100.0 %
Test CRC 741F28E2
Copy CRC 741F28E2
Cannot be verified as accurate (confidence 1) [E11B572D], AccurateRip returned [0EAE751F] (AR v2)
Copy OK

Track 19

Filename D:\Howlin' Wolf\CD 1\19 No Place To Go.wav

Peak level 100.0 %
Extraction speed 7.1 X
Track quality 100.0 %
Test CRC 2A3A385F
Copy CRC 2A3A385F
Cannot be verified as accurate (confidence 1) [A61402CB], AccurateRip returned [914FAB4A] (AR v2)
Copy OK

Track 20

Filename D:\Howlin' Wolf\CD 1\20 Rockin' Daddy.wav

Peak level 100.0 %
Extraction speed 6.5 X
Track quality 99.9 %
Test CRC EC4983A0
Copy CRC EC4983A0
Cannot be verified as accurate (confidence 1) [97CFA85C], AccurateRip returned [C233A048] (AR v2)
Copy OK

Track 21

Filename D:\Howlin' Wolf\CD 1\21 Baby How Long.wav

Peak level 88.2 %
Extraction speed 7.8 X
Track quality 100.0 %
Test CRC 2C687C4E
Copy CRC 2C687C4E
Cannot be verified as accurate (confidence 1) [980ABB02], AccurateRip returned [BDB1EB4F] (AR v2)
Copy OK

Track 22

Filename D:\Howlin' Wolf\CD 1\22 Evil Is Going On.wav

Peak level 100.0 %
Extraction speed 7.7 X
Track quality 100.0 %
Test CRC 0C8158C4
Copy CRC 0C8158C4
Cannot be verified as accurate (confidence 1) [4F5B7ECB], AccurateRip returned [E82CD9A6] (AR v2)
Copy OK

Track 23

Filename D:\Howlin' Wolf\CD 1\23 I'll Be Around.wav

Peak level 100.0 %
Extraction speed 7.8 X
Track quality 100.0 %
Test CRC BA54D4A1
Copy CRC BA54D4A1
Cannot be verified as accurate (confidence 1) [55DF727A], AccurateRip returned [360961CF] (AR v2)
Copy OK

Track 24

Filename D:\Howlin' Wolf\CD 1\24 Forty-Four.wav

Peak level 96.7 %
Extraction speed 6.7 X
Track quality 99.9 %
Test CRC 88E7F979
Copy CRC 88E7F979
Cannot be verified as accurate (confidence 1) [570B8374], AccurateRip returned [9CBA25D0] (AR v2)
Copy OK

Track 25

Filename D:\Howlin' Wolf\CD 1\25 Who Will Be The Next.wav

Peak level 100.0 %
Extraction speed 8.1 X
Track quality 100.0 %
Test CRC 6F19BE6B
Copy CRC 6F19BE6B
Cannot be verified as accurate (confidence 1) [845C2465], AccurateRip returned [EA12F51E] (AR v2)
Copy OK

Track 26

Filename D:\Howlin' Wolf\CD 1\26 I Have A Little Girl.wav

Peak level 88.0 %
Extraction speed 8.2 X
Track quality 100.0 %
Test CRC 557FD0FE
Copy CRC 557FD0FE
Cannot be verified as accurate (confidence 1) [7E0C7E45], AccurateRip returned [576E87A3] (AR v2)
Copy OK


No tracks could be verified as accurate
You may have a different pressing from the one(s) in the database

No errors occurred

End of status report

==== Log checksum 4892ECC4B8A8859342DB037FA53E8DA71A3BE2E9F2FF4C1B3D71A7FCA8B309FE ====

[CUETools log; Date: 09.08.2018 21:34:20; Version: 2.1.4]
[CTDB TOCID: uezroFIqXAY6PGS7AUwRj_x59Yo-] found.
Track | CTDB Status
1 | ( 1/20) Accurately ripped
2 | (20/20) Accurately ripped
3 | (20/20) Accurately ripped
4 | (20/20) Accurately ripped
5 | (20/20) Accurately ripped
6 | (20/20) Accurately ripped
7 | (20/20) Accurately ripped
8 | (20/20) Accurately ripped
9 | (20/20) Accurately ripped
10 | (20/20) Accurately ripped
11 | ( 1/20) Accurately ripped
12 | (20/20) Accurately ripped
13 | (20/20) Accurately ripped
14 | ( 0/20) No match
15 | (20/20) Accurately ripped
16 | ( 1/20) Accurately ripped
17 | (20/20) Accurately ripped
18 | (20/20) Accurately ripped
19 | (20/20) Accurately ripped
20 | (19/20) Accurately ripped
21 | (19/20) Accurately ripped
22 | (19/20) Accurately ripped
23 | (19/20) Accurately ripped
24 | (19/20) Accurately ripped
25 | (19/20) Accurately ripped
26 | (19/20) Accurately ripped
[AccurateRip ID: 0043b2db-04f3ef3b-5111321a] found.
Track [ CRC | V2 ] Status
01 [1614bb1d|dfefe97f] (00+02/15) Accurately ripped
02 [b949dd61|9a44da0d] (00+03/16) Accurately ripped
03 [42f69e12|a79ad8d9] (00+03/15) Accurately ripped
04 [7065c7c5|8331fccf] (00+03/16) Accurately ripped
05 [39b8fe9d|c1753593] (00+03/16) Accurately ripped
06 [d8c53797|7821ec73] (00+00/15) No match
07 [9bb1c77f|f50b7feb] (00+00/15) No match
08 [f364e0de|e7201f7d] (00+00/12) No match
09 [a122a19c|56cedc41] (00+00/14) No match
10 [e6769d71|8bc6771f] (00+00/14) No match
11 [f5543fa1|2332be3d] (00+03/15) Accurately ripped
12 [320516c9|cd2fb3f7] (00+03/15) Accurately ripped
13 [60a31eaa|093ed13d] (00+03/15) Accurately ripped
14 [20a4dbac|be3d30a6] (00+00/14) No match
15 [0ca83e23|6458bd79] (00+00/14) No match
16 [4fc09eab|fef18a85] (00+03/15) Accurately ripped
17 [951aee16|fb7b1786] (00+03/15) Accurately ripped
18 [db518cf0|e11b572d] (00+03/15) Accurately ripped
19 [c0794ba9|a61402cb] (00+03/15) Accurately ripped
20 [8c119b02|97cfa85c] (00+03/15) Accurately ripped
21 [e37c3108|980abb02] (00+03/15) Accurately ripped
22 [a5d18bf5|4f5b7ecb] (00+03/15) Accurately ripped
23 [c35f622d|55df727a] (00+03/15) Accurately ripped
24 [384e06f3|570b8374] (00+03/15) Accurately ripped
25 [e55f3cf3|845c2465] (00+03/15) Accurately ripped
26 [3f221c96|7e0c7e45] (00+02/14) Accurately ripped
Offsetted by -967:
01 [c3e623d2] (00/15) No match
02 [4a10bf6c] (00/16) No match
03 [195f2138] (00/15) No match
04 [142ebdc3] (00/16) No match
05 [5323d8e0] (00/16) No match
06 [f2148239] (00/15) No match (V2 was not tested)
07 [ef48e7d3] (00/15) No match (V2 was not tested)
08 [94caebe8] (00/12) No match (V2 was not tested)
09 [eb98d79c] (00/14) No match (V2 was not tested)
10 [4b0d280b] (00/14) No match (V2 was not tested)
11 [88774cb2] (00/15) No match
12 [bd5fd9dd] (00/15) No match
13 [23996116] (00/15) No match
14 [13cdcebc] (00/14) No match (V2 was not tested)
15 [aad50616] (00/14) No match (V2 was not tested)
16 [1b2fdce6] (00/15) No match
17 [fdf33d25] (00/15) No match
18 [0cca34cf] (00/15) No match
19 [e76c6d2d] (00/15) No match
20 [80979488] (00/15) No match
21 [b98e3df9] (00/15) No match
22 [76e5bd82] (00/15) No match
23 [f3036af4] (00/15) No match
24 [2becd789] (00/15) No match
25 [7652ea1f] (00/15) No match
26 [55cfbed9] (00/14) No match
Offsetted by -961:
01 [e0bc5600] (00/15) No match
02 [eb7351be] (00/16) No match (V2 was not tested)
03 [ba0f533c] (00/15) No match (V2 was not tested)
04 [2d1c4957] (00/16) No match (V2 was not tested)
05 [d68e6702] (00/16) No match (V2 was not tested)
06 [12c01865] (00/15) No match
07 [2fe4298b] (00/15) No match
08 [25ecf804] (00/12) No match
09 [fbd03b9c] (00/14) No match
10 [07d5a3f1] (00/14) No match
11 [1ebb1ed0] (00/15) No match (V2 was not tested)
12 [d78b8b43] (00/15) No match (V2 was not tested)
13 [30f72c30] (00/15) No match (V2 was not tested)
14 [cff131e2] (00/14) No match
15 [c2e327d0] (00/14) No match
16 [e9d9a67e] (00/15) No match (V2 was not tested)
17 [68b61971] (00/15) No match (V2 was not tested)
18 [7158f1d9] (00/15) No match (V2 was not tested)
19 [26742f05] (00/15) No match (V2 was not tested)
20 [c9773ecc] (00/15) No match (V2 was not tested)
21 [b48564cf] (00/15) No match (V2 was not tested)
22 [fa7f6d40] (00/15) No match (V2 was not tested)
23 [8b7878ee] (00/15) No match (V2 was not tested)
24 [0ff09f2d] (00/15) No match (V2 was not tested)
25 [c8d10167] (00/15) No match (V2 was not tested)
26 [36da407e] (00/14) No match (V2 was not tested)
Offsetted by -751:
01 [d205324a] (00/15) No match (V2 was not tested)
02 [fbed52f4] (00/16) No match
03 [b22629c8] (00/15) No match
04 [95965e93] (00/16) No match
05 [ce1fd5a8] (00/16) No match
06 [8a35a069] (00/15) No match
07 [051e25b3] (00/15) No match
08 [fd949fd8] (00/12) No match
09 [3362e79c] (00/14) No match
10 [d73e9463] (00/14) No match
11 [aa00d8ea] (00/15) No match
12 [6b84cc35] (00/15) No match
13 [04c9f0be] (00/15) No match
14 [88c7c014] (00/14) No match
15 [0cd1c43e] (00/14) No match
16 [2b103646] (00/15) No match
17 [015a37d5] (00/15) No match
18 [30dcca37] (00/15) No match
19 [c483af8d] (00/15) No match
20 [c00b8618] (00/15) No match
21 [044fb411] (00/15) No match
22 [f882743a] (00/15) No match
23 [6379621c] (00/15) No match
24 [3c74ea99] (00/15) No match
25 [100e303f] (00/15) No match
26 [cfc70cb0] (00/14) No match
Offsetted by -282:
01 [cac184ab] (00/15) No match
02 [18310053] (00/16) No match
03 [c29d6f56] (00/15) No match
04 [dcc92799] (00/16) No match
05 [1928e65f] (00/16) No match
06 [d944a583] (00/15) No match (V2 was not tested)
07 [bf30b6b7] (00/15) No match (V2 was not tested)
08 [4e24a7ba] (00/12) No match (V2 was not tested)
09 [a6f7459c] (00/14) No match (V2 was not tested)
10 [7bcb13c8] (00/14) No match (V2 was not tested)
11 [e10b8113] (00/15) No match
12 [693176da] (00/15) No match
13 [ef26ecc9] (00/15) No match
14 [faeb4f39] (00/14) No match (V2 was not tested)
15 [8fcd1089] (00/14) No match (V2 was not tested)
16 [e92b3b22] (00/15) No match
17 [44cc25cf] (00/15) No match
18 [651cd81a] (00/15) No match
19 [2e0cb501] (00/15) No match
20 [2b015886] (00/15) No match
21 [d01c0fbe] (00/15) No match
22 [7c9a4813] (00/15) No match
23 [c5e1d147] (00/15) No match
24 [5b9c5fd7] (00/15) No match
25 [c038f6bb] (00/15) No match
26 [7f5beaf6] (00/14) No match
Offsetted by -276:
01 [e797b6d9] (00/15) No match
02 [b99392a5] (00/16) No match (V2 was not tested)
03 [634da15a] (00/15) No match (V2 was not tested)
04 [f5b6b32d] (00/16) No match (V2 was not tested)
05 [9c937481] (00/16) No match (V2 was not tested)
06 [f9f03baf] (00/15) No match
07 [ffcbf86f] (00/15) No match
08 [df46b3d6] (00/12) No match
09 [b72ea99c] (00/14) No match
10 [38938fae] (00/14) No match
11 [774f5331] (00/15) No match (V2 was not tested)
12 [835d2840] (00/15) No match (V2 was not tested)
13 [2771163a] (00/15) No match (V2 was not tested)
14 [b70ebd60] (00/14) No match
15 [a7db3243] (00/14) No match
16 [c63f977e] (00/15) No match (V2 was not tested)
17 [aec60107] (00/15) No match (V2 was not tested)
18 [c9ab9524] (00/15) No match (V2 was not tested)
19 [6d1476d9] (00/15) No match (V2 was not tested)
20 [73e102ca] (00/15) No match (V2 was not tested)
21 [cb133694] (00/15) No match (V2 was not tested)
22 [0033f7d1] (00/15) No match (V2 was not tested)
23 [5e56df41] (00/15) No match (V2 was not tested)
24 [3fa0277b] (00/15) No match (V2 was not tested)
25 [12b70e03] (00/15) No match (V2 was not tested)
26 [3a9e8412] (00/14) No match (V2 was not tested)
Offsetted by -72:
01 [bc0a60f5] (00/15) No match
02 [28ab0189] (00/16) No match
03 [bab445e2] (00/15) No match
04 [45433cd5] (00/16) No match
05 [10ba5505] (00/16) No match
06 [50ba2d87] (00/15) No match (V2 was not tested)
07 [946ab2df] (00/15) No match (V2 was not tested)
08 [25cc4f8e] (00/12) No match (V2 was not tested)
09 [de89f19c] (00/14) No match (V2 was not tested)
10 [f12b940f] (00/14) No match (V2 was not tested)
11 [9cd51b0b] (00/15) No match
12 [ca948eea] (00/15) No match
13 [1dbc689a] (00/15) No match
14 [b53ab35f] (00/14) No match (V2 was not tested)
15 [f9e9b209] (00/14) No match (V2 was not tested)
16 [e9ae0e07] (00/15) No match
17 [f4d7272c] (00/15) No match
18 [24a0b078] (00/15) No match
19 [cc1c3589] (00/15) No match
20 [21959fd2] (00/15) No match
21 [1fe65f00] (00/15) No match
22 [7a9d4f0d] (00/15) No match
23 [9de2ba75] (00/15) No match
24 [8820ab43] (00/15) No match
25 [07762593] (00/15) No match
26 [5df80ae3] (00/14) No match
Offsetted by -66:
01 [d8e09323] (00/15) No match (V2 was not tested)
02 [ca0d93db] (00/16) No match (V2 was not tested)
03 [5b6477e6] (00/15) No match (V2 was not tested)
04 [5e30c869] (00/16) No match (V2 was not tested)
05 [9424e327] (00/16) No match (V2 was not tested)
06 [7165c3b3] (00/15) No match
07 [d505f497] (00/15) No match
08 [b6ee5baa] (00/12) No match
09 [eec1559c] (00/14) No match
10 [20eb1d62] (00/14) No match
11 [b2213be3] (00/15) No match (V2 was not tested)
12 [0cb579d0] (00/15) No match (V2 was not tested)
13 [15514580] (00/15) No match (V2 was not tested)
14 [64c30fce] (00/14) No match
15 [2b9ee16f] (00/14) No match
16 [45da253a] (00/15) No match (V2 was not tested)
17 [5fca00c9] (00/15) No match (V2 was not tested)
18 [892f6d82] (00/15) No match (V2 was not tested)
19 [0b23f761] (00/15) No match (V2 was not tested)
20 [6a754a16] (00/15) No match (V2 was not tested)
21 [1add85d6] (00/15) No match (V2 was not tested)
22 [fe36fecb] (00/15) No match (V2 was not tested)
23 [3657c86f] (00/15) No match (V2 was not tested)
24 [6c2472e7] (00/15) No match (V2 was not tested)
25 [59f43cdb] (00/15) No match (V2 was not tested)
26 [ded44f28] (00/14) No match (V2 was not tested)
Offsetted by -6:
01 [f93e88ef] (00/15) No match
02 [17e74b0f] (00/16) No match
03 [a2466c0e] (00/15) No match
04 [57783c31] (00/16) No match
05 [b64e707b] (00/16) No match
06 [b819a16b] (00/15) No match (V2 was not tested)
07 [5b1685c7] (00/15) No match (V2 was not tested)
08 [6242d4c2] (00/12) No match (V2 was not tested)
09 [90eb3d9c] (00/14) No match (V2 was not tested)
10 [b0de4484] (00/14) No match (V2 was not tested)
11 [4e6e03a9] (00/15) No match
12 [6353df56] (00/15) No match
13 [a982f0c6] (00/15) No match
14 [89765026] (00/14) No match (V2 was not tested)
15 [70099eee] (00/14) No match (V2 was not tested)
16 [0049cf85] (00/15) No match
17 [37302313] (00/15) No match
18 [76c2cfe6] (00/15) No match
19 [817189d1] (00/15) No match
20 [4331f0be] (00/15) No match
21 [e8850a32] (00/15) No match
22 [2237dc37] (00/15) No match
23 [2aea5433] (00/15) No match
24 [544a3f4f] (00/15) No match
25 [92e125ab] (00/15) No match
26 [f6116441] (00/14) No match

Track Peak [ CRC32 ] [W/O NULL] [ LOG ]
– 100,0 [E3806FE0] [6489BEB0]
01 100,0 [130E7360] [477BFFC7] CRC32
02 100,0 [76B0B3B3] [4C297C44] CRC32
03 100,0 [0484FDB9] [C9392EAB] CRC32
04 99,9 [48847BD3] [86182D3C] CRC32
05 92,9 [372C5B4A] [A317F7B4] CRC32
06 96,0 [A29AAC0F] [003DEBC4] CRC32
07 100,0 [BA9D8592] [4EDB2829] CRC32
08 100,0 [AD3B66AE] [F3CC4D23] CRC32
09 95,8 [7EDDBD51] [A6C8EF56] CRC32
10 100,0 [87F9D1C5] [FCD31217] CRC32
11 100,0 [3A1E6A52] [34D4B743] CRC32
12 100,0 [894585BE] [C70402BA] CRC32
13 99,8 [F01164B2] [A7F2B9CC] CRC32
14 99,1 [A4229909] [4586C37C] CRC32
15 100,0 [FD9501AD] [CBDE5794] CRC32
16 73,9 [38B48F85] [A190FA22] CRC32
17 100,0 [78FC85A4] [73ACEDCC] CRC32
18 96,2 [741F28E2] [2CBFDA26] CRC32
19 100,0 [2A3A385F] [510B80B2] CRC32
20 100,0 [EC4983A0] [5A4AD35E] CRC32
21 88,2 [2C687C4E] [458EDC0F] CRC32
22 100,0 [0C8158C4] [56D4FFD0] CRC32
23 100,0 [BA54D4A1] [B32EAA0C] CRC32
24 96,7 [88E7F979] [7790C8BA] CRC32
25 100,0 [6F19BE6B] [F482AAF9] CRC32
26 88,0 [557FD0FE] [49C800D0] CRC32

foobar2000 1.2 / Dynamic Range Meter 1.1.1
log date: 2018-08-09 21:35:33

––––––––––––––––––––––––––––––––––––––––
Analyzed: Howlin' Wolf / The Complete RPM & Chess Singles As & Bs 1951-62 CD1
––––––––––––––––––––––––––––––––––––––––

DR Peak RMS Duration Track
––––––––––––––––––––––––––––––––––––––––
DR8 0.00 dB -9.73 dB 2:18 01-Moanin' At Midnight
DR8 0.00 dB -9.41 dB 2:42 02-How Many More Years
DR8 0.00 dB -8.83 dB 2:40 03-Riding In The Moonlight
DR11 -0.01 dB -13.55 dB 2:41 04-Morning At Midnight
DR10 -0.64 dB -12.82 dB 2:42 05-Passing By Blues
DR8 -0.35 dB -12.13 dB 3:53 06-Crying At Daybreak
DR10 0.00 dB -11.83 dB 2:57 07-My Baby Stole Off
DR13 0.00 dB -15.46 dB 2:49 08-I Want Your Picture
DR13 -0.36 dB -15.88 dB 2:57 09-Wolf Is At Your Door
DR11 0.00 dB -12.45 dB 2:41 10-Holwin' Wolf Boogie
DR8 0.00 dB -10.24 dB 2:41 11-Getting Old And Grey
DR9 0.00 dB -10.81 dB 2:48 12-Mr. Highway Man
DR8 -0.01 dB -9.93 dB 2:33 13-Saddle My Pony
DR7 -0.08 dB -9.58 dB 3:09 14-Worried All The Time
DR11 0.00 dB -13.30 dB 2:37 15-Oh, Red!
DR12 -2.62 dB -16.61 dB 2:59 16-My Last Affair
DR11 0.00 dB -13.40 dB 2:15 17-All Night Boogie
DR7 -0.33 dB -9.75 dB 2:58 18-I Love My Baby
DR8 0.00 dB -9.83 dB 2:56 19-No Place To Go
DR9 0.00 dB -11.04 dB 3:05 20-Rockin' Daddy
DR12 -1.08 dB -15.36 dB 2:53 21-Baby How Long
DR11 0.00 dB -12.45 dB 2:55 22-Evil Is Going On
DR11 0.00 dB -13.15 dB 3:13 23-I'll Be Around
DR13 -0.29 dB -16.87 dB 2:54 24-Forty-Four
DR14 0.00 dB -16.81 dB 2:35 25-Who Will Be The Next
DR12 -1.11 dB -15.85 dB 2:33 26-I Have A Little Girl
––––––––––––––––––––––––––––––––––––––––

Number of tracks: 26
Official DR value: DR10

Samplerate: 44100 Hz
Channels: 2
Bits per sample: 16
Bitrate: 600 kbps
Codec: FLAC
================================================================================


Exact Audio Copy V1.0 beta 3 from 29. August 2011

EAC extraction logfile from 14. September 2014, 14:54

Howlin' Wolf / The Complete RPM & Chess Singles As & Bs 1951-62 CD2

Used drive : PIONEER DVD-RW DVR-110D Adapter: 1 ID: 1

Read mode : Secure
Utilize accurate stream : Yes
Defeat audio cache : Yes
Make use of C2 pointers : No

Read offset correction : 48
Overread into Lead-In and Lead-Out : No
Fill up missing offset samples with silence : Yes
Delete leading and trailing silent blocks : No
Null samples used in CRC calculations : Yes
Used interface : Native Win32 interface for Win NT & 2000
Gap handling : Appended to previous track

Used output format : User Defined Encoder
Selected bitrate : 1024 kBit/s
Quality : High
Add ID3 tag : No
Command line compressor : C:\Program Files\FLAC\flac.exe
Additional command line options : -V -8 -T "Date=%year%" -T "Genre=%genre%" %source%


TOC of the extracted CD

Track | Start | Length | Start sector | End sector
––––––––––––––––––––––––––––-
1 | 0:00.00 | 2:24.08 | 0 | 10807
2 | 2:24.08 | 2:37.74 | 10808 | 22656
3 | 5:02.07 | 3:06.13 | 22657 | 36619
4 | 8:08.20 | 3:07.36 | 36620 | 50680
5 | 11:15.56 | 2:50.60 | 50681 | 63490
6 | 14:06.41 | 2:08.48 | 63491 | 73138
7 | 16:15.14 | 2:41.10 | 73139 | 85223
8 | 18:56.24 | 3:06.38 | 85224 | 99211
9 | 22:02.62 | 2:21.56 | 99212 | 109842
10 | 24:24.43 | 2:46.73 | 109843 | 122365
11 | 27:11.41 | 2:32.15 | 122366 | 133780
12 | 29:43.56 | 2:33.14 | 133781 | 145269
13 | 32:16.70 | 2:24.69 | 145270 | 156138
14 | 34:41.64 | 2:49.31 | 156139 | 168844
15 | 37:31.20 | 2:54.73 | 168845 | 181967
16 | 40:26.18 | 3:30.44 | 181968 | 197761
17 | 43:56.62 | 2:46.24 | 197762 | 210235
18 | 46:43.11 | 2:44.21 | 210236 | 222556
19 | 49:27.32 | 2:16.15 | 222557 | 232771
20 | 51:43.47 | 2:43.21 | 232772 | 245017
21 | 54:26.68 | 2:51.18 | 245018 | 257860
22 | 57:18.11 | 2:11.17 | 257861 | 267702
23 | 59:29.28 | 2:23.03 | 267703 | 278430
24 | 61:52.31 | 2:57.28 | 278431 | 291733
25 | 64:49.59 | 2:45.44 | 291734 | 304152
26 | 67:35.28 | 2:34.49 | 304153 | 315751
27 | 70:10.02 | 2:21.66 | 315752 | 326392


Track 1

Filename D:\Howlin' Wolf\CD 2\01 Come To Me Baby.wav

Pre-gap length 0:00:02.00

Peak level 100.0 %
Extraction speed 3.5 X
Track quality 99.9 %
Test CRC E152B59A
Copy CRC E152B59A
Cannot be verified as accurate (confidence 1) [CCB445A2], AccurateRip returned [29A095B5] (AR v2)
Copy OK

Track 2

Filename D:\Howlin' Wolf\CD 2\02 Don't Mess With My Baby.wav

Peak level 100.0 %
Extraction speed 4.5 X
Track quality 100.0 %
Test CRC 0DB65A60
Copy CRC 0DB65A60
Cannot be verified as accurate (confidence 1) [7F39FE3B], AccurateRip returned [09365298] (AR v2)
Copy OK

Track 3

Filename D:\Howlin' Wolf\CD 2\03 Smokestack Lightnin'.wav

Peak level 90.3 %
Extraction speed 4.8 X
Track quality 100.0 %
Test CRC FAA72416
Copy CRC 20EC02B6
Cannot be verified as accurate (confidence 1) [F294E222], AccurateRip returned [55558E6B] (AR v2)
Copy OK

Track 4

Filename D:\Howlin' Wolf\CD 2\04 You Can't Be Beat.wav

Peak level 100.0 %
Extraction speed 5.0 X
Track quality 100.0 %
Test CRC 77960510
Copy CRC 77960510
Cannot be verified as accurate (confidence 1) [8AC09E8C], AccurateRip returned [88F12E20] (AR v2)
Copy OK

Track 5

Filename D:\Howlin' Wolf\CD 2\05 I Asked For Water.wav

Peak level 100.0 %
Extraction speed 5.3 X
Track quality 100.0 %
Test CRC 9D53D187
Copy CRC 9D53D187
Cannot be verified as accurate (confidence 1) [12606B89], AccurateRip returned [67931AB9] (AR v2)
Copy OK

Track 6

Filename D:\Howlin' Wolf\CD 2\06 So Glad.wav

Peak level 100.0 %
Extraction speed 5.2 X
Track quality 100.0 %
Test CRC A47F2804
Copy CRC A47F2804
Cannot be verified as accurate (confidence 1) [53DECE1A], AccurateRip returned [52C79C6F] (AR v2)
Copy OK

Track 7

Filename D:\Howlin' Wolf\CD 2\07 Goin' Back Home.wav

Peak level 96.1 %
Extraction speed 4.3 X
Track quality 100.0 %
Test CRC 870F22B9
Copy CRC 870F22B9
Cannot be verified as accurate (confidence 1) [769C4481], AccurateRip returned [DD846482] (AR v2)
Copy OK

Track 8

Filename D:\Howlin' Wolf\CD 2\08 My Life.wav

Peak level 100.0 %
Extraction speed 5.2 X
Track quality 100.0 %
Test CRC CB46C0ED
Copy CRC CB46C0ED
Cannot be verified as accurate (confidence 1) [FF792E72], AccurateRip returned [6FA27D0C] (AR v2)
Copy OK

Track 9

Filename D:\Howlin' Wolf\CD 2\09 Somebody In My Home.wav

Peak level 78.6 %
Extraction speed 4.8 X
Track quality 99.9 %
Test CRC 4466B31D
Copy CRC 4466B31D
Cannot be verified as accurate (confidence 1) [F02D565F], AccurateRip returned [8E391331] (AR v2)
Copy OK

Track 10

Filename D:\Howlin' Wolf\CD 2\10 Nature.wav

Peak level 100.0 %
Extraction speed 5.3 X
Track quality 99.9 %
Copy CRC E081D35E
Cannot be verified as accurate (confidence 1) [203CB6E8], AccurateRip returned [A6DA7AEB] (AR v2)
Copy OK

Track 11

Filename D:\Howlin' Wolf\CD 2\11 Poor Boy.wav

Peak level 49.1 %
Extraction speed 6.4 X
Track quality 100.0 %
Test CRC FF7AB2A5
Copy CRC FF7AB2A5
Cannot be verified as accurate (confidence 1) [EB56F256], AccurateRip returned [6F5E8A39] (AR v2)
Copy OK

Track 12

Filename D:\Howlin' Wolf\CD 2\12 Sittin' On Top Of The World.wav

Peak level 83.6 %
Extraction speed 6.4 X
Track quality 100.0 %
Test CRC 151509C8
Copy CRC 151509C8
Cannot be verified as accurate (confidence 1) [29080EB6], AccurateRip returned [47E0F424] (AR v2)
Copy OK

Track 13

Filename D:\Howlin' Wolf\CD 2\13 I Didn't Know.wav

Peak level 100.0 %
Extraction speed 6.4 X
Track quality 100.0 %
Test CRC BC2DE4CF
Copy CRC BC2DE4CF
Cannot be verified as accurate (confidence 1) [1B9B3218], AccurateRip returned [892C2D09] (AR v2)
Copy OK

Track 14

Filename D:\Howlin' Wolf\CD 2\14 Moaning For My Baby.wav

Peak level 61.0 %
Extraction speed 6.8 X
Track quality 100.0 %
Test CRC 1D131F6C
Copy CRC 1D131F6C
Cannot be verified as accurate (confidence 1) [839BA611], AccurateRip returned [09347A6A] (AR v2)
Copy OK

Track 15

Filename D:\Howlin' Wolf\CD 2\15 I'm Leaving You.wav

Peak level 80.7 %
Extraction speed 5.9 X
Track quality 99.9 %
Test CRC 3EDE8086
Copy CRC 3EDE8086
Cannot be verified as accurate (confidence 1) [838F0A9F], AccurateRip returned [E9411768] (AR v2)
Copy OK

Track 16

Filename D:\Howlin' Wolf\CD 2\16 Change My Ways.wav

Peak level 72.4 %
Extraction speed 5.3 X
Track quality 100.0 %
Test CRC B0B9A371
Copy CRC B0B9A371
Cannot be verified as accurate (confidence 1) [B2D784E6], AccurateRip returned [9A54A80C] (AR v2)
Copy OK

Track 17

Filename D:\Howlin' Wolf\CD 2\17 Howlin' Blues.wav

Peak level 96.9 %
Extraction speed 6.3 X
Track quality 99.9 %
Test CRC 130FCFA6
Copy CRC 130FCFA6
Cannot be verified as accurate (confidence 1) [2FAED4E4], AccurateRip returned [2553C838] (AR v2)
Copy OK

Track 18

Filename D:\Howlin' Wolf\CD 2\18 I Better Go Now.wav

Peak level 82.5 %
Extraction speed 7.4 X
Track quality 100.0 %
Test CRC BE497B55
Copy CRC BE497B55
Cannot be verified as accurate (confidence 1) [41D6BB08], AccurateRip returned [0E299489] (AR v2)
Copy OK

Track 19

Filename D:\Howlin' Wolf\CD 2\19 I'ver Been Abused.wav

Peak level 94.2 %
Extraction speed 7.2 X
Track quality 100.0 %
Test CRC 14253D1A
Copy CRC 14253D1A
Cannot be verified as accurate (confidence 1) [9235DF99], AccurateRip returned [6721D89A] (AR v2)
Copy OK

Track 20

Filename D:\Howlin' Wolf\CD 2\20 Mister Airplane Man.wav

Peak level 85.0 %
Extraction speed 6.9 X
Track quality 100.0 %
Test CRC FD3BEDC7
Copy CRC FD3BEDC7
Cannot be verified as accurate (confidence 1) [17D8A32F], AccurateRip returned [3FB31C80] (AR v2)
Copy OK

Track 21

Filename D:\Howlin' Wolf\CD 2\21 You Gonna Wreck My Life.wav

Peak level 97.7 %
Extraction speed 4.1 X
Track quality 100.0 %
Test CRC 14BDC960
Copy CRC 14BDC960
Cannot be verified as accurate (confidence 1) [8AEBF332], AccurateRip returned [92F1F0AC] (AR v2)
Copy OK

Track 22

Filename D:\Howlin' Wolf\CD 2\22 The Natchez Burning.wav

Peak level 95.5 %
Extraction speed 7.5 X
Track quality 100.0 %
Test CRC 9F882283
Copy CRC 9F882283
Cannot be verified as accurate (confidence 1) [3FC7605E], AccurateRip returned [6B86A47A] (AR v2)
Copy OK

Track 23

Filename D:\Howlin' Wolf\CD 2\23 Who's Been Talking.wav

Peak level 100.0 %
Extraction speed 7.4 X
Track quality 100.0 %
Test CRC 4224D5FB
Copy CRC 4224D5FB
Cannot be verified as accurate (confidence 1) [5BE8F27B], AccurateRip returned [057E8AA8] (AR v2)
Copy OK

Track 24

Filename D:\Howlin' Wolf\CD 2\24 Tell Me.wav

Peak level 82.9 %
Extraction speed 6.4 X
Track quality 100.0 %
Test CRC C06D15D7
Copy CRC C06D15D7
Cannot be verified as accurate (confidence 1) [686418BD], AccurateRip returned [54409A71] (AR v2)
Copy OK

Track 25

Filename D:\Howlin' Wolf\CD 2\25 Spoonful.wav

Peak level 100.0 %
Extraction speed 2.3 X
Track quality 100.0 %
Test CRC 4C907ADC
Copy CRC 4C907ADC
Cannot be verified as accurate (confidence 1) [2C517635], AccurateRip returned [4437E463] (AR v2)
Copy OK

Track 26

Filename D:\Howlin' Wolf\CD 2\26 Howlin' For My Baby.wav

Peak level 93.0 %
Extraction speed 7.1 X
Track quality 100.0 %
Test CRC 0AF6E093
Copy CRC 0AF6E093
Cannot be verified as accurate (confidence 1) [08D10A14], AccurateRip returned [8E0CDD0C] (AR v2)
Copy OK

Track 27

Filename D:\Howlin' Wolf\CD 2\27 Wang Dang Doodle.wav

Peak level 76.7 %
Extraction speed 8.2 X
Track quality 100.0 %
Test CRC BFB72414
Copy CRC BFB72414
Cannot be verified as accurate (confidence 1) [22CA36ED], AccurateRip returned [09E3F7EF] (AR v2)
Copy OK


No tracks could be verified as accurate
You may have a different pressing from the one(s) in the database

No errors occurred

End of status report

==== Log checksum B045D368D4F7E769793165D06E202E555963BE66CCE462B10D987328DBF014A3 ====

[CUETools log; Date: 09.08.2018 21:34:44; Version: 2.1.4]
[CTDB TOCID: lpYbWpsfAkAhf_Tqiqzec59ZSmw-] found.
Track | CTDB Status
1 | (19/24) Accurately ripped
2 | (23/24) Accurately ripped
3 | ( 0/24) No match
4 | (19/24) Accurately ripped
5 | (24/24) Accurately ripped
6 | (24/24) Accurately ripped
7 | (23/24) Accurately ripped
8 | (23/24) Accurately ripped
9 | (24/24) Accurately ripped
10 | (22/24) Accurately ripped
11 | (23/24) Accurately ripped
12 | (20/24) Accurately ripped
13 | (22/24) Accurately ripped
14 | (20/24) Accurately ripped
15 | (22/24) Accurately ripped
16 | (20/24) Accurately ripped
17 | (22/24) Accurately ripped
18 | ( 6/24) Accurately ripped
19 | ( 6/24) Accurately ripped
20 | (23/24) Accurately ripped
21 | (21/24) Accurately ripped
22 | (19/24) Accurately ripped
23 | (22/24) Accurately ripped
24 | (19/24) Accurately ripped
25 | (19/24) Accurately ripped
26 | (19/24) Accurately ripped
27 | (21/24) Accurately ripped
[AccurateRip ID: 00465970-054f3dc1-9910ff1b] found.
Track [ CRC | V2 ] Status
01 [ac3fbd20|ccb445a2] (00+00/15) No match
02 [8db5a0b0|7f39fe3b] (00+00/14) No match
03 [efac8c34|f294e222] (00+00/14) No match
04 [a0b977d2|8ac09e8c] (00+00/15) No match
05 [bc4f631e|12606b89] (00+00/15) No match
06 [7c68917b|53dece1a] (00+00/15) No match
07 [8399f30f|769c4481] (00+00/14) No match
08 [eb6f778a|ff792e72] (00+00/15) No match
09 [dbe98d7a|f02d565f] (00+00/15) No match
10 [b0a7de81|203cb6e8] (00+00/14) No match
11 [69cb9660|eb56f256] (00+02/16) Accurately ripped
12 [2ee4e3c4|29080eb6] (00+02/16) Accurately ripped
13 [ad8f5703|1b9b3218] (00+02/17) Accurately ripped
14 [9eaabaa0|839ba611] (00+02/17) Accurately ripped
15 [9e53cf49|838f0a9f] (00+02/17) Accurately ripped
16 [7158ac15|b2d784e6] (00+02/17) Accurately ripped
17 [c6151f0f|2faed4e4] (00+02/17) Accurately ripped
18 [955a4035|41d6bb08] (00+02/17) Accurately ripped
19 [6dc3bc2c|9235df99] (00+02/17) Accurately ripped
20 [aa33fe40|17d8a32f] (00+02/17) Accurately ripped
21 [e6ba9405|8aebf332] (00+02/17) Accurately ripped
22 [841d5a3e|3fc7605e] (00+02/17) Accurately ripped
23 [d4e66b14|5be8f27b] (00+02/17) Accurately ripped
24 [a9552f11|686418bd] (00+02/17) Accurately ripped
25 [db191272|2c517635] (00+02/17) Accurately ripped
26 [b98b674f|08d10a14] (00+02/17) Accurately ripped
27 [a7f16020|22ca36ed] (00+02/16) Accurately ripped
Offsetted by -757:
01 [8b631614] (00/15) No match
02 [c1209d9a] (00/14) No match
03 [03ae51d2] (00/14) No match (V2 was not tested)
04 [d52b4ce4] (00/15) No match (V2 was not tested)
05 [1b3c8866] (00/15) No match (V2 was not tested)
06 [fdb1a626] (00/15) No match (V2 was not tested)
07 [c0bf79f9] (00/14) No match (V2 was not tested)
08 [05f2aaab] (00/15) No match (V2 was not tested)
09 [a41f4d3c] (00/15) No match (V2 was not tested)
10 [94ed67e6] (00/14) No match
11 [8665800a] (00/16) No match
12 [28d5fe1a] (00/16) No match
13 [7639cb52] (00/17) No match
14 [8196701a] (00/17) No match
15 [c06fe3a2] (00/17) No match
16 [18a83a9c] (00/17) No match
17 [32e41ee0] (00/17) No match
18 [8912cf58] (00/17) No match
19 [b45ef0cf] (00/17) No match
20 [adea4ed4] (00/17) No match
21 [0f71f349] (00/17) No match
22 [b52140ec] (00/17) No match
23 [4e1dee9c] (00/17) No match
24 [3895fcb1] (00/17) No match
25 [7490426a] (00/17) No match
26 [820c531f] (00/17) No match
27 [5bc8d630] (00/16) No match
Offsetted by -751:
01 [4e6cb886] (00/15) No match (V2 was not tested)
02 [1b93b412] (00/14) No match (V2 was not tested)
03 [a857c8c2] (00/14) No match
04 [d6c853a8] (00/15) No match
05 [eacd1576] (00/15) No match
06 [bec8676c] (00/15) No match
07 [f96a4bed] (00/14) No match
08 [7c5566f7] (00/15) No match
09 [980ce4e6] (00/15) No match
10 [89fcbfc0] (00/14) No match (V2 was not tested)
11 [4d04937e] (00/16) No match (V2 was not tested)
12 [b2dc32a6] (00/16) No match (V2 was not tested)
13 [0d9d0d18] (00/17) No match (V2 was not tested)
14 [8dfd47c6] (00/17) No match (V2 was not tested)
15 [72b963a4] (00/17) No match (V2 was not tested)
16 [4b12765a] (00/17) No match (V2 was not tested)
17 [4c680f52] (00/17) No match (V2 was not tested)
18 [be9a4f0e] (00/17) No match (V2 was not tested)
19 [d1e8b385] (00/17) No match (V2 was not tested)
20 [4dd7f43c] (00/17) No match
21 [d8567511] (00/17) No match
22 [ca627da8] (00/17) No match
23 [66db8c2c] (00/17) No match
24 [e38858fd] (00/17) No match
25 [300b829e] (00/17) No match
26 [5ffe73bf] (00/17) No match
27 [d97bcdc2] (00/16) No match
Offsetted by -577:
01 [cee1121f] (00/15) No match
02 [5a9d3faa] (00/14) No match
03 [4f8a41f2] (00/14) No match
04 [059217dc] (00/15) No match
05 [6e2d1046] (00/15) No match
06 [9e5c4c5a] (00/15) No match
07 [64c41491] (00/14) No match
08 [e584bb93] (00/15) No match
09 [39f71328] (00/15) No match
10 [4cb9b372] (00/14) No match
11 [cd09c7a2] (00/16) No match
12 [55902682] (00/16) No match
13 [33db8086] (00/17) No match
14 [f5a3b642] (00/17) No match
15 [a50ce3de] (00/17) No match
16 [011b3ae0] (00/17) No match
17 [305a4c3c] (00/17) No match
18 [cef3c6ac] (00/17) No match
19 [2a83c223] (00/17) No match
20 [6bc3b104] (00/17) No match (V2 was not tested)
21 [9a3928b9] (00/17) No match (V2 was not tested)
22 [32c65ef4] (00/17) No match (V2 was not tested)
23 [3456657c] (00/17) No match (V2 was not tested)
24 [40fccd99] (00/17) No match (V2 was not tested)
25 [6d01c882] (00/17) No match (V2 was not tested)
26 [846c25df] (00/17) No match (V2 was not tested)
27 [2d2d32db] (00/16) No match (V2 was not tested)
Offsetted by -72:
01 [d99dc3e8] (00/15) No match
02 [d61cdea8] (00/14) No match
03 [3efc1748] (00/14) No match (V2 was not tested)
04 [8d5d26a2] (00/15) No match (V2 was not tested)
05 [0188c65e] (00/15) No match (V2 was not tested)
06 [6f578233] (00/15) No match (V2 was not tested)
07 [db981b9f] (00/14) No match (V2 was not tested)
08 [51a5a3e5] (00/15) No match (V2 was not tested)
09 [6c947037] (00/15) No match (V2 was not tested)
10 [33efc049] (00/14) No match
11 [1a56acf0] (00/16) No match
12 [b69a6d34] (00/16) No match
13 [79a84b1f] (00/17) No match
14 [09739ea4] (00/17) No match
15 [42e1cf31] (00/17) No match
16 [145ddf2d] (00/17) No match
17 [93e5d9b7] (00/17) No match
18 [130043ad] (00/17) No match
19 [0b4e9ba4] (00/17) No match
20 [2b103d60] (00/17) No match
21 [7c047ea5] (00/17) No match
22 [850e816e] (00/17) No match
23 [ac030854] (00/17) No match
24 [a640dc11] (00/17) No match
25 [110a0f72] (00/17) No match
26 [5231dfcf] (00/17) No match
27 [7be5f96c] (00/16) No match
Offsetted by -66:
01 [fcea309c] (00/15) No match (V2 was not tested)
02 [1263d647] (00/14) No match (V2 was not tested)
03 [e2578b19] (00/14) No match
04 [8efa2d66] (00/15) No match
05 [d119536e] (00/15) No match
06 [306e4379] (00/15) No match
07 [1442ed93] (00/14) No match
08 [c8086031] (00/15) No match
09 [608207e1] (00/15) No match
10 [28ff1823] (00/14) No match (V2 was not tested)
11 [e0f5c064] (00/16) No match (V2 was not tested)
12 [40a0a1c0] (00/16) No match (V2 was not tested)
13 [110b8ce5] (00/17) No match (V2 was not tested)
14 [15da7650] (00/17) No match (V2 was not tested)
15 [f52b4f33] (00/17) No match (V2 was not tested)
16 [46c81aeb] (00/17) No match (V2 was not tested)
17 [ad69ca29] (00/17) No match (V2 was not tested)
18 [4887c363] (00/17) No match (V2 was not tested)
19 [28d85e5a] (00/17) No match (V2 was not tested)
20 [cafde2c8] (00/17) No match (V2 was not tested)
21 [44e9006d] (00/17) No match (V2 was not tested)
22 [9a4fbe2a] (00/17) No match (V2 was not tested)
23 [c4c0a5e4] (00/17) No match (V2 was not tested)
24 [512d3851] (00/17) No match (V2 was not tested)
25 [cc8b4fb2] (00/17) No match (V2 was not tested)
26 [3024006f] (00/17) No match (V2 was not tested)
27 [8d45afa2] (00/16) No match (V2 was not tested)
Offsetted by 108:
01 [045464db] (00/15) No match
02 [d80c2de9] (00/14) No match
03 [9911ce53] (00/14) No match
04 [bdc3f19a] (00/15) No match
05 [54794e3e] (00/15) No match
06 [10022867] (00/15) No match
07 [7f9cb637] (00/14) No match
08 [3ae53088] (00/15) No match
09 [12303598] (00/15) No match
10 [ebbc0bd5] (00/14) No match
11 [60faf488] (00/16) No match
12 [e354959c] (00/16) No match
13 [93f5204e] (00/17) No match
14 [80fde165] (00/17) No match
15 [277ecf6d] (00/17) No match
16 [fcd0df71] (00/17) No match
17 [915c0713] (00/17) No match
18 [58e13b01] (00/17) No match
19 [81736cf8] (00/17) No match
20 [e8e99f90] (00/17) No match (V2 was not tested)
21 [06cbb415] (00/17) No match (V2 was not tested)
22 [c00888a7] (00/17) No match (V2 was not tested)
23 [92877f8b] (00/17) No match (V2 was not tested)
24 [adf3ab91] (00/17) No match (V2 was not tested)
25 [0a2f96f2] (00/17) No match (V2 was not tested)
26 [5491b28f] (00/17) No match (V2 was not tested)
27 [90e03fbe] (00/16) No match (V2 was not tested)

Track Peak [ CRC32 ] [W/O NULL] [ LOG ]
– 100,0 [A761EDB4] [27E7E772]
01 100,0 [E152B59A] [0A3CBE3C] CRC32
02 100,0 [0DB65A60] [F6260EDC] CRC32
03 90,3 [20EC02B6] [7762AB1C] CRC32
04 100,0 [77960510] [098FB3CA] CRC32
05 100,0 [9D53D187] [BCF6671A] CRC32
06 100,0 [A47F2804] [50E17185] CRC32
07 96,1 [870F22B9] [093F8AF7] CRC32
08 100,0 [CB46C0ED] [CCC0559D] CRC32
09 78,6 [4466B31D] [FAF7F691] CRC32
10 100,0 [E081D35E] [694E34F5] CRC32
11 49,0 [FF7AB2A5] [97D9C7B0] CRC32
12 83,6 [151509C8] [14714DB3] CRC32
13 100,0 [BC2DE4CF] [4541F681] CRC32
14 61,0 [1D131F6C] [CA11A10A] CRC32
15 80,7 [3EDE8086] [28124EFE] CRC32
16 72,4 [B0B9A371] [F906492D] CRC32
17 96,9 [130FCFA6] [1FF78A64] CRC32
18 82,5 [BE497B55] [944D4CAD] CRC32
19 94,2 [14253D1A] [43C70D94] CRC32
20 85,0 [FD3BEDC7] [0A4323FE] CRC32
21 97,7 [14BDC960] [F5A467E4] CRC32
22 95,5 [9F882283] [441B940E] CRC32
23 100,0 [4224D5FB] [A1727BF2] CRC32
24 82,9 [C06D15D7] [F1313752] CRC32
25 100,0 [4C907ADC] [CE6F6BEA] CRC32
26 93,0 [0AF6E093] [73BA913E] CRC32
27 76,7 [BFB72414] [84A8CB82] CRC32

foobar2000 1.2 / Dynamic Range Meter 1.1.1
log date: 2018-08-09 21:36:02

––––––––––––––––––––––––––––––––––––––––
Analyzed: Howlin' Wolf / The Complete RPM & Chess Singles As & Bs 1951-62 CD2
––––––––––––––––––––––––––––––––––––––––

DR Peak RMS Duration Track
––––––––––––––––––––––––––––––––––––––––
DR12 0.00 dB -13.70 dB 2:24 01-Come To Me Baby
DR13 0.00 dB -17.05 dB 2:38 02-Don't Mess With My Baby
DR13 -0.88 dB -17.36 dB 3:06 03-Smokestack Lightnin'
DR15 0.00 dB -17.85 dB 3:07 04-You Can't Be Beat
DR7 0.00 dB -10.58 dB 2:51 05-I Asked For Water
DR9 0.00 dB -10.62 dB 2:09 06-So Glad
DR14 -0.34 dB -16.60 dB 2:41 07-Goin' Back Home
DR10 0.00 dB -13.63 dB 3:07 08-My Life
DR9 -2.09 dB -13.12 dB 2:22 09-Somebody In My Home
DR11 0.00 dB -13.21 dB 2:47 10-Nature
DR10 -6.18 dB -17.89 dB 2:32 11-Poor Boy
DR12 -1.55 dB -15.32 dB 2:33 12-Sittin' On Top Of The World
DR12 0.00 dB -12.91 dB 2:25 13-I Didn't Know
DR11 -4.28 dB -16.63 dB 2:49 14-Moaning For My Baby
DR12 -1.86 dB -15.86 dB 2:55 15-I'm Leaving You
DR12 -2.80 dB -16.65 dB 3:31 16-Change My Ways
DR11 -0.27 dB -13.40 dB 2:46 17-Howlin' Blues
DR13 -1.66 dB -16.44 dB 2:44 18-I Better Go Now
DR11 -0.52 dB -13.79 dB 2:16 19-I'ver Been Abused
DR15 -1.41 dB -19.12 dB 2:43 20-Mister Airplane Man
DR13 -0.19 dB -15.41 dB 2:51 21-You Gonna Wreck My Life
DR10 -0.40 dB -14.97 dB 2:11 22-The Natchez Burning
DR9 0.00 dB -10.13 dB 2:23 23-Who's Been Talking
DR13 -1.62 dB -16.66 dB 2:57 24-Tell Me
DR9 0.00 dB -10.53 dB 2:46 25-Spoonful
DR14 -0.62 dB -17.04 dB 2:35 26-Howlin' For My Baby
DR12 -2.30 dB -15.54 dB 2:22 27-Wang Dang Doodle
––––––––––––––––––––––––––––––––––––––––

Number of tracks: 27
Official DR value: DR12

Samplerate: 44100 Hz
Channels: 2
Bits per sample: 16
Bitrate: 852 kbps
Codec: FLAC
================================================================================


Exact Audio Copy V1.0 beta 3 from 29. August 2011

EAC extraction logfile from 14. September 2014, 15:42

Howlin' Wolf / The Complete RPM & Chess Singles As & Bs 1951-62 CD3

Used drive : PIONEER DVD-RW DVR-110D Adapter: 1 ID: 1

Read mode : Secure
Utilize accurate stream : Yes
Defeat audio cache : Yes
Make use of C2 pointers : No

Read offset correction : 48
Overread into Lead-In and Lead-Out : No
Fill up missing offset samples with silence : Yes
Delete leading and trailing silent blocks : No
Null samples used in CRC calculations : Yes
Used interface : Native Win32 interface for Win NT & 2000
Gap handling : Appended to previous track

Used output format : User Defined Encoder
Selected bitrate : 1024 kBit/s
Quality : High
Add ID3 tag : No
Command line compressor : C:\Program Files\FLAC\flac.exe
Additional command line options : -V -8 -T "Date=%year%" -T "Genre=%genre%" %source%


TOC of the extracted CD

Track | Start | Length | Start sector | End sector
––––––––––––––––––––––––––––-
1 | 0:00.00 | 2:49.62 | 0 | 12736
2 | 2:49.62 | 2:45.19 | 12737 | 25130
3 | 5:35.06 | 2:11.02 | 25131 | 34957
4 | 7:46.08 | 2:15.46 | 34958 | 45128
5 | 10:01.54 | 2:28.12 | 45129 | 56240
6 | 12:29.66 | 2:21.66 | 56241 | 66881
7 | 14:51.57 | 3:24.66 | 66882 | 82247
8 | 18:16.48 | 2:49.30 | 82248 | 94952
9 | 21:06.03 | 2:54.24 | 94953 | 108026
10 | 24:00.27 | 2:08.10 | 108027 | 117636
11 | 26:08.37 | 2:12.16 | 117637 | 127552
12 | 28:20.53 | 2:21.71 | 127553 | 138198
13 | 30:42.49 | 2:54.51 | 138199 | 151299
14 | 33:37.25 | 2:58.52 | 151300 | 164701
15 | 36:36.02 | 3:13.28 | 164702 | 179204
16 | 39:49.30 | 2:58.55 | 179205 | 192609
17 | 42:48.10 | 2:41.21 | 192610 | 204705
18 | 45:29.31 | 4:09.64 | 204706 | 223444
19 | 49:39.20 | 2:53.31 | 223445 | 236450
20 | 52:32.51 | 2:43.22 | 236451 | 248697
21 | 55:15.73 | 3:00.56 | 248698 | 262253
22 | 58:16.54 | 2:51.43 | 262254 | 275121
23 | 61:08.22 | 2:16.21 | 275122 | 285342
24 | 63:24.43 | 2:10.58 | 285343 | 295150
25 | 65:35.26 | 2:37.36 | 295151 | 306961
26 | 68:12.62 | 2:21.06 | 306962 | 317542
27 | 70:33.68 | 2:41.13 | 317543 | 329630


Track 1

Filename D:\Howlin' Wolf\CD 3\01 Back Door Man.wav

Pre-gap length 0:00:02.00

Peak level 80.7 %
Extraction speed 2.5 X
Track quality 99.8 %
Test CRC F2540677
Copy CRC F2540677
Cannot be verified as accurate (confidence 1) [49799F47], AccurateRip returned [7CF1FC13] (AR v2)
Copy OK

Track 2

Filename D:\Howlin' Wolf\CD 3\02 Little Baby.wav

Peak level 97.7 %
Extraction speed 3.2 X
Track quality 99.8 %
Test CRC D4581952
Copy CRC D4581952
Cannot be verified as accurate (confidence 1) [12A62AD6], AccurateRip returned [B33678B5] (AR v2)
Copy OK

Track 3

Filename D:\Howlin' Wolf\CD 3\03 Down In The Bottom.wav

Peak level 85.7 %
Extraction speed 2.4 X
Track quality 99.7 %
Test CRC EC999838
Copy CRC EC999838
Cannot be verified as accurate (confidence 1) [50B55BD0], AccurateRip returned [1D704DCD] (AR v2)
Copy OK

Track 4

Filename D:\Howlin' Wolf\CD 3\04 Shake For Me.wav

Peak level 88.9 %
Extraction speed 3.4 X
Track quality 99.8 %
Test CRC 2E8B8C8B
Copy CRC 0DB22C41
Cannot be verified as accurate (confidence 1) [C987A9BC], AccurateRip returned [8C3517C2] (AR v2)
Copy OK

Track 5

Filename D:\Howlin' Wolf\CD 3\05 The Red Rooster.wav

Peak level 100.0 %
Extraction speed 4.2 X
Track quality 99.9 %
Test CRC DC2054D8
Copy CRC DC2054D8
Cannot be verified as accurate (confidence 1) [28EDCB32], AccurateRip returned [EA3AC9EE] (AR v2)
Copy OK

Track 6

Filename D:\Howlin' Wolf\CD 3\06 You'll Be Mine.wav

Peak level 100.0 %
Extraction speed 3.5 X
Track quality 99.8 %
Test CRC C75D7F37
Copy CRC C75D7F37
Cannot be verified as accurate (confidence 1) [B360CF18], AccurateRip returned [6098D4FE] (AR v2)
Copy OK

Track 7

Filename D:\Howlin' Wolf\CD 3\07 Goin' Down Slow.wav

Peak level 92.4 %
Extraction speed 3.4 X
Track quality 99.8 %
Test CRC D68277E6
Copy CRC D68277E6
Cannot be verified as accurate (confidence 1) [6D1C8B6C], AccurateRip returned [74239720] (AR v2)
Copy OK

Track 8

Filename D:\Howlin' Wolf\CD 3\08 Just Like I Treat You.wav

Peak level 91.9 %
Extraction speed 5.6 X
Track quality 100.0 %
Test CRC 403463A7
Copy CRC 403463A7
Cannot be verified as accurate (confidence 1) [F6150090], AccurateRip returned [87656A62] (AR v2)
Copy OK

Track 9

Filename D:\Howlin' Wolf\CD 3\09 I Ain't Superstitious.wav

Pre-gap length 0:00:00.01

Peak level 85.5 %
Extraction speed 2.0 X
Track quality 99.8 %
Test CRC 723FDC33
Copy CRC 723FDC33
Cannot be verified as accurate (confidence 1) [E04F8631], AccurateRip returned [0446FB50] (AR v2)
Copy OK

Track 10

Filename D:\Howlin' Wolf\CD 3\10 Mama's Baby.wav

Peak level 100.0 %
Extraction speed 4.6 X
Track quality 99.9 %
Test CRC 7340AAE7
Copy CRC 7340AAE7
Cannot be verified as accurate (confidence 1) [C2DFC642], AccurateRip returned [314A98AF] (AR v2)
Copy OK

Track 11

Filename D:\Howlin' Wolf\CD 3\11 Do The Do.wav

Peak level 85.3 %
Extraction speed 5.9 X
Track quality 100.0 %
Test CRC 2C794453
Copy CRC 2C794453
Cannot be verified as accurate (confidence 1) [49436F02], AccurateRip returned [692F6145] (AR v2)
Copy OK

Track 12

Filename D:\Howlin' Wolf\CD 3\12 Keep What You Got.wav

Peak level 91.1 %
Extraction speed 2.6 X
Track quality 99.7 %
Test CRC DF02E333
Copy CRC DF02E333
Cannot be verified as accurate (confidence 1) [0FA7A44A], AccurateRip returned [7827BE4D] (AR v2)
Copy OK

Track 13

Filename D:\Howlin' Wolf\CD 3\13 California Blues.wav

Peak level 91.8 %
Extraction speed 4.8 X
Track quality 99.8 %
Test CRC 1D6F69C2
Copy CRC 1D6F69C2
Cannot be verified as accurate (confidence 1) [471D8AA2], AccurateRip returned [67EA8A69] (AR v2)
Copy OK

Track 14

Filename D:\Howlin' Wolf\CD 3\14 California Boogie.wav

Peak level 83.7 %
Extraction speed 5.0 X
Track quality 99.8 %
Test CRC 22C3746B
Copy CRC 22C3746B
Cannot be verified as accurate (confidence 1) [2D51970E], AccurateRip returned [51749431] (AR v2)
Copy OK

Track 15

Filename D:\Howlin' Wolf\CD 3\15 My Troubles And Me.wav

Peak level 90.1 %
Extraction speed 5.4 X
Track quality 99.9 %
Test CRC 91187741
Copy CRC 91187741
Cannot be verified as accurate (confidence 1) [3484EDEA], AccurateRip returned [BE8F89B8] (AR v2)
Copy OK

Track 16

Filename D:\Howlin' Wolf\CD 3\16 Worried About My Baby.wav

Peak level 90.7 %
Extraction speed 7.0 X
Track quality 100.0 %
Test CRC 6F87DB84
Copy CRC 6F87DB84
Cannot be verified as accurate (confidence 1) [FD4750DA], AccurateRip returned [DCC9AA33] (AR v2)
Copy OK

Track 17

Filename D:\Howlin' Wolf\CD 3\17 Brown Skin Woman.wav

Peak level 100.0 %
Extraction speed 5.8 X
Track quality 99.9 %
Test CRC 107C015C
Copy CRC 107C015C
Cannot be verified as accurate (confidence 1) [1F0BA256], AccurateRip returned [3CC72F80] (AR v2)
Copy OK

Track 18

Filename D:\Howlin' Wolf\CD 3\18 House Rockin' Boogie.wav

Peak level 87.1 %
Extraction speed 4.8 X
Track quality 99.9 %
Test CRC F1E20F80
Copy CRC F1E20F80
Cannot be verified as accurate (confidence 1) [6293394B], AccurateRip returned [B32332EC] (AR v2)
Copy OK

Track 19

Filename D:\Howlin' Wolf\CD 3\19 Driving This Highway.wav

Peak level 90.3 %
Extraction speed 3.5 X
Track quality 99.9 %
Test CRC 9409EA4F
Copy CRC 9409EA4F
Cannot be verified as accurate (confidence 1) [E8FA7780], AccurateRip returned [2F9B6FA5] (AR v2)
Copy OK

Track 20

Filename D:\Howlin' Wolf\CD 3\20 The Sun Is Rising.wav

Pre-gap length 0:00:00.02

Peak level 95.6 %
Extraction speed 4.8 X
Track quality 99.8 %
Test CRC 208D1854
Copy CRC 208D1854
Cannot be verified as accurate (confidence 1) [85F06CD6], AccurateRip returned [6F8523B4] (AR v2)
Copy OK

Track 21

Filename D:\Howlin' Wolf\CD 3\21 Stealing My Clothes.wav

Peak level 90.2 %
Extraction speed 7.3 X
Track quality 100.0 %
Test CRC CE854E50
Copy CRC CE854E50
Cannot be verified as accurate (confidence 1) [6F9E0DED], AccurateRip returned [C1A4DCB0] (AR v2)
Copy OK

Track 22

Filename D:\Howlin' Wolf\CD 3\22 I'm The Wolf.wav

Peak level 81.0 %
Extraction speed 5.6 X
Track quality 99.8 %
Test CRC B0D60F9C
Copy CRC 353642CD
Cannot be verified as accurate (confidence 1) [82B3A8E2], AccurateRip returned [2DBDC05D] (AR v2)
Copy OK

Track 23

Filename D:\Howlin' Wolf\CD 3\23 Highway My Friend.wav

Peak level 96.5 %
Extraction speed 7.0 X
Track quality 100.0 %
Test CRC 4DABE9DE
Copy CRC 4DABE9DE
Cannot be verified as accurate (confidence 1) [E44FC880], AccurateRip returned [55FCD0F0] (AR v2)
Copy OK

Track 24

Filename D:\Howlin' Wolf\CD 3\24 Hold Your Money.wav

Peak level 91.2 %
Extraction speed 6.1 X
Track quality 99.9 %
Test CRC 58AE1E2C
Copy CRC 58AE1E2C
Cannot be verified as accurate (confidence 1) [6E5957BD], AccurateRip returned [D3B99BF7] (AR v2)
Copy OK

Track 25

Filename D:\Howlin' Wolf\CD 3\25 Stay Here Till My Baby Comes Back.wav

Peak level 89.0 %
Extraction speed 7.9 X
Track quality 100.0 %
Test CRC 6432776C
Copy CRC 6432776C
Cannot be verified as accurate (confidence 1) [999C72CF], AccurateRip returned [6281024C] (AR v2)
Copy OK

Track 26

Filename D:\Howlin' Wolf\CD 3\26 Crazy About You Baby.wav

Peak level 80.6 %
Extraction speed 6.1 X
Track quality 99.9 %
Test CRC C6B9F9AB
Copy CRC C6B9F9AB
Cannot be verified as accurate (confidence 1) [A6346EF2], AccurateRip returned [73FD0C5F] (AR v2)
Copy OK

Track 27

Filename D:\Howlin' Wolf\CD 3\27 Streamline Woman.wav

Peak level 73.1 %
Extraction speed 7.9 X
Track quality 100.0 %
Test CRC 5D37D71F
Copy CRC 5D37D71F
Cannot be verified as accurate (confidence 1) [7546B949], AccurateRip returned [4230E82A] (AR v2)
Copy OK


No tracks could be verified as accurate
You may have a different pressing from the one(s) in the database

No errors occurred

End of status report

–– CUETools DB Plugin V2.1.3

[CTDB TOCID: JIKcMd9pQj48ZzeIcGpCKvIhqzM-] found, Submit result: insufficient quality
[beac810a] (4/4) No match


==== Log checksum 9A62C56E86FF56BFEE0031C2E655C382049888CEAC678AA080DF7A84866BCC0C ====

[CUETools log; Date: 09.08.2018 21:35:11; Version: 2.1.4]
[CTDB TOCID: JIKcMd9pQj48ZzeIcGpCKvIhqzM-] found.
Track | CTDB Status
1 | ( 0/21) No match
2 | ( 0/21) No match
3 | ( 0/21) No match
4 | ( 0/21) No match
5 | ( 0/21) No match
6 | ( 0/21) No match
7 | ( 0/21) No match
8 | ( 0/21) No match
9 | ( 0/21) No match
10 | ( 0/21) No match
11 | ( 0/21) No match
12 | ( 0/21) No match
13 | ( 0/21) No match
14 | ( 0/21) No match
15 | ( 0/21) No match
16 | ( 0/21) No match
17 | ( 0/21) No match
18 | ( 0/21) No match
19 | ( 0/21) No match
20 | ( 0/21) No match
21 | ( 0/21) No match
22 | ( 0/21) No match
23 | ( 0/21) No match
24 | ( 0/21) No match
25 | ( 0/21) No match
26 | ( 0/21) No match
27 | ( 0/21) No match
[AccurateRip ID: 0045eda2-055130cd-92112b1b] found.
Track [ CRC | V2 ] Status
01 [56c38c93|49799f47] (00+00/15) No match
02 [5fa16f0a|12a62ad6] (00+00/15) No match
03 [ad969f6d|50b55bd0] (00+00/15) No match
04 [bd47bd1f|c987a9bc] (00+00/15) No match
05 [c115e2a7|28edcb32] (00+00/15) No match
06 [dcc3711c|b360cf18] (00+00/15) No match
07 [16bfa412|6d1c8b6c] (00+00/15) No match
08 [31f6d67d|f6150090] (00+00/15) No match
09 [12e05c8a|e04f8631] (00+00/14) No match
10 [407d35c3|c2dfc642] (00+00/15) No match
11 [628a7b8d|49436f02] (00+00/15) No match
12 [7cb0ac7f|0fa7a44a] (00+00/15) No match
13 [a0a4c4c7|471d8aa2] (00+00/15) No match
14 [e6ec2941|2d51970e] (00+00/15) No match
15 [d625303e|3484edea] (00+00/15) No match
16 [6b70ab47|fd4750da] (00+00/15) No match
17 [58db6109|1f0ba256] (00+00/15) No match
18 [c2d7a815|6293394b] (00+00/15) No match
19 [a59a1cca|e8fa7780] (00+00/15) No match
20 [5eadf226|85f06cd6] (00+00/15) No match
21 [7d5cf7e6|6f9e0ded] (00+00/14) No match
22 [59ca0e70|82b3a8e2] (00+00/14) No match
23 [82b91a40|e44fc880] (00+00/15) No match
24 [6b17d25e|6e5957bd] (00+00/15) No match
25 [35d5bb15|999c72cf] (00+00/15) No match
26 [b856d305|a6346ef2] (00+00/15) No match
27 [658f030f|7546b949] (00+00/13) No match
Offsetted by -757:
01 [4a75b981] (00/15) No match
02 [620e346c] (00/15) No match
03 [f7dc1ce0] (00/15) No match
04 [a111621e] (00/15) No match
05 [ad31adb2] (00/15) No match
06 [5aef9558] (00/15) No match
07 [e7e27709] (00/15) No match
08 [707cab35] (00/15) No match
09 [fcc21194] (00/14) No match
10 [09ada51c] (00/15) No match
11 [74219448] (00/15) No match
12 [fc18b2cf] (00/15) No match
13 [15365d25] (00/15) No match
14 [491ee359] (00/15) No match
15 [eb5b1d54] (00/15) No match
16 [379ff666] (00/15) No match
17 [8ad83125] (00/15) No match
18 [4f10854a] (00/15) No match
19 [0aaa6d9d] (00/15) No match
20 [d8150d74] (00/15) No match
21 [a7ffeab9] (00/14) No match
22 [32e781b6] (00/14) No match (V2 was not tested)
23 [752897e3] (00/15) No match (V2 was not tested)
24 [22be8b85] (00/15) No match (V2 was not tested)
25 [9a837a27] (00/15) No match (V2 was not tested)
26 [078ac416] (00/15) No match (V2 was not tested)
27 [c545a452] (00/13) No match (V2 was not tested)
Offsetted by -751:
01 [a53056bd] (00/15) No match (V2 was not tested)
02 [d8b20fbe] (00/15) No match (V2 was not tested)
03 [85aa6d48] (00/15) No match (V2 was not tested)
04 [0564544c] (00/15) No match
05 [e9e2a9b8] (00/15) No match (V2 was not tested)
06 [aa157290] (00/15) No match (V2 was not tested)
07 [f313e6a7] (00/15) No match (V2 was not tested)
08 [35d33225] (00/15) No match (V2 was not tested)
09 [0b7999c8] (00/14) No match (V2 was not tested)
10 [fe46cb1e] (00/15) No match (V2 was not tested)
11 [346a1aae] (00/15) No match (V2 was not tested)
12 [e5c8106f] (00/15) No match (V2 was not tested)
13 [03612c41] (00/15) No match (V2 was not tested)
14 [2cf33309] (00/15) No match (V2 was not tested)
15 [e1617360] (00/15) No match (V2 was not tested)
16 [4a4c0ed4] (00/15) No match (V2 was not tested)
17 [ed322c1d] (00/15) No match (V2 was not tested)
18 [9dc34dc4] (00/15) No match (V2 was not tested)
19 [854c9fb3] (00/15) No match (V2 was not tested)
20 [3883d570] (00/15) No match (V2 was not tested)
21 [c61900cf] (00/14) No match (V2 was not tested)
22 [60873b22] (00/14) No match
23 [71353c99] (00/15) No match
24 [14701e83] (00/15) No match
25 [e26c74eb] (00/15) No match
26 [bc2d5b08] (00/15) No match
27 [d9e68946] (00/13) No match
Offsetted by -72:
01 [16042dc3] (00/15) No match
02 [73dff56a] (00/15) No match
03 [2b97480d] (00/15) No match
04 [096462f7] (00/15) No match
05 [e8ca125f] (00/15) No match
06 [26fd127c] (00/15) No match
07 [906e68aa] (00/15) No match
08 [f1e8833d] (00/15) No match
09 [6245fa1a] (00/14) No match
10 [c94f6dab] (00/15) No match
11 [5f242ec5] (00/15) No match
12 [887848ff] (00/15) No match
13 [76a30f77] (00/15) No match
14 [38f86d01] (00/15) No match
15 [4dd927ae] (00/15) No match
16 [8b5f861f] (00/15) No match
17 [bca39d69] (00/15) No match
18 [1276425d] (00/15) No match
19 [e5ffc3c2] (00/15) No match
20 [d97c9256] (00/15) No match
21 [142feede] (00/14) No match
22 [364d5d60] (00/14) No match (V2 was not tested)
23 [b22161b8] (00/15) No match (V2 was not tested)
24 [16c4ee76] (00/15) No match (V2 was not tested)
25 [d6e9f9e5] (00/15) No match (V2 was not tested)
26 [40b7bfad] (00/15) No match (V2 was not tested)
27 [e7448124] (00/13) No match (V2 was not tested)
Offsetted by -66:
01 [70becaff] (00/15) No match (V2 was not tested)
02 [23750857] (00/15) No match (V2 was not tested)
03 [9f5d890a] (00/15) No match (V2 was not tested)
04 [6db75525] (00/15) No match (V2 was not tested)
05 [257b0e65] (00/15) No match (V2 was not tested)
06 [7622efb4] (00/15) No match (V2 was not tested)
07 [9b9fd848] (00/15) No match (V2 was not tested)
08 [b73f0a2d] (00/15) No match (V2 was not tested)
09 [70fd824e] (00/14) No match (V2 was not tested)
10 [bde893ad] (00/15) No match (V2 was not tested)
11 [1f6cb52b] (00/15) No match (V2 was not tested)
12 [7227a69f] (00/15) No match (V2 was not tested)
13 [64cdde93] (00/15) No match (V2 was not tested)
14 [1cccbcb1] (00/15) No match (V2 was not tested)
15 [43df7dba] (00/15) No match (V2 was not tested)
16 [9e0b9e8d] (00/15) No match (V2 was not tested)
17 [1efd9861] (00/15) No match (V2 was not tested)
18 [61290ad7] (00/15) No match (V2 was not tested)
19 [60a1f5d8] (00/15) No match (V2 was not tested)
20 [39eb5a52] (00/15) No match (V2 was not tested)
21 [324904f4] (00/14) No match (V2 was not tested)
22 [63ed16cc] (00/14) No match
23 [ae2e066e] (00/15) No match
24 [08768174] (00/15) No match
25 [1ed2f4a9] (00/15) No match
26 [f55a569f] (00/15) No match
27 [36fb5ca0] (00/13) No match

Track Peak [ CRC32 ] [W/O NULL] [ LOG ]
– 100,0 [C3EB1F63] [61D63535]
01 80,7 [F2540677] [759576CD] CRC32
02 97,7 [D4581952] [85C8B529] CRC32
03 85,7 [EC999838] [9D9000D8] CRC32
04 88,9 [0DB22C41] [1661C19B] CRC32
05 100,0 [DC2054D8] [8398B95C] CRC32
06 100,0 [C75D7F37] [DC7B615E] CRC32
07 92,4 [D68277E6] [A81B5CDA] CRC32
08 91,9 [403463A7] [A6574F12] CRC32
09 85,5 [723FDC33] [C3C1161E] CRC32
10 100,0 [7340AAE7] [23F3E6CD] CRC32
11 85,3 [2C794453] [9E25916A] CRC32
12 91,1 [DF02E333] [7B30C6F0] CRC32
13 91,8 [1D6F69C2] [8A51D608] CRC32
14 83,7 [22C3746B] [8D6B6E7A] CRC32
15 90,1 [91187741] [FE41EC8E] CRC32
16 90,7 [6F87DB84] [92788C0D] CRC32
17 100,0 [107C015C] [9E3DADBB] CRC32
18 87,1 [F1E20F80] [0AC9EED3] CRC32
19 90,3 [9409EA4F] [1C02D750] CRC32
20 95,6 [208D1854] [2B295ED3] CRC32
21 90,2 [CE854E50] [C9BED061] CRC32
22 81,0 [353642CD] [DF598633] CRC32
23 96,5 [4DABE9DE] [5172EC57] CRC32
24 91,2 [58AE1E2C] [69F0DDEC] CRC32
25 89,0 [6432776C] [32018331] CRC32
26 80,6 [C6B9F9AB] [247F3106] CRC32
27 73,1 [5D37D71F] [15540630] CRC32

foobar2000 1.2 / Dynamic Range Meter 1.1.1
log date: 2018-08-09 21:36:48

––––––––––––––––––––––––––––––––––––––––
Analyzed: Howlin' Wolf / The Complete RPM & Chess Singles As & Bs 1951-62 CD3
––––––––––––––––––––––––––––––––––––––––

DR Peak RMS Duration Track
––––––––––––––––––––––––––––––––––––––––
DR10 -1.86 dB -13.33 dB 2:50 01-Back Door Man
DR9 -0.20 dB -11.08 dB 2:45 02-Little Baby
DR12 -1.33 dB -15.84 dB 2:11 03-Down In The Bottom
DR11 -1.02 dB -13.81 dB 2:16 04-Shake For Me
DR10 0.00 dB -11.81 dB 2:28 05-The Red Rooster
DR10 0.00 dB -11.18 dB 2:22 06-You'll Be Mine
DR13 -0.68 dB -16.33 dB 3:25 07-Goin' Down Slow
DR11 -0.72 dB -13.11 dB 2:49 08-Just Like I Treat You
DR11 -1.35 dB -13.54 dB 2:54 09-I Ain't Superstitious
DR10 0.00 dB -11.84 dB 2:08 10-Mama's Baby
DR11 -1.38 dB -13.74 dB 2:12 11-Do The Do
DR6 -0.80 dB -8.12 dB 2:22 12-Keep What You Got
DR12 -0.74 dB -14.62 dB 2:55 13-California Blues
DR13 -1.54 dB -16.88 dB 2:59 14-California Boogie
DR10 -0.90 dB -12.89 dB 3:13 15-My Troubles And Me
DR11 -0.84 dB -13.07 dB 2:59 16-Worried About My Baby
DR10 0.00 dB -12.00 dB 2:41 17-Brown Skin Woman
DR10 -1.20 dB -13.10 dB 4:10 18-House Rockin' Boogie
DR9 -0.88 dB -11.82 dB 2:53 19-Driving This Highway
DR9 -0.39 dB -11.71 dB 2:43 20-The Sun Is Rising
DR7 -0.89 dB -9.98 dB 3:01 21-Stealing My Clothes
DR13 -1.82 dB -18.17 dB 2:52 22-I'm The Wolf
DR8 -0.30 dB -10.53 dB 2:16 23-Highway My Friend
DR11 -0.79 dB -14.17 dB 2:11 24-Hold Your Money
DR12 -1.01 dB -15.98 dB 2:37 25-Stay Here Till My Baby Comes Back
DR11 -1.87 dB -14.65 dB 2:21 26-Crazy About You Baby
DR8 -2.71 dB -12.77 dB 2:41 27-Streamline Woman
––––––––––––––––––––––––––––––––––––––––

Number of tracks: 27
Official DR value: DR10

Samplerate: 44100 Hz
Channels: 2
Bits per sample: 16
Bitrate: 552 kbps
Codec: FLAC
================================================================================

Howlin' Wolf - The Complete RPM & Chess Singles As & Bs, 1951-62 (2014) 3CD Set

Howlin' Wolf - The Complete RPM & Chess Singles As & Bs, 1951-62 (2014) 3CD Set

All thanks to original releaser - zhconst

More interesting music in My Blog

More Howlin' Wolf Albums