Tags
Language
Tags
May 2024
Su Mo Tu We Th Fr Sa
28 29 30 1 2 3 4
5 6 7 8 9 10 11
12 13 14 15 16 17 18
19 20 21 22 23 24 25
26 27 28 29 30 31 1

Hubert Laws: Collection (1960-1983) [3LP, Vinyl Rip 16/44 & mp3-320 + DVD] Re-up

Posted By: v3122
Hubert Laws: Collection (1960-1983) [3LP, Vinyl Rip 16/44 & mp3-320 + DVD] Re-up

Hubert Laws: Collection (1960-1983)
Vinyl Rip 16/44 | Flac(Image + Cue) > 558 Mb
MP3 CBR 320Kbps > 242 Mb | Artwork(jpg) > 35 Mb
DVD-9: NTSC 4:3 (720x480) VBR | LPCM, 2 ch, 24 bit, 96 kHz > 5.01 Gb
Label: Various | Jazz, Classical, Funk, Soul

Hubert Laws (born November 10, 1939) is an American flutist and saxophonist with a career spanning over 50 years in jazz, classical, and other music genres. Considering the artistry of the late Eric Dolphy and the popularity of the late Herbie Mann, Laws is notably in the company of the most recognized and respected jazz flutists in the history of jazz, (also the most imitated). Laws is one of the few classical artists who has also mastered jazz, pop, and rhythm-and-blues genres, moving effortlessly from one repertory to another…

~ wiki
Hubert Laws: Collection (1960-1983) [3LP, Vinyl Rip 16/44 & mp3-320 + DVD] Re-up

Hubert Laws: Collection (1960-1983):

Hubert Laws: Collection (1960-1983) [3LP, Vinyl Rip 16/44 & mp3-320 + DVD] Re-up

Tracklist LP01 - 1969 - Crying Song:
CTI Records – SR-3301, Japan

A1. La Jean
A2. Love Is Blue / Sing A Rainbow
A3. Crying Song
A4. Listen To The Band
A5. 've Gotta Get A Message To You

B1. Feelin' Alright?
B2. Cymbaline
B3. How Long Will It Be?
B4. Let It Be

foobar2000 1.4 / Dynamic Range Meter 1.1.1
log date: 2018-12-08 21:49:16

––––––––––––––––––––––––––––––––––––––––
Analyzed: Hubert Laws / Crying Song
––––––––––––––––––––––––––––––––––––––––

DR Peak RMS Duration Track
––––––––––––––––––––––––––––––––––––––––
DR10 -3.28 dB -17.07 dB 2:32 01-A1. La Jean
DR12 -0.11 dB -17.60 dB 3:28 02-A2. Love Is Blue / Sing A Rainbow
DR12 -6.70 dB -24.41 dB 4:55 03-A3. Crying Song
DR12 -0.75 dB -15.18 dB 3:27 04-A4. Listen To The Band
DR13 -2.37 dB -17.76 dB 3:13 05-A5. 've Gotta Get A Message To You
DR12 -1.63 dB -18.01 dB 2:36 06-B1. Feelin' Alright?
DR12 -4.71 dB -20.49 dB 3:56 07-B2. Cymbaline
DR13 -2.97 dB -19.35 dB 6:15 08-B3. How Long Will It Be?
DR12 -2.36 dB -17.45 dB 3:37 09-B4. Let It Be
––––––––––––––––––––––––––––––––––––––––

Number of tracks: 9
Official DR value: DR12

Samplerate: 44100 Hz
Channels: 2
Bits per sample: 16
Bitrate: 667 kbps
Codec: FLAC
================================================================================




Original ripper: Valiko
Original format: 24/96
Vinyl Condition: Ex
Cleaning:
Direct Drive Turntable: DIATONE LT-3
Cartridge: DENON DL-103
Amplifier: SUT Entre ET-100/Sanei PR-100
ADC: ONKYO WAVIO SE-300PCIE
Postprocessing:

Downsampled to 16/44

Hubert Laws: Collection (1960-1983) [3LP, Vinyl Rip 16/44 & mp3-320 + DVD] Re-up

Tracklist LP02 - 1975 - The Chicago Theme:
CTI Records – LAX 3241, Japan

A1. The Chicago Theme (Love Loop)
A2. Midnight At The Oasis
A3. You Make Me Feel Brand New

B1. Going Home
B2. I Had A Dream
B3. Inflation Chaser

foobar2000 1.4 / Dynamic Range Meter 1.1.1
log date: 2018-12-08 21:49:42

––––––––––––––––––––––––––––––––––––––––
Analyzed: Hubert Laws / The Chicago Theme
––––––––––––––––––––––––––––––––––––––––

DR Peak RMS Duration Track
––––––––––––––––––––––––––––––––––––––––
DR15 -0.16 dB -16.88 dB 5:35 01-A1. The Chicago Theme (Love Loop)
DR15 -2.54 dB -19.47 dB 5:29 02-A2. Midnight At The Oasis
DR15 -1.33 dB -18.42 dB 5:53 03-A3. You Make Me Feel Brand New
DR11 -2.26 dB -16.35 dB 4:55 04-B1. Going Home
DR15 -1.76 dB -18.44 dB 6:01 05-B2. I Had A Dream
DR15 -0.51 dB -18.00 dB 6:52 06-B3. Inflation Chaser
––––––––––––––––––––––––––––––––––––––––

Number of tracks: 6
Official DR value: DR14

Samplerate: 44100 Hz
Channels: 2
Bits per sample: 16
Bitrate: 698 kbps
Codec: FLAC
================================================================================




Original ripper: Valiko
Original format: 24/96
Vinyl Condition: Ex
Cleaning:
Direct Drive Turntable: DIATONE LT-3
Cartridge: DENON DL-103
Amplifier: SUT Entre ET-100/Sanei PR-100
ADC: ONKYO WAVIO SE-300PCIE
Postprocessing:

Downsampled to 16/44

Hubert Laws: Collection (1960-1983) [3LP, Vinyl Rip 16/44 & mp3-320 + DVD] Re-up

Tracklist LP03 - 1983 - Make It Last:
CBS/Sony – 25AP 2737, Japan

A1. Gonna Be Happy (TV Soaps)
A2. Make It Last
A3. Happy Anniversary
A4. Swan Lake

B1. Stay With Me
B2. Morning Star
B3. Life Cycles


Original ripper: Valiko
Original format: 24/96
Vinyl Condition: Ex
Cleaning:
Direct Drive Turntable: Victor QL-Y7
Cartridge: Shure m97xE /VN35 SAS
Amplifier: Sanei PR-100
ADC: ONKYO WAVIO SE-300PCIE
Postprocessing:

Downsampled to 16/44

Title: AudioDVD
Size: 4.74 Gb ( 4 973 002,00 KBytes ) - DVD-9
Enabled regions: 1, 2, 3, 4, 5, 6, 7, 8

VTS_01 :
Play Length: 00:33:57+00:34:44+01:14:13
Video: NTSC 4:3 (720x480) VBR
Audio:
Not specified (LinearPCM, 2 ch)


Hubert Laws: Collection (1960-1983) [3LP, Vinyl Rip 16/44 & mp3-320 + DVD] Re-up

Hubert Laws: Collection (1960-1983) [3LP, Vinyl Rip 16/44 & mp3-320 + DVD] Re-up

Download Hubert Laws: Collection (1960-1983):