Subcategories
Tags
Language
Tags

Hugh Masekela - Hugh Masekela & The Union Of South Africa (1971) {MoJazz}

Posted By: tiburon
Hugh Masekela - Hugh Masekela & The Union Of South Africa (1971) {MoJazz}

Hugh Masekela - Hugh Masekela & The Union Of South Africa (1971) {MoJazz}
EAC 0.95b3 | FLAC tracks level 8 | Cue+Log+M3U | Full Scans 300dpi | 275MB + 5% Recovery
MP3 CBR 320 Kbps | 88MB + 5% Recovery
Genre: Jazz-Funk, African Music, Funk

This classic recording has a beautiful balance of African aesthetics meet American soul, jazz, funk, rock and pop. The songs have a vintage sound that could only have been made by a South African playing American music in 1971. Along these lines, the album cover is the perfect visual representation of the music. While having a 1970's sound, "Hugh Masekela & the Union of South Africa" is by no means outdated, nor will it ever. The disc has an enjoyable mix of slow ballads, township infused instrumentals and fast funk. The song writing is superb, the musical improvisation is good and the voices soar.
Track List
01. Goin' Back to New Orleans (5:07) (Hugh Masekela)
02. Ade (3:47) (Caiphus Semenya)
03. To Get Ourselves Together (2:52) (Hugh Masekela)
04. Johannesburg Hi-Lite Jive (3:57) (Eric Songxaka-Jonas Gwangwa)
05. Mamani (5:23) (Caiphus Semenya)
06. Shebeen (4:02) (Jonas Gwangwa)
07. Dyambo (3:49) (Caiphus Semenya)
08. Caution! (5:41) (Caiphus Semenya)
09. Hush (Somebody's Calling My Name) (3:34) (Joe W. May)

Hugh Masekela - Trumpet Vocals
Jonas Gwangwa - Trombone, Vocals
Caiphus Semenya - Alto Sax, Vocals
+ uncredit session musicians

Produced by Stewart Levine


EAC extraction logfile from 25. June 2006, 21:16 for CD
Hugh Masakela & the Union of South Africa / Same

Used drive : TSSTcorpCD/DVDW TS-H542A Adapter: 1 ID: 0
Read mode : Secure with NO C2, accurate stream, disable cache
Read offset correction : 116
Overread into Lead-In and Lead-Out : No

Used output format : Internal WAV Routines
44.100 Hz; 16 Bit; Stereo

Other options :
Fill up missing offset samples with silence : Yes
Delete leading and trailing silent blocks : No
Installed external ASPI interface


Track 1
Filename F:\Seeds\Hugh Masekela & The Union Of South Africa - Same (1971) [FLAC] {Afrorock}\01 - Goin' Back to New Orleans.wav

Pre-gap length 0:00:02.00

Peak level 94.4 %
Track quality 100.0 %
Test CRC 1CF63E18
Copy CRC 1CF63E18
Copy OK

Track 2
Filename F:\Seeds\Hugh Masekela & The Union Of South Africa - Same (1971) [FLAC] {Afrorock}\02 - Ade.wav

Pre-gap length 0:00:03.93

Peak level 94.3 %
Track quality 100.0 %
Test CRC B652CDFE
Copy CRC B652CDFE
Copy OK

Track 3
Filename F:\Seeds\Hugh Masekela & The Union Of South Africa - Same (1971) [FLAC] {Afrorock}\03 - To Get Ourselves Together.wav

Pre-gap length 0:00:03.73

Peak level 94.4 %
Track quality 100.0 %
Test CRC C0C5E7F9
Copy CRC C0C5E7F9
Copy OK

Track 4
Filename F:\Seeds\Hugh Masekela & The Union Of South Africa - Same (1971) [FLAC] {Afrorock}\04 - Johannesburg Hi-Lite Jive.wav

Pre-gap length 0:00:04.16

Peak level 94.4 %
Track quality 100.0 %
Test CRC D88F4396
Copy CRC D88F4396
Copy OK

Track 5
Filename F:\Seeds\Hugh Masekela & The Union Of South Africa - Same (1971) [FLAC] {Afrorock}\05 - Mamani.wav

Pre-gap length 0:00:04.60

Peak level 94.4 %
Track quality 100.0 %
Test CRC 7348593E
Copy CRC 7348593E
Copy OK

Track 6
Filename F:\Seeds\Hugh Masekela & The Union Of South Africa - Same (1971) [FLAC] {Afrorock}\06 - Shebeen.wav

Pre-gap length 0:00:05.36

Peak level 94.1 %
Track quality 100.0 %
Test CRC 51BC4326
Copy CRC 51BC4326
Copy OK

Track 7
Filename F:\Seeds\Hugh Masekela & The Union Of South Africa - Same (1971) [FLAC] {Afrorock}\07 - Dyambo.wav

Pre-gap length 0:00:03.73

Peak level 94.4 %
Track quality 99.9 %
Test CRC 10B7BA7F
Copy CRC 10B7BA7F
Copy OK

Track 8
Filename F:\Seeds\Hugh Masekela & The Union Of South Africa - Same (1971) [FLAC] {Afrorock}\08 - Caution!.wav

Pre-gap length 0:00:03.73

Peak level 90.4 %
Track quality 99.9 %
Test CRC 9A7C85E8
Copy CRC 9A7C85E8
Copy OK

Track 9
Filename F:\Seeds\Hugh Masekela & The Union Of South Africa - Same (1971) [FLAC] {Afrorock}\09 - Hush (Somebody's Calling My Name).wav

Pre-gap length 0:00:05.26

Peak level 94.4 %
Track quality 100.0 %
Test CRC 98061B7A
Copy CRC 98061B7A
Copy OK

No errors occured


End of status report


––––––––––––––––––––––––––––––––––––––––
Analyzed: Hugh Masekela / Hugh Masekela & The Union Of South Africa
––––––––––––––––––––––––––––––––––––––––

DR Peak RMS Duration Track
––––––––––––––––––––––––––––––––––––––––
DR13 -0.50 dB -15.56 dB 5:08 01-Goin' Back to New Orleans
DR13 -0.50 dB -15.00 dB 3:47 02-Ade
DR13 -0.50 dB -15.15 dB 2:52 03-To Get Ourselves Together
DR13 -0.50 dB -14.46 dB 3:58 04-Johannesburg Hi-Lite Jive
DR13 -0.50 dB -15.78 dB 5:25 05-Mamani
DR13 -0.52 dB -15.14 dB 4:03 06-Shebeen
DR13 -0.50 dB -15.53 dB 3:49 07-Dyambo
DR13 -0.87 dB -16.23 dB 5:43 08-Caution!
DR14 -0.50 dB -17.97 dB 3:34 09-Hush (Somebody's Calling My Name)
––––––––––––––––––––––––––––––––––––––––

Number of tracks: 9
Official DR value: DR13

Samplerate: 44100 Hz
Channels: 2
Bits per sample: 16
Bitrate: 722 kbps
Codec: FLAC
================================================================================

Hugh Masekela - Hugh Masekela & The Union Of South Africa (1971) {MoJazz}
Hugh Masekela - Hugh Masekela & The Union Of South Africa (1971) {MoJazz}


Thanks to the original ripper