Tags
Language
Tags

Icon - Icon (1984) [1993, Japan]

Posted By: BlondStyle
Icon - Icon (1984) [1993, Japan]

Icon - Icon (1984) [1993, Japan]
Rock, Hard Rock, Heavy Metal | EAC Rip | FLAC, Img+CUE+LOG+Scans (JPEG) | 37:22 | 257,16 Mb
Label: Capitol Records/Toshiba-EMI Ltd. (Japan) | Cat.# TOCP-8055 | Released: 1993-10-20 (1984-07-07)

"Icon" was the self-titled debut album by the heavy metal band Icon. It included their biggest metal radio hit song, "On Your Feet". The album was re-released the same year with songs 1 and 3 re-mixed, and a video was made for the remix of "On Your Feet". The album has seen multiple re-releases on CD, in Japan and on the European labels Bear Tracks, AxeKiller and Rock Candy.
~Wikipedia
A web search on the band Icon presents very little in the way of factual or biographical information. The facts that are presented include their place of origin (Arizona) and that they were together from 1982-1989. But these details you don't necessarily need to know. What you do need to know is that they rock, hard and furious, and could go punch for punch, song for song, with any of the so-called heavy metal giants of the era. Icon could decimate anything Ratt or Mötley Crüe put out during this time, and the band holds a place on par with Judas Priest and W.A.S.P.'s output. Sparing no expense from start to finish, the band digs in with sonic claws of steel forged from the gods of heavy metal thunder and lightning, and doesn't let up until the last notes of the melancholic power ballad finale "It's Up to You" fades away into the mist like a sunset on the Pacific Ocean horizon. Stephen Clifford may sound a bit like Kevin DuBrow or Blackie Lawless, but that's a mere oversight compared to what this record has to offer. For fans of an era gone by who still searching the vaults for hidden treasures, Icon includes several gems that bear repeat listening for a long time to come. It's essential listening for those who missed it the first time around.
~Review by Rob Theakston

Icon - Icon (1984) [1993, Japan]

Icon - Icon (1984) [1993, Japan]




Release of this album: 1984, July, 7 [LP Capitol Records, Cat.# ST-12336, USA]
Release of this CD: 1993, October, 20 [CD Capitol Records/Toshiba-EMI Ltd. (Japan), Cat.# TOCP-8055 / EAN: 4988006690370]
℗ 1984 Capitol Records, Inc.
Manufactured by Toshiba-EMI Ltd.
Made in Japan


Notes: Reissue. A part of the "BURRN! Legendary Masters" Series under #11.

Credits:

Art Direction – Roy Kohara
Bass, Vocals – Tracy Wallach
Design [logo] – John O'Brien
Drums – Pat Dixon
Engineer – Allen Sudduth
Guitar – John Aquilino
Guitar, Vocals – Dan Wexler
Illustration [cover] – James Dowlen
Illustration [logo] – Rick Monzon
Lead Vocals – Stephen Clifford
Liner Notes – 川合純行
Mastered By – Stephen Marcussen
Photography By – Karen Filter
Producer – Mike Varney


Tracklist:

01. (Rock On) Through The Night (03:35)
02. Killer Machine (03:34)
03. On Your Feet (03:24)
04. World War (04:31)
05. Hot Desert Night (03:53)
06. Under My Gun (03:34)
07. Iconoclast (01:28)
08. Rock 'N' Roll Maniac (04:02)
09. I'm Alive (04:11)
10. It's Up To You (05:10)

Exact Audio Copy V0.99 prebeta 5 from 4. May 2009

Отчёт EAC об извлечении, выполненном 30. мая 2011, 10:21

Icon / Icon [TOCP-8055]

Дисковод: Optiarc DVD RW AD-7200A Adapter: 1 ID: 0

Режим чтения : Достоверность
Использование точного потока : Да
Отключение кэша аудио : Да
Использование указателей C2 : Нет

Коррекция смещения при чтении : 48
Способность читать области Lead-in и Lead-out : Нет
Заполнение пропущенных сэмплов тишиной : Да
Удаление блоков с тишиной в начале и конце : Нет
При вычислениях CRC использовались нулевые сэмплы : Да
Интерфейс : Встроенный Win32-интерфейс для Win NT/2000

Выходной формат : Пользовательский кодировщик
Выбранный битрейт : 128 kBit/s
Качество : Высокий
Добавление ID3-тэга : Нет
Утилита сжатия : C:\Program Files\Exact Audio Copy\Flac\flac.exe
Дополнительные параметры : -8 -V -T "artist=%a" -T "title=%t" -T "album=%g" -T "date=%y" -T "tracknumber=%n" -T "genre=%m" -T "comment=EAC


TOC извлечённого CD

Трек | Старт | Длительность | Начальный сектор | Конечный сектор
––––––––––––––––––––––––––––––––––-
1 | 0:00.00 | 3:34.67 | 0 | 16116
2 | 3:34.67 | 3:34.08 | 16117 | 32174
3 | 7:09.00 | 3:23.72 | 32175 | 47471
4 | 10:32.72 | 4:31.30 | 47472 | 67826
5 | 15:04.27 | 3:53.08 | 67827 | 85309
6 | 18:57.35 | 3:33.67 | 85310 | 101351
7 | 22:31.27 | 1:27.65 | 101352 | 107941
8 | 23:59.17 | 4:01.53 | 107942 | 126069
9 | 28:00.70 | 4:10.40 | 126070 | 144859
10 | 32:11.35 | 5:10.17 | 144860 | 168126


Характеристики диапазона извлечения и сообщения об ошибках

Выбранный диапазон

Имя файла Y:\Музыка\Icon\1984 Icon\Icon - Icon [TOCP-8055].wav

Пиковый уровень 100.0 %
Качество диапазона 100.0 %
CRC теста 2F93CFCC
CRC копии 2F93CFCC
Копирование… OK

Ошибок не произошло


AccurateRip: сводка

Трек 1 нет в базе данных
Трек 2 нет в базе данных
Трек 3 нет в базе данных
Трек 4 нет в базе данных
Трек 5 нет в базе данных
Трек 6 нет в базе данных
Трек 7 нет в базе данных
Трек 8 нет в базе данных
Трек 9 нет в базе данных
Трек 10 нет в базе данных

Ни одного трека нет в базе AccurateRip

Конец отчёта

––––––––––––––––––––––––––––––––––––––––
Analyzed: Icon / Icon [TOCP-8055]
––––––––––––––––––––––––––––––––––––––––

DR Peak RMS Duration Track
––––––––––––––––––––––––––––––––––––––––
DR12 -0.80 dB -14.52 dB 3:35 01-(Rock On) Through The Night
DR12 -2.00 dB -16.34 dB 3:34 02-Killer Machine
DR12 -2.22 dB -15.77 dB 3:24 03-On Your Feet
DR12 -1.96 dB -15.29 dB 4:31 04-World War
DR11 -3.21 dB -16.91 dB 3:53 05-Hot Desert Night
DR12 -1.97 dB -14.75 dB 3:34 06-Under My Gun
DR13 0.00 dB -15.28 dB 1:28 07-Iconoclast
DR12 -1.63 dB -14.96 dB 4:02 08-Rock 'N' Roll Maniac
DR13 -2.63 dB -17.40 dB 4:11 09-I'm Alive
DR13 -3.62 dB -18.34 dB 5:10 10-It's Up To You
––––––––––––––––––––––––––––––––––––––––

Number of tracks: 10
Official DR value: DR12

Samplerate: 44100 Hz
Channels: 2
Bits per sample: 16
Bitrate: 916 kbps
Codec: FLAC
================================================================================

Thanks to Pretender

♫~Welcome To My Blog~♫

password: BlondStyle