Tags
Language
Tags

Jacco Gardner - Hypnophobia (2015)

Posted By: popsakov
Jacco Gardner - Hypnophobia (2015)

Jacco Gardner - Hypnophobia (2015)
EAC Rip | FLAC (Img) + Cue + Log ~ 261 Mb | MP3 CBR320 ~ 111 Mb
Scans Included | 00:40:09 | RAR 5% Recovery
Alternative Rock / Indie Rock / Psychedelic Rock / Baroque Pop
Excelsior Recordings #EXCEL96413

Hypnophobia, the brand new album from ‘baroque pop’ prince and Dutch producer/multi-instrumentalist Jacco Gardner, casts a majestic and vibrant psychedelic spell that will hypnotise listeners at the point dreams and reality meet.

On his debut album, Cabinet of Curiosities, Jacco Gardner showed himself to be the best kind of revivalist. He didn't just unearth the paisley-clad bones of '60s psychedelia, he added a clean perfectly arranged modern feel that made the record sound timeless and up-to-date as well. Like that record, Hypnophobia sounds like a freshly polished psych-pop rarity that was rescued from some musty vault, with loads of Mellotron-colored songs ("Outside Forever") and stately ballads ("All Over") to keep the psych-pop hordes satiated. This time out there's a little more folk-pop in the mix, with tracks like "Brightly" and "Face to Face" having some Brit folk in their brightly strummed guitars and swirling Mellotrons. Another difference is that the reverb and echo are applied a little less heavily this time, which gives the arrangements a crisper, less fussy feel that allows the melodies to come through a little clearer, and lets the poppiest songs really jump out of the speakers. The lilting "Find Yourself" and almost insistent "Another You" are fine examples of this. Elsewhere, Gardner digs in deep and lets himself get expansive on the meanderingly bright candy psych groover "Before the Dawn," which lasts for over eight pleasantly chirpy minutes. He also stretches out on the title track, which revels in layers of creepy-sounding harpsichord. It's good to hear Gardner taking the album in these new, less-structured areas since it provides a nice bit of balance to the midtempo tracks that prevail elsewhere. Despite these small tweaks to his established, well-oiled formula, Hypnophobia feels like a natural follow-up to Cabinet, with Gardner not looking to do much of anything new. Why would he when there is still so much of the '60s to be revisited? And why change when he does such an admirable job of revisiting it?

~ Tim Sendra, All Music

***************

Jacco Gardner - Hypnophobia (2015)

Track List:

01. Another You [03:59]
02. Grey Lanes [03:07]
03. Brightly [03:08]
04. Find Yourself [03:35]
05. Face To Face [03:08]
06. Outside Forever [04:18]
07. Before The Dawn [08:05]
08. Hypnophobia [05:29]
09. Make Me See [01:38]
10. All Over [03:47]

Exact Audio Copy V1.0 beta 6 from 9. April 2015

EAC extraction logfile from 9. May 2015, 9:59

Jacco Gardner / Hypnophobia

Used drive : hp CDDVDW SH-216DB Adapter: 1 ID: 0

Read mode : Secure
Utilize accurate stream : Yes
Defeat audio cache : Yes
Make use of C2 pointers : No

Read offset correction : 6
Overread into Lead-In and Lead-Out : No
Fill up missing offset samples with silence : Yes
Delete leading and trailing silent blocks : No
Null samples used in CRC calculations : Yes
Used interface : Native Win32 interface for Win NT & 2000

Used output format : Internal WAV Routines
Sample format : 44.100 Hz; 16 Bit; Stereo


TOC of the extracted CD

Track | Start | Length | Start sector | End sector
––––––––––––––––––––––––––––-
1 | 0:00.00 | 3:58.12 | 0 | 17861
2 | 3:58.12 | 3:06.59 | 17862 | 31870
3 | 7:04.71 | 3:07.16 | 31871 | 45911
4 | 10:12.12 | 3:34.14 | 45912 | 61975
5 | 13:46.26 | 3:07.69 | 61976 | 76069
6 | 16:54.20 | 4:17.20 | 76070 | 95364
7 | 21:11.40 | 8:04.33 | 95365 | 131697
8 | 29:15.73 | 5:28.55 | 131698 | 156352
9 | 34:44.53 | 1:37.39 | 156353 | 163666
10 | 36:22.17 | 3:46.29 | 163667 | 180645


Range status and errors

Selected range

Filename E:\POST\Jacco Gardner - Hypnophobia (EAC)\Jacco Gardner - Hypnophobia.wav

Peak level 100.0 %
Extraction speed 6.3 X
Range quality 100.0 %
Test CRC 0E289F4E
Copy CRC 0E289F4E
Copy OK

No errors occurred


AccurateRip summary

Track 1 not present in database
Track 2 not present in database
Track 3 not present in database
Track 4 not present in database
Track 5 not present in database
Track 6 not present in database
Track 7 not present in database
Track 8 not present in database
Track 9 not present in database
Track 10 not present in database

None of the tracks are present in the AccurateRip database

End of status report

[CUETools log; Date: 02.04.2019 22:58:16; Version: 2.1.6]
[CTDB TOCID: 3s3blC7dFqZjuyz7hYOgpIBHTqg-] found.
Track | CTDB Status
1 | (60/61) Accurately ripped
2 | (60/61) Accurately ripped
3 | (60/61) Accurately ripped
4 | (60/61) Accurately ripped
5 | (60/61) Accurately ripped
6 | (60/61) Accurately ripped
7 | (60/61) Accurately ripped
8 | (60/61) Accurately ripped
9 | (60/61) Accurately ripped
10 | (59/61) Accurately ripped
[AccurateRip ID: 000eab8c-00778722-7909680a] found.
Track [ CRC | V2 ] Status
01 [f968c7af|75e32ccb] (03+23/33) Accurately ripped
02 [21b6005e|ecd2a224] (03+23/34) Accurately ripped
03 [88fc75f5|4b36e197] (03+24/34) Accurately ripped
04 [941a6ab2|bb433c72] (03+24/34) Accurately ripped
05 [0d859063|634c8ac4] (03+24/33) Accurately ripped
06 [cff24860|404a45a3] (03+24/33) Accurately ripped
07 [a13d3790|8a2f9fa7] (03+24/33) Accurately ripped
08 [e9e9382e|0faa5f46] (03+24/33) Accurately ripped
09 [98689b29|9930e226] (03+24/33) Accurately ripped
10 [da33ebea|5ea508fa] (03+24/32) Accurately ripped
Offsetted by -12:
01 [54da64d5] (00/33) No match (V2 was not tested)
02 [dc8d8836] (00/34) No match (V2 was not tested)
03 [b01e724c] (00/34) No match (V2 was not tested)
04 [4149b0fd] (00/34) No match (V2 was not tested)
05 [f699461b] (00/33) No match (V2 was not tested)
06 [91b1267a] (00/33) No match (V2 was not tested)
07 [6baa3900] (00/33) No match (V2 was not tested)
08 [f224035f] (00/33) No match (V2 was not tested)
09 [6ea94a96] (00/33) No match (V2 was not tested)
10 [24cbe083] (00/32) No match (V2 was not tested)

Track Peak [ CRC32 ] [W/O NULL] [ LOG ]
– 100,0 [0E289F4E] [E7C893DC] CRC32
01 97,7 [938B573A] [4BEAAF68]
02 98,8 [9AEB7238] [76B0FEDD]
03 98,8 [8E3DEC2D] [C1C48FA7]
04 98,9 [AA8BE0A6] [C51A5D34]
05 100,0 [91E9A449] [03DF921B]
06 97,7 [AD44DED6] [49F4FF55]
07 97,7 [D0537C6A] [2B83698B]
08 98,8 [160AAC49] [4966D15C]
09 54,9 [FBA17477] [8524C906]
10 96,6 [408EC7F4] [29AAEB13]

Jacco Gardner - Hypnophobia (2015)


All thanks go to the original ripper(s) …

>>> My Blog <<<

DOWNLOAD: