Tags
Language
Tags

Jackie McLean - The Complete Blue Note 1964-1966 Sessions (1993) [4CD Box Set]

Posted By: v3122
Jackie McLean - The Complete Blue Note 1964-1966 Sessions (1993) [4CD Box Set]

Jackie McLean - The Complete Blue Note 1964-1966 Sessions (1993)
EAC | Flac(Image) + Cue + Log & MP3 CBR 320Kbps
Mosaic Records, MD4-150 | ~ 1553 or 621 Mb | Scans(png) -> 206 Mb
Jazz / Post-Bop / Hard Bop

Altoist Jackie McLean has recorded so many fine albums throughout his career, particularly in the '60s for Blue Note, that Mosaic could have reissued his complete output without any loss of quality. This four-CD limited-edition box set contains six complete LPs worth of material plus one "new" alternate take. The music (which also features trumpeters Charles Tolliver and Lee Morgan; pianists Herbie Hancock, Larry Willis, and Harold Mabern, vibraphonist Bobby Hutcherson, bassists Cecil McBee, Bob Cranshaw, Larry Ridley, Herbie Lewis, and Don Moore, drummers Roy Haynes, Billy Higgins, Clifford Jarvis, Jack DeJohnette, and Billy Higgins) is explorative (showing the influence of Ornette Coleman) but without totally disregarding McLean's bebop roots. The performances straddle the boundaries between advanced hard, post and free bop jazz with Jackie McLean consistently emerging as the main star. His solos are consistently exciting, full of unexpected twists and turns.

by Scott Yanow, allmusic
Jackie McLean - The Complete Blue Note 1964-1966 Sessions (1993):

Jackie McLean - The Complete Blue Note 1964-1966 Sessions (1993) [4CD Box Set]

Tracklist CD1:

1. Cancellation (Tolliver) 7:40
2. Das' Dat (McLean) 6:20
3. It's Time (McLean) 6:45
4. Revillot (Tolliver) 7:45
5. Snuff (McLean) 7:45
6. Truth (Tolliver) 6:25
7. Action (McLean) 11:05
8. Plight (Tolliver) 7:35

Converted to Image (CUETools 2.1.4)

EAC extraction logfile from 6. June 2005, 23:32 for CD
Jackie McLean / The Complete Blue Note 1964-66 Jackie McLean Sessions (Disc 1 of 4)

Used drive : PLEXTOR CD-R PX-W4824A Adapter: 1 ID: 0
Read mode : Secure with NO C2, accurate stream, disable cache
Read offset correction : 98
Overread into Lead-In and Lead-Out : Yes

Used output format : C:\Programme\FLAC\flac.exe (User Defined Encoder)
320 kBit/s
Additional command line options : -8 -V -T "artist=%a" -T "title=%t" -T "album=%g" -T "date=%y" -T "tracknumber=%n" -T "genre=%m" -T "comment=Mosaic Records MD4-150" %s

Other options :
Fill up missing offset samples with silence : Yes
Delete leading and trailing silent blocks : No
Installed external ASPI interface


Track 1
Filename C:\Sharing_Geplant\Jackie McLean - The Complete Blue Note 1964-1966 Sessions (1993) [FLAC] {Mosaic}\CD1\01 - Cancellation.wav

Pre-gap length 0:00:02.42

Peak level 94.0 %
Track quality 100.0 %
Test CRC D440D17B
Copy CRC D440D17B
Copy OK

Track 2
Filename C:\Sharing_Geplant\Jackie McLean - The Complete Blue Note 1964-1966 Sessions (1993) [FLAC] {Mosaic}\CD1\02 - Das' Dat.wav

Pre-gap length 0:00:02.37

Peak level 95.1 %
Track quality 100.0 %
Test CRC B498A9DF
Copy CRC B498A9DF
Copy OK

Track 3
Filename C:\Sharing_Geplant\Jackie McLean - The Complete Blue Note 1964-1966 Sessions (1993) [FLAC] {Mosaic}\CD1\03 - It's Time.wav

Pre-gap length 0:00:02.33

Peak level 94.1 %
Track quality 100.0 %
Test CRC F45EA495
Copy CRC F45EA495
Copy OK

Track 4
Filename C:\Sharing_Geplant\Jackie McLean - The Complete Blue Note 1964-1966 Sessions (1993) [FLAC] {Mosaic}\CD1\04 - Revillot.wav

Pre-gap length 0:00:02.57

Peak level 94.0 %
Track quality 100.0 %
Test CRC 7A9AC03A
Copy CRC 7A9AC03A
Copy OK

Track 5
Filename C:\Sharing_Geplant\Jackie McLean - The Complete Blue Note 1964-1966 Sessions (1993) [FLAC] {Mosaic}\CD1\05 - 'Snuff.wav

Pre-gap length 0:00:00.66

Peak level 94.7 %
Track quality 100.0 %
Test CRC 1E443F07
Copy CRC 1E443F07
Copy OK

Track 6
Filename C:\Sharing_Geplant\Jackie McLean - The Complete Blue Note 1964-1966 Sessions (1993) [FLAC] {Mosaic}\CD1\06 - Truth.wav

Pre-gap length 0:00:02.16

Peak level 93.7 %
Track quality 100.0 %
Test CRC 7986612F
Copy CRC 7986612F
Copy OK

Track 7
Filename C:\Sharing_Geplant\Jackie McLean - The Complete Blue Note 1964-1966 Sessions (1993) [FLAC] {Mosaic}\CD1\07 - Action.wav

Pre-gap length 0:00:02.10

Peak level 95.4 %
Track quality 100.0 %
Test CRC B347A5C1
Copy CRC B347A5C1
Copy OK

Track 8
Filename C:\Sharing_Geplant\Jackie McLean - The Complete Blue Note 1964-1966 Sessions (1993) [FLAC] {Mosaic}\CD1\08 - Plight.wav

Pre-gap length 0:00:01.80

Peak level 94.4 %
Track quality 99.9 %
Test CRC 98BBA15A
Copy CRC 98BBA15A
Copy OK

No errors occured


End of status report


[CUETools log; Date: 06.05.2018 15:43:04; Version: 2.1.5]
Pregap length 00:00:32.
[AccurateRip ID: 00125602-007b3347-760e7708] found.
Track [ CRC | V2 ] Status
01 [a6ea11a3|c57f933e] (05+10/15) Accurately ripped
02 [f6dc0ae5|9170a65c] (05+10/15) Accurately ripped
03 [dba3e730|b1480aa1] (05+10/15) Accurately ripped
04 [cadb7849|4f22621f] (05+10/15) Accurately ripped
05 [cf627c4b|2573c57a] (05+10/15) Accurately ripped
06 [6789cbf9|85625f38] (05+10/15) Accurately ripped
07 [6a6277b7|04d789a8] (05+10/15) Accurately ripped
08 [e316370a|a12a842b] (05+10/15) Accurately ripped

Track Peak [ CRC32 ] [W/O NULL] [ LOG ]
– 95,4 [9F783792] [717A8C9C]
01 94,0 [D440D17B] [77B39850] CRC32
02 95,1 [B498A9DF] [66CC2695] CRC32
03 94,1 [F45EA495] [76468D70] CRC32
04 94,0 [7A9AC03A] [6587DA0D] CRC32
05 94,7 [1E443F07] [30793099] CRC32
06 93,7 [7986612F] [A49E0429] CRC32
07 95,4 [B347A5C1] [7D72D6B9] CRC32
08 94,4 [98BBA15A] [463F712A] CRC32


Jackie McLean - The Complete Blue Note 1964-1966 Sessions (1993) [4CD Box Set]

Tracklist CD2:

1. Wrong Handle (Tolliver) 7:30
2. I Hear a Rhapsody (Baker, Fragos, Gasparre) 4:30
3. Hootman (McLean) 7:30
4. Eco (McLean) 6:35
5. Poor Eric (Willis) 10:10
6. Christel's Time (Willis) 10:25
7. Right Now (Tolliver) 9:20
8. Right Now [alternate take] (Tolliver) 11:45

Converted to Image (CUETools 2.1.4)

EAC extraction logfile from 7. June 2005, 7:28 for CD
Jackie McLean / The Complete Blue Note 1964-66 Jackie McLean Sessions (Disc 2 of 4)

Used drive : PLEXTOR CD-R PX-W4824A Adapter: 1 ID: 0
Read mode : Secure with NO C2, accurate stream, disable cache
Read offset correction : 98
Overread into Lead-In and Lead-Out : Yes

Used output format : C:\Programme\FLAC\flac.exe (User Defined Encoder)
320 kBit/s
Additional command line options : -8 -V -T "artist=%a" -T "title=%t" -T "album=%g" -T "date=%y" -T "tracknumber=%n" -T "genre=%m" -T "comment=Mosaic Records MD4-150" %s

Other options :
Fill up missing offset samples with silence : Yes
Delete leading and trailing silent blocks : No
Installed external ASPI interface


Track 1
Filename C:\Sharing_Geplant\Jackie McLean - The Complete Blue Note 1964-1966 Sessions (1993) [FLAC] {Mosaic}\CD2\01 - Wrong Handle.wav

Pre-gap length 0:00:02.42

Peak level 95.2 %
Track quality 100.0 %
Test CRC 8AC93032
Copy CRC 8AC93032
Copy OK

Track 2
Filename C:\Sharing_Geplant\Jackie McLean - The Complete Blue Note 1964-1966 Sessions (1993) [FLAC] {Mosaic}\CD2\02 - I Hear A Rhapsody.wav

Pre-gap length 0:00:01.02

Peak level 86.5 %
Track quality 100.0 %
Test CRC 5C2A7D1A
Copy CRC 5C2A7D1A
Copy OK

Track 3
Filename C:\Sharing_Geplant\Jackie McLean - The Complete Blue Note 1964-1966 Sessions (1993) [FLAC] {Mosaic}\CD2\03 - Hootman.wav

Pre-gap length 0:00:01.46

Peak level 87.2 %
Track quality 100.0 %
Test CRC F69034B8
Copy CRC F69034B8
Copy OK

Track 4
Filename C:\Sharing_Geplant\Jackie McLean - The Complete Blue Note 1964-1966 Sessions (1993) [FLAC] {Mosaic}\CD2\04 - Eco.wav

Pre-gap length 0:00:00.26

Peak level 89.7 %
Track quality 99.9 %
Test CRC FF57D053
Copy CRC FF57D053
Copy OK

Track 5
Filename C:\Sharing_Geplant\Jackie McLean - The Complete Blue Note 1964-1966 Sessions (1993) [FLAC] {Mosaic}\CD2\05 - Poor Eric.wav

Pre-gap length 0:00:02.60

Peak level 86.4 %
Track quality 100.0 %
Test CRC BEA2CF1B
Copy CRC BEA2CF1B
Copy OK

Track 6
Filename C:\Sharing_Geplant\Jackie McLean - The Complete Blue Note 1964-1966 Sessions (1993) [FLAC] {Mosaic}\CD2\06 - Christel's Time.wav

Pre-gap length 0:00:02.33

Peak level 88.4 %
Track quality 100.0 %
Test CRC 2DDB2277
Copy CRC 2DDB2277
Copy OK

Track 7
Filename C:\Sharing_Geplant\Jackie McLean - The Complete Blue Note 1964-1966 Sessions (1993) [FLAC] {Mosaic}\CD2\07 - Right Now.wav

Pre-gap length 0:00:00.73

Peak level 88.1 %
Track quality 99.9 %
Test CRC 1FCA36B6
Copy CRC 1FCA36B6
Copy OK

Track 8
Filename C:\Sharing_Geplant\Jackie McLean - The Complete Blue Note 1964-1966 Sessions (1993) [FLAC] {Mosaic}\CD2\08 - Right Now (alternate take).wav

Pre-gap length 0:00:01.09

Peak level 86.1 %
Track quality 100.0 %
Test CRC 595F7271
Copy CRC 595F7271
Copy OK

No errors occured


End of status report


[CUETools log; Date: 06.05.2018 15:48:09; Version: 2.1.5]
Pregap length 00:00:32.
[AccurateRip ID: 0012be7f-0080467b-6b0ff008] found.
Track [ CRC | V2 ] Status
01 [0effb0bc|913c8b7f] (04+09/13) Accurately ripped
02 [d6718d3c|5b54f7dc] (04+09/13) Accurately ripped
03 [14eb4f69|507da1ae] (04+09/13) Accurately ripped
04 [cc63d4d1|88500a63] (04+09/13) Accurately ripped
05 [31bc4db5|b76a5563] (04+09/13) Accurately ripped
06 [510abde1|02a4bf1c] (04+09/13) Accurately ripped
07 [0e92730b|a9badcf9] (04+09/13) Accurately ripped
08 [1c809495|6addf8f5] (04+08/12) Accurately ripped

Track Peak [ CRC32 ] [W/O NULL] [ LOG ]
– 95,2 [6CE162A4] [30CF3722]
01 95,2 [8AC93032] [CC75AA7B] CRC32
02 86,5 [5C2A7D1A] [B587EF12] CRC32
03 87,2 [F69034B8] [49B862FB] CRC32
04 89,7 [FF57D053] [D37508AF] CRC32
05 86,4 [BEA2CF1B] [D6EBA1D4] CRC32
06 88,4 [2DDB2277] [7207A33B] CRC32
07 88,1 [1FCA36B6] [CBB1F4C3] CRC32
08 86,1 [595F7271] [DC77997B] CRC32


Jackie McLean - The Complete Blue Note 1964-1966 Sessions (1993) [4CD Box Set]

Tracklist CD3:

1. On the Nile (Tolliver) 12:35
2. Climax (DeJohnette) 9:25
3. Soft Blue (Morgan) 7:30
4. Jacknife (Tolliver) 6:15
5. Blues Fable (McLean) 6:00
6. Bluesanova (Morgan) 7:27
7. Consequence (McLean) 5:28
8. My Old Flame (Coslow, Johnston) 5:16

Converted to Image (CUETools 2.1.4)

EAC extraction logfile from 7. June 2005, 8:31 for CD
Jackie McLean / The Complete Blue Note 1964-66 Jackie McLean Sessions (Disc 3 of 4)

Used drive : PLEXTOR CD-R PX-W4824A Adapter: 1 ID: 0
Read mode : Secure with NO C2, accurate stream, disable cache
Read offset correction : 98
Overread into Lead-In and Lead-Out : Yes

Used output format : C:\Programme\FLAC\flac.exe (User Defined Encoder)
320 kBit/s
Additional command line options : -8 -V -T "artist=%a" -T "title=%t" -T "album=%g" -T "date=%y" -T "tracknumber=%n" -T "genre=%m" -T "comment=Mosaic Records MD4-150" %s

Other options :
Fill up missing offset samples with silence : Yes
Delete leading and trailing silent blocks : No
Installed external ASPI interface


Track 1
Filename C:\Sharing_Geplant\Jackie McLean - The Complete Blue Note 1964-1966 Sessions (1993) [FLAC] {Mosaic}\CD3\01 - On The Nile.wav

Pre-gap length 0:00:02.00

Peak level 86.7 %
Track quality 100.0 %
Test CRC 7AB15908
Copy CRC 7AB15908
Copy OK

Track 2
Filename C:\Sharing_Geplant\Jackie McLean - The Complete Blue Note 1964-1966 Sessions (1993) [FLAC] {Mosaic}\CD3\02 - Climax.wav

Pre-gap length 0:00:01.90

Peak level 86.3 %
Track quality 100.0 %
Test CRC B2B1F188
Copy CRC B2B1F188
Copy OK

Track 3
Filename C:\Sharing_Geplant\Jackie McLean - The Complete Blue Note 1964-1966 Sessions (1993) [FLAC] {Mosaic}\CD3\03 - Soft Blue.wav

Pre-gap length 0:00:00.22

Peak level 94.5 %
Track quality 100.0 %
Test CRC 44FC59FA
Copy CRC 44FC59FA
Copy OK

Track 4
Filename C:\Sharing_Geplant\Jackie McLean - The Complete Blue Note 1964-1966 Sessions (1993) [FLAC] {Mosaic}\CD3\04 - Jacknife.wav

Pre-gap length 0:00:01.40

Peak level 94.0 %
Track quality 99.9 %
Test CRC A605D902
Copy CRC A605D902
Copy OK

Track 5
Filename C:\Sharing_Geplant\Jackie McLean - The Complete Blue Note 1964-1966 Sessions (1993) [FLAC] {Mosaic}\CD3\05 - Blue Fable.wav

Pre-gap length 0:00:01.00

Peak level 93.9 %
Track quality 100.0 %
Test CRC AD6FEF18
Copy CRC AD6FEF18
Copy OK

Track 6
Filename C:\Sharing_Geplant\Jackie McLean - The Complete Blue Note 1964-1966 Sessions (1993) [FLAC] {Mosaic}\CD3\06 - Bluesnova.wav

Pre-gap length 0:00:01.66

Peak level 94.0 %
Track quality 100.0 %
Test CRC 522873A2
Copy CRC 522873A2
Copy OK

Track 7
Filename C:\Sharing_Geplant\Jackie McLean - The Complete Blue Note 1964-1966 Sessions (1993) [FLAC] {Mosaic}\CD3\07 - Consequence.wav

Pre-gap length 0:00:01.53

Peak level 94.0 %
Track quality 100.0 %
Test CRC 3A45EF12
Copy CRC 3A45EF12
Copy OK

Track 8
Filename C:\Sharing_Geplant\Jackie McLean - The Complete Blue Note 1964-1966 Sessions (1993) [FLAC] {Mosaic}\CD3\08 - My Old Flame.wav

Pre-gap length 0:00:02.37

Peak level 93.8 %
Track quality 100.0 %
Test CRC 29BF543B
Copy CRC 29BF543B
Copy OK

No errors occured


End of status report


[CUETools log; Date: 06.05.2018 15:52:38; Version: 2.1.5]
[AccurateRip ID: 0014f332-00867e9e-680e0f08] found.
Track [ CRC | V2 ] Status
01 [4c8d38cb|53b591f6] (05+09/14) Accurately ripped
02 [d7f0771a|e761b575] (05+09/14) Accurately ripped
03 [74a43fd4|1dc31616] (05+09/14) Accurately ripped
04 [eef0cc14|3b5a3a10] (05+09/14) Accurately ripped
05 [1930f1ed|57d19641] (05+09/14) Accurately ripped
06 [549c26a7|a91f861f] (05+09/14) Accurately ripped
07 [fcb87320|07ff771b] (05+09/14) Accurately ripped
08 [4b700f3b|d0e6ab1c] (05+08/13) Accurately ripped

Track Peak [ CRC32 ] [W/O NULL] [ LOG ]
– 94,4 [0FEA1EA1] [4AD0F619]
01 86,7 [7AB15908] [6D03CAE7] CRC32
02 86,3 [B2B1F188] [985582AA] CRC32
03 94,4 [44FC59FA] [C33C7FEC] CRC32
04 94,0 [A605D902] [47C1D1BA] CRC32
05 93,9 [AD6FEF18] [5573871D] CRC32
06 94,0 [522873A2] [707DFD4D] CRC32
07 94,0 [3A45EF12] [58BCDB48] CRC32
08 93,8 [29BF543B] [A6A5F46A] CRC32



Tracklist CD4:

1. Tolypso (McLean) 6:00
2. Slumber (Morgan) 6:00
3. Vernestune (McLean) 5:50
4. High Frequency (Willis) 11:25
5. Combined Effort (McLean) 9:20
6. Moonscape (McLean) 6:50
7. Jossa Bossa (Moore) 7:00
8. The Bull Frog (Willis) 4:35

Converted to Image (CUETools 2.1.4)

EAC extraction logfile from 7. June 2005, 12:57 for CD
Jackie McLean / The Complete Blue Note 1964-66 Jackie McLean Sessions (Disc 4 of 4)

Used drive : PLEXTOR CD-R PX-W4824A Adapter: 1 ID: 0
Read mode : Secure with NO C2, accurate stream, disable cache
Read offset correction : 98
Overread into Lead-In and Lead-Out : Yes

Used output format : C:\Programme\FLAC\flac.exe (User Defined Encoder)
320 kBit/s
Additional command line options : -8 -V -T "artist=%a" -T "title=%t" -T "album=%g" -T "date=%y" -T "tracknumber=%n" -T "genre=%m" -T "comment=Mosaic Records MD4-150" %s

Other options :
Fill up missing offset samples with silence : Yes
Delete leading and trailing silent blocks : No
Installed external ASPI interface


Track 1
Filename C:\Sharing_Geplant\Jackie McLean - The Complete Blue Note 1964-1966 Sessions (1993) [FLAC] {Mosaic}\CD4\01 - Tolypso.wav

Pre-gap length 0:00:02.00

Peak level 93.4 %
Track quality 100.0 %
Test CRC A25D3F20
Copy CRC A25D3F20
Copy OK

Track 2
Filename C:\Sharing_Geplant\Jackie McLean - The Complete Blue Note 1964-1966 Sessions (1993) [FLAC] {Mosaic}\CD4\02 - Slumber.wav

Pre-gap length 0:00:00.76

Peak level 93.5 %
Track quality 100.0 %
Test CRC 995569DA
Copy CRC 995569DA
Copy OK

Track 3
Filename C:\Sharing_Geplant\Jackie McLean - The Complete Blue Note 1964-1966 Sessions (1993) [FLAC] {Mosaic}\CD4\03 - Vernestune.wav

Pre-gap length 0:00:00.69

Peak level 93.9 %
Track quality 100.0 %
Test CRC 88C79C16
Copy CRC 88C79C16
Copy OK

Track 4
Filename C:\Sharing_Geplant\Jackie McLean - The Complete Blue Note 1964-1966 Sessions (1993) [FLAC] {Mosaic}\CD4\04 - High Frequency.wav

Pre-gap length 0:00:02.09

Peak level 93.6 %
Track quality 100.0 %
Test CRC E7C984C4
Copy CRC E7C984C4
Copy OK

Track 5
Filename C:\Sharing_Geplant\Jackie McLean - The Complete Blue Note 1964-1966 Sessions (1993) [FLAC] {Mosaic}\CD4\05 - Combined Effort.wav

Pre-gap length 0:00:00.92

Peak level 93.3 %
Track quality 100.0 %
Test CRC 4837B655
Copy CRC 4837B655
Copy OK

Track 6
Filename C:\Sharing_Geplant\Jackie McLean - The Complete Blue Note 1964-1966 Sessions (1993) [FLAC] {Mosaic}\CD4\06 - Moonscape.wav

Pre-gap length 0:00:00.65

Peak level 91.9 %
Track quality 100.0 %
Test CRC 6E9186F7
Copy CRC 6E9186F7
Copy OK

Track 7
Filename C:\Sharing_Geplant\Jackie McLean - The Complete Blue Note 1964-1966 Sessions (1993) [FLAC] {Mosaic}\CD4\07 - Jossa Bossa.wav

Pre-gap length 0:00:01.38

Peak level 95.5 %
Track quality 100.0 %
Test CRC C00AA664
Copy CRC C00AA664
Copy OK

Track 8
Filename C:\Sharing_Geplant\Jackie McLean - The Complete Blue Note 1964-1966 Sessions (1993) [FLAC] {Mosaic}\CD4\08 - The Bull Frog.wav

Pre-gap length 0:00:00.69

Peak level 95.3 %
Track quality 99.9 %
Test CRC 4A50A0FE
Copy CRC 4A50A0FE
Copy OK

No errors occured


End of status report


[CUETools log; Date: 06.05.2018 16:00:07; Version: 2.1.5]
[AccurateRip ID: 0011de33-0078b895-6b0d6808] found.
Track [ CRC | V2 ] Status
01 [01873a56|81f89b4e] (05+09/14) Accurately ripped
02 [89ce659d|333e2b32] (05+09/14) Accurately ripped
03 [c2de3443|5ec966f9] (05+09/14) Accurately ripped
04 [e39c2842|360e7c5b] (05+09/14) Accurately ripped
05 [6bf2f532|0b4654e4] (05+09/14) Accurately ripped
06 [669ecee0|000d37b0] (05+09/14) Accurately ripped
07 [4d694b29|95e77fc0] (05+09/14) Accurately ripped
08 [8d62d09f|85e31e22] (05+09/14) Accurately ripped

Track Peak [ CRC32 ] [W/O NULL] [ LOG ]
– 95,5 [73997954] [BDB9FB3B]
01 93,4 [A25D3F20] [EB8C234B] CRC32
02 93,5 [995569DA] [EB3D9CA7] CRC32
03 93,9 [88C79C16] [E979BDE6] CRC32
04 93,6 [E7C984C4] [D6FEB118] CRC32
05 93,3 [4837B655] [7B3604D7] CRC32
06 91,9 [6E9186F7] [36E19B2C] CRC32
07 95,5 [C00AA664] [6837868F] CRC32
08 95,3 [4A50A0FE] [AB9570D7] CRC32


Jackie McLean - The Complete Blue Note 1964-1966 Sessions (1993) [4CD Box Set]

All thanks go to the original releaser

Download Jackie McLean - The Complete Blue Note 1964-1966 Sessions (1993):