Tags
Language
Tags

James Moody - Just Moody (Quadromania) [Recorded 1948-1954] [4CD Box Set] (2005)

Posted By: gribovar
James Moody - Just Moody (Quadromania) [Recorded 1948-1954] [4CD Box Set] (2005)

James Moody - Just Moody (Quadromania) [Recorded 1948-1954] [4CD Box Set] (2005)
EAC Rip | FLAC (tracks+.cue+log) - 987 MB | Covers - 4 MB
Genre: Jazz | RAR 3% Rec. | Label: Membran Music (222461-444)

James Moody was an institution in jazz from the late '40s into the 21st century, whether on tenor, flute, occasional alto, or yodeling his way through his "Moody's Mood for Love." After serving in the Air Force (1943-1946), he joined Dizzy Gillespie's bebop orchestra and began a lifelong friendship with the trumpeter. Moody toured Europe with Gillespie and then stayed overseas for several years, working with Miles Davis, Max Roach, and top European players. His 1949 recording of "I'm in the Mood for Love" became a hit in 1952 under the title of "Moody's Mood for Love" with classic vocalese lyrics written by Eddie Jefferson and a best-selling recording by King Pleasure. After returning to the U.S., Moody formed a septet that lasted for five years, recorded extensively for Prestige and Argo, took up the flute, and then from 1963-1968, was a member of Dizzy Gillespie's quintet. He worked in Las Vegas show bands during much of the 1970s before returning to jazz, playing occasionally with Gillespie, mostly working as a leader and recording with Lionel Hampton's Golden Men of Jazz. Moody, who alternated between tenor (which he preferred) and alto throughout his career, had an original sound on both horns. He was also one of the best flutists in jazz. Moody recorded as a leader for numerous labels, including Blue Note, Xanadu, Vogue, Prestige, EmArcy, Mercury, Argo, DJM, Milestone, Perception, MPS, Muse, Vanguard, and Novus. He died of complications from pancreatic cancer on December 9, 2010 in San Diego, CA. James Moody was 85 years old.
CD 1 Tracklist:
01. The Fuller Bop Man
02. Workshop
03. On Henry
04. Moodamorphosis
05. Moody's all Frantic
06. Tropicana
07. Stardust
08. Just Moody
09. Curly Top Blues
10. Moody and Soul
11. Out of Nowhere
12. These Foolish Tings
13. Three Bop Mice - Parts 1&2
14. I'm in the Mood for Groovin'
15. The Flight of the Bopple Bee
16. Body and Soul
17. I'm In the Mood for Love
18. Lester Leaps in

Total time: 56:22

CD 2 Tracklist:
01. Indiana
02. Good Bait
03. Dexterious
04. Over the Rainbow
05. Blue and Moody
06. Be Bop Tune No 1
07. Michale by Accident
08. Period Suite - Parta 1&2
09. Perdido Part 1
10. Perdido - Part 2
11. Big and Little 'E'
12. Thats It
13. Embraceable You
14. A Date with Kate
15. Mean to Me
16. Delooney
17. Nath - Part 1
18. I Can't Get Started

Total time: 55:53

CD 3 Tracklist:
01. Riffin' and Raphin'
02. St. Louis Blues
03. In A Rush
04. Embraceable You
05. The Man I Love
06. Les Feuilles Mortes
07. Chanter Pour Toi
08. Bedelia
09. Aimer Comme Je T'aime
10. Si Lolie
11. September Serenade
12. Bootsie
13. I Cover The Waterfront
14. Deep Purple
15. Lover, Come Back To Me
16. That's My Desire
17. More Than You Know
18. Moody's Mode
19. This Is Always

Total time: 58:10

CD 4 Tracklist:
01. I'm Gone
02. A Hundred Years From Today
03. Keepin' Up With Jonesy
04. Workshop
05. That Man O' Mine
06. Over The Rainbow
07. Jack Raggs
08. Mambo With Moody
09. It Might As Well Be Spring (Take 1)
10. It Might As Well Be Spring (Take 2)
11. Blues In The Closet
12. Moody's Mood For Blues
13. Nobody Knows The Trouble I've Seen
14. I Got The Blues
15. Blue Walk
16. Faster James

Total time: 55:35

Exact Audio Copy V1.0 beta 3 from 29. August 2011

EAC extraction logfile from 21. May 2013, 15:23

James Moody / Just Moody - CD 1

Used drive : Optiarc DVD RW AD-5200A Adapter: 0 ID: 0

Read mode : Secure
Utilize accurate stream : Yes
Defeat audio cache : Yes
Make use of C2 pointers : No

Read offset correction : 48
Overread into Lead-In and Lead-Out : No
Fill up missing offset samples with silence : Yes
Delete leading and trailing silent blocks : No
Null samples used in CRC calculations : Yes
Used interface : Native Win32 interface for Win NT & 2000
Gap handling : Appended to previous track

Used output format : User Defined Encoder
Selected bitrate : 128 kBit/s
Quality : High
Add ID3 tag : No
Command line compressor : C:\Program Files\Exact Audio Copy\Flac\flac.exe
Additional command line options : -V -8 -T "Genre=%genre%" -T "Artist=%artist%" -T "Title=%title%" -T "Album=%albumtitle%" -T "Date=%year%" -T "Tracknumber=%tracknr%" -T "Comment=%comment%" %source%


TOC of the extracted CD

Track | Start | Length | Start sector | End sector
––––––––––––––––––––––––––––-
1 | 0:00.00 | 2:58.55 | 0 | 13404
2 | 2:58.55 | 3:18.21 | 13405 | 28275
3 | 6:17.01 | 2:31.28 | 28276 | 39628
4 | 8:48.29 | 3:01.45 | 39629 | 53248
5 | 11:49.74 | 2:34.01 | 53249 | 64799
6 | 14:24.00 | 3:02.16 | 64800 | 78465
7 | 17:26.16 | 3:12.09 | 78466 | 92874
8 | 20:38.25 | 2:59.04 | 92875 | 106303
9 | 23:37.29 | 3:23.04 | 106304 | 121532
10 | 27:00.33 | 3:10.09 | 121533 | 135791
11 | 30:10.42 | 2:54.36 | 135792 | 148877
12 | 33:05.03 | 3:09.17 | 148878 | 163069
13 | 36:14.20 | 5:42.64 | 163070 | 188783
14 | 41:57.09 | 2:40.39 | 188784 | 200822
15 | 44:37.48 | 2:45.45 | 200823 | 213242
16 | 47:23.18 | 3:02.52 | 213243 | 226944
17 | 50:25.70 | 2:49.56 | 226945 | 239675
18 | 53:15.51 | 3:06.49 | 239676 | 253674


Track 1

Filename F:\2005.James Moody - Just Moody (Quadromania, 4CD)\CD1\01. The Fuller Bop Man.wav

Pre-gap length 0:00:02.00

Peak level 99.7 %
Extraction speed 2.1 X
Track quality 100.0 %
Test CRC 01ECC1B4
Copy CRC 01ECC1B4
Track not present in AccurateRip database
Copy OK

Track 2

Filename F:\2005.James Moody - Just Moody (Quadromania, 4CD)\CD1\02. Workshop.wav

Pre-gap length 0:00:02.00

Peak level 99.8 %
Extraction speed 2.3 X
Track quality 100.0 %
Test CRC 69171A32
Copy CRC 69171A32
Track not present in AccurateRip database
Copy OK

Track 3

Filename F:\2005.James Moody - Just Moody (Quadromania, 4CD)\CD1\03. On Henry.wav

Pre-gap length 0:00:02.00

Peak level 100.0 %
Extraction speed 2.0 X
Track quality 99.9 %
Test CRC D94DC916
Copy CRC D94DC916
Track not present in AccurateRip database
Copy OK

Track 4

Filename F:\2005.James Moody - Just Moody (Quadromania, 4CD)\CD1\04. Moodamorphosis.wav

Pre-gap length 0:00:02.00

Peak level 100.0 %
Extraction speed 2.2 X
Track quality 99.9 %
Test CRC 8D3C9A98
Copy CRC 8D3C9A98
Track not present in AccurateRip database
Copy OK

Track 5

Filename F:\2005.James Moody - Just Moody (Quadromania, 4CD)\CD1\05. Moody's all Frantic.wav

Pre-gap length 0:00:02.00

Peak level 99.7 %
Extraction speed 1.6 X
Track quality 99.9 %
Test CRC A6B9625F
Copy CRC A6B9625F
Track not present in AccurateRip database
Copy OK

Track 6

Filename F:\2005.James Moody - Just Moody (Quadromania, 4CD)\CD1\06. Tropicana.wav

Pre-gap length 0:00:02.00

Peak level 100.0 %
Extraction speed 2.8 X
Track quality 100.0 %
Test CRC AAECCB4E
Copy CRC AAECCB4E
Track not present in AccurateRip database
Copy OK

Track 7

Filename F:\2005.James Moody - Just Moody (Quadromania, 4CD)\CD1\07. Stardust.wav

Pre-gap length 0:00:02.00

Peak level 99.8 %
Extraction speed 3.0 X
Track quality 100.0 %
Test CRC D80A2734
Copy CRC D80A2734
Track not present in AccurateRip database
Copy OK

Track 8

Filename F:\2005.James Moody - Just Moody (Quadromania, 4CD)\CD1\08. Just Moody.wav

Pre-gap length 0:00:02.00

Peak level 99.4 %
Extraction speed 3.1 X
Track quality 100.0 %
Test CRC F7C6CCA8
Copy CRC F7C6CCA8
Track not present in AccurateRip database
Copy OK

Track 9

Filename F:\2005.James Moody - Just Moody (Quadromania, 4CD)\CD1\09. Curly Top Blues.wav

Pre-gap length 0:00:02.00

Peak level 99.1 %
Extraction speed 3.2 X
Track quality 100.0 %
Test CRC 1D6A5D95
Copy CRC 1D6A5D95
Track not present in AccurateRip database
Copy OK

Track 10

Filename F:\2005.James Moody - Just Moody (Quadromania, 4CD)\CD1\10. Moody and Soul.wav

Pre-gap length 0:00:02.00

Peak level 99.9 %
Extraction speed 3.3 X
Track quality 100.0 %
Test CRC DE746E0B
Copy CRC DE746E0B
Track not present in AccurateRip database
Copy OK

Track 11

Filename F:\2005.James Moody - Just Moody (Quadromania, 4CD)\CD1\11. Out of Nowhere.wav

Pre-gap length 0:00:02.00

Peak level 99.4 %
Extraction speed 3.3 X
Track quality 100.0 %
Test CRC DDAC8B56
Copy CRC DDAC8B56
Track not present in AccurateRip database
Copy OK

Track 12

Filename F:\2005.James Moody - Just Moody (Quadromania, 4CD)\CD1\12. These Foolish Tings.wav

Pre-gap length 0:00:02.00

Peak level 99.7 %
Extraction speed 2.9 X
Track quality 99.9 %
Test CRC 53360150
Copy CRC 53360150
Track not present in AccurateRip database
Copy OK

Track 13

Filename F:\2005.James Moody - Just Moody (Quadromania, 4CD)\CD1\13. Three Bop Mice - Parts 1&2.wav

Pre-gap length 0:00:02.00

Peak level 99.9 %
Extraction speed 3.7 X
Track quality 100.0 %
Test CRC 8E1431EA
Copy CRC 8E1431EA
Track not present in AccurateRip database
Copy OK

Track 14

Filename F:\2005.James Moody - Just Moody (Quadromania, 4CD)\CD1\14. I'm in the Mood for Groovin'.wav

Pre-gap length 0:00:02.00

Peak level 99.6 %
Extraction speed 3.3 X
Track quality 100.0 %
Test CRC 0474CC71
Copy CRC 0474CC71
Track not present in AccurateRip database
Copy OK

Track 15

Filename F:\2005.James Moody - Just Moody (Quadromania, 4CD)\CD1\15. The Flight of the Bopple Bee.wav

Pre-gap length 0:00:02.00

Peak level 99.8 %
Extraction speed 3.4 X
Track quality 100.0 %
Test CRC D71E5447
Copy CRC D71E5447
Track not present in AccurateRip database
Copy OK

Track 16

Filename F:\2005.James Moody - Just Moody (Quadromania, 4CD)\CD1\16. Body and Soul.wav

Pre-gap length 0:00:02.00

Peak level 99.4 %
Extraction speed 3.3 X
Track quality 100.0 %
Test CRC 3643F469
Copy CRC 3643F469
Track not present in AccurateRip database
Copy OK

Track 17

Filename F:\2005.James Moody - Just Moody (Quadromania, 4CD)\CD1\17. I'm In the Mood for Love.wav

Pre-gap length 0:00:02.00

Peak level 99.7 %
Extraction speed 3.3 X
Track quality 100.0 %
Test CRC DB0D94D1
Copy CRC DB0D94D1
Track not present in AccurateRip database
Copy OK

Track 18

Filename F:\2005.James Moody - Just Moody (Quadromania, 4CD)\CD1\18. Lester Leaps in.wav

Pre-gap length 0:00:02.00

Peak level 99.8 %
Extraction speed 3.3 X
Track quality 100.0 %
Test CRC ED2A413C
Copy CRC ED2A413C
Track not present in AccurateRip database
Copy OK


None of the tracks are present in the AccurateRip database

No errors occurred

End of status report

==== Log checksum A1714009DF25068EDD526D751AD0A0D687E8851E26394FC36F873344F91CDBEB ====

[CUETools log; Date: 13.06.2018 14:07:17; Version: 2.1.4]
[CTDB TOCID: 7Vq._osxFLfQ4UPkjgEkm8yWapY-] found.
Track | CTDB Status
1 | (4/4) Accurately ripped
2 | (4/4) Accurately ripped
3 | (4/4) Accurately ripped
4 | (4/4) Accurately ripped
5 | (4/4) Differs in 181 samples @01:44:13-01:44:14
6 | (4/4) Accurately ripped
7 | (4/4) Accurately ripped
8 | (4/4) Accurately ripped
9 | (4/4) Accurately ripped
10 | (4/4) Accurately ripped
11 | (4/4) Accurately ripped
12 | (4/4) Accurately ripped
13 | (4/4) Accurately ripped
14 | (4/4) Accurately ripped
15 | (4/4) Accurately ripped
16 | (4/4) Accurately ripped
17 | (4/4) Accurately ripped
18 | (4/4) Accurately ripped
[AccurateRip ID: 0024278f-01e5f9f9-030d3612] found.
Track [ CRC | V2 ] Status
01 [4211ff4e|3eb8d9a0] (0+2/2) Accurately ripped
02 [20546669|bd1f1305] (0+2/2) Accurately ripped
03 [e8a7ea38|65c1899a] (0+2/2) Accurately ripped
04 [8278fbc2|27262342] (0+2/2) Accurately ripped
05 [8603d597|95da6dbc] (0+0/2) No match
06 [1a7397dc|98066854] (0+2/2) Accurately ripped
07 [db13599f|036f2b23] (0+2/2) Accurately ripped
08 [669dde06|7461f0d6] (0+2/2) Accurately ripped
09 [5b81f8b8|c0f53d82] (0+2/2) Accurately ripped
10 [9f626701|bcf7d458] (0+2/2) Accurately ripped
11 [3269f37f|23f0a168] (0+2/2) Accurately ripped
12 [0c8d2c67|81cb310f] (0+2/2) Accurately ripped
13 [7dc6a0ae|3c6aa00e] (0+2/2) Accurately ripped
14 [14031d9f|c9fcbfe2] (0+2/2) Accurately ripped
15 [c0863a6b|5c51c604] (0+2/2) Accurately ripped
16 [1b7a094d|39b3ed0a] (0+2/2) Accurately ripped
17 [87d3b0f7|b6a92023] (0+2/2) Accurately ripped
18 [5b2fc422|85a65987] (0+2/2) Accurately ripped

Track Peak [ CRC32 ] [W/O NULL] [ LOG ]
– 100,0 [33A59895] [4DDB3D67]
01 99,7 [01ECC1B4] [BF33AD1C] CRC32
02 99,8 [69171A32] [D73BE871] CRC32
03 100,0 [D94DC916] [4A631B94] CRC32
04 100,0 [8D3C9A98] [866E7671] CRC32
05 99,7 [A6B9625F] [CBC12228] CRC32
06 100,0 [AAECCB4E] [A72D3ED7] CRC32
07 99,8 [D80A2734] [DD6F249B] CRC32
08 99,4 [F7C6CCA8] [CF14E94E] CRC32
09 99,1 [1D6A5D95] [DD7102CE] CRC32
10 99,9 [DE746E0B] [A039C071] CRC32
11 99,4 [DDAC8B56] [26C99A77] CRC32
12 99,7 [53360150] [DEB70A37] CRC32
13 99,9 [8E1431EA] [40124F17] CRC32
14 99,6 [0474CC71] [A11A4216] CRC32
15 99,8 [D71E5447] [3F34E71A] CRC32
16 99,4 [3643F469] [317571FF] CRC32
17 99,7 [DB0D94D1] [D065887C] CRC32
18 99,8 [ED2A413C] [827F1E82] CRC32

Exact Audio Copy V1.0 beta 3 from 29. August 2011

EAC extraction logfile from 21. May 2013, 16:16

James Moody / Just Moody - CD 2

Used drive : Optiarc DVD RW AD-5200A Adapter: 0 ID: 0

Read mode : Secure
Utilize accurate stream : Yes
Defeat audio cache : Yes
Make use of C2 pointers : No

Read offset correction : 48
Overread into Lead-In and Lead-Out : No
Fill up missing offset samples with silence : Yes
Delete leading and trailing silent blocks : No
Null samples used in CRC calculations : Yes
Used interface : Native Win32 interface for Win NT & 2000
Gap handling : Appended to previous track

Used output format : User Defined Encoder
Selected bitrate : 128 kBit/s
Quality : High
Add ID3 tag : No
Command line compressor : C:\Program Files\Exact Audio Copy\Flac\flac.exe
Additional command line options : -V -8 -T "Genre=%genre%" -T "Artist=%artist%" -T "Title=%title%" -T "Album=%albumtitle%" -T "Date=%year%" -T "Tracknumber=%tracknr%" -T "Comment=%comment%" %source%


TOC of the extracted CD

Track | Start | Length | Start sector | End sector
––––––––––––––––––––––––––––-
1 | 0:00.00 | 2:52.59 | 0 | 12958
2 | 2:52.59 | 2:53.71 | 12959 | 26004
3 | 5:46.55 | 2:42.06 | 26005 | 38160
4 | 8:28.61 | 2:52.72 | 38161 | 51132
5 | 11:21.58 | 3:01.19 | 51133 | 64726
6 | 14:23.02 | 2:41.66 | 64727 | 76867
7 | 17:04.68 | 2:40.24 | 76868 | 88891
8 | 19:45.17 | 5:15.14 | 88892 | 112530
9 | 25:00.31 | 3:23.08 | 112531 | 127763
10 | 28:23.39 | 3:15.74 | 127764 | 142462
11 | 31:39.38 | 3:19.07 | 142463 | 157394
12 | 34:58.45 | 2:59.64 | 157395 | 170883
13 | 37:58.34 | 3:46.36 | 170884 | 187869
14 | 41:44.70 | 2:32.31 | 187870 | 199300
15 | 44:17.26 | 2:49.62 | 199301 | 212037
16 | 47:07.13 | 2:38.72 | 212038 | 223959
17 | 49:46.10 | 2:44.41 | 223960 | 236300
18 | 52:30.51 | 3:23.22 | 236301 | 251547


Track 1

Filename F:\2005.James Moody - Just Moody (Quadromania, 4CD)\CD2\01. Indiana.wav

Pre-gap length 0:00:02.00

Peak level 99.4 %
Extraction speed 2.1 X
Track quality 100.0 %
Test CRC 17B1F557
Copy CRC 17B1F557
Track not present in AccurateRip database
Copy OK

Track 2

Filename F:\2005.James Moody - Just Moody (Quadromania, 4CD)\CD2\02. Good Bait.wav

Pre-gap length 0:00:02.00

Peak level 99.9 %
Extraction speed 1.9 X
Track quality 99.9 %
Test CRC FE51FE8A
Copy CRC FE51FE8A
Track not present in AccurateRip database
Copy OK

Track 3

Filename F:\2005.James Moody - Just Moody (Quadromania, 4CD)\CD2\03. Dexterious.wav

Pre-gap length 0:00:02.00

Peak level 98.4 %
Extraction speed 2.4 X
Track quality 100.0 %
Test CRC 84BF0D88
Copy CRC 84BF0D88
Track not present in AccurateRip database
Copy OK

Track 4

Filename F:\2005.James Moody - Just Moody (Quadromania, 4CD)\CD2\04. Over the Rainbow.wav

Pre-gap length 0:00:02.00

Peak level 99.8 %
Extraction speed 2.2 X
Track quality 99.9 %
Test CRC 8277845D
Copy CRC 8277845D
Track not present in AccurateRip database
Copy OK

Track 5

Filename F:\2005.James Moody - Just Moody (Quadromania, 4CD)\CD2\05. Blue and Moody.wav

Pre-gap length 0:00:02.00

Peak level 99.8 %
Extraction speed 2.3 X
Track quality 99.9 %
Test CRC E8E65E28
Copy CRC E8E65E28
Track not present in AccurateRip database
Copy OK

Track 6

Filename F:\2005.James Moody - Just Moody (Quadromania, 4CD)\CD2\06. Be Bop Tune No 1.wav

Pre-gap length 0:00:02.00

Peak level 98.8 %
Extraction speed 2.8 X
Track quality 100.0 %
Test CRC B3BB1AFD
Copy CRC B3BB1AFD
Track not present in AccurateRip database
Copy OK

Track 7

Filename F:\2005.James Moody - Just Moody (Quadromania, 4CD)\CD2\07. Michale by Accident.wav

Pre-gap length 0:00:02.00

Peak level 100.0 %
Extraction speed 2.4 X
Track quality 99.9 %
Test CRC 793E8F4E
Copy CRC 793E8F4E
Track not present in AccurateRip database
Copy OK

Track 8

Filename F:\2005.James Moody - Just Moody (Quadromania, 4CD)\CD2\08. Period Suite - Parta 1&2.wav

Pre-gap length 0:00:02.00

Peak level 98.7 %
Extraction speed 3.3 X
Track quality 100.0 %
Test CRC DACBC804
Copy CRC DACBC804
Track not present in AccurateRip database
Copy OK

Track 9

Filename F:\2005.James Moody - Just Moody (Quadromania, 4CD)\CD2\09. Perdido Part 1.wav

Pre-gap length 0:00:02.00

Peak level 100.0 %
Extraction speed 3.3 X
Track quality 100.0 %
Test CRC 3E4E73C6
Copy CRC 3E4E73C6
Track not present in AccurateRip database
Copy OK

Track 10

Filename F:\2005.James Moody - Just Moody (Quadromania, 4CD)\CD2\10. Perdido - Part 2.wav

Pre-gap length 0:00:02.00

Peak level 100.0 %
Extraction speed 3.3 X
Track quality 100.0 %
Test CRC FCFE5E9F
Copy CRC FCFE5E9F
Track not present in AccurateRip database
Copy OK

Track 11

Filename F:\2005.James Moody - Just Moody (Quadromania, 4CD)\CD2\11. Big and Little ''E''.wav

Pre-gap length 0:00:02.00

Peak level 99.8 %
Extraction speed 3.4 X
Track quality 100.0 %
Test CRC D3FE43B8
Copy CRC D3FE43B8
Track not present in AccurateRip database
Copy OK

Track 12

Filename F:\2005.James Moody - Just Moody (Quadromania, 4CD)\CD2\12. Thats It.wav

Pre-gap length 0:00:02.00

Peak level 100.0 %
Extraction speed 3.3 X
Track quality 100.0 %
Test CRC D4108152
Copy CRC D4108152
Track not present in AccurateRip database
Copy OK

Track 13

Filename F:\2005.James Moody - Just Moody (Quadromania, 4CD)\CD2\13. Embraceable you.wav

Pre-gap length 0:00:02.00

Peak level 99.9 %
Extraction speed 3.5 X
Track quality 100.0 %
Test CRC E713A4DF
Copy CRC E713A4DF
Track not present in AccurateRip database
Copy OK

Track 14

Filename F:\2005.James Moody - Just Moody (Quadromania, 4CD)\CD2\14. A Date with Kate.wav

Pre-gap length 0:00:02.00

Peak level 99.8 %
Extraction speed 2.8 X
Track quality 99.9 %
Test CRC 0176FA5A
Copy CRC 0176FA5A
Track not present in AccurateRip database
Copy OK

Track 15

Filename F:\2005.James Moody - Just Moody (Quadromania, 4CD)\CD2\15. Mean to Me.wav

Pre-gap length 0:00:02.00

Peak level 99.9 %
Extraction speed 3.4 X
Track quality 100.0 %
Test CRC 159D7486
Copy CRC 159D7486
Track not present in AccurateRip database
Copy OK

Track 16

Filename F:\2005.James Moody - Just Moody (Quadromania, 4CD)\CD2\16. Delooney.wav

Pre-gap length 0:00:02.00

Peak level 98.9 %
Extraction speed 3.3 X
Track quality 100.0 %
Test CRC 83C4D7BF
Copy CRC 83C4D7BF
Track not present in AccurateRip database
Copy OK

Track 17

Filename F:\2005.James Moody - Just Moody (Quadromania, 4CD)\CD2\17. Nath - Part 1.wav

Pre-gap length 0:00:02.00

Peak level 99.9 %
Extraction speed 3.3 X
Track quality 100.0 %
Test CRC 89817B91
Copy CRC 89817B91
Track not present in AccurateRip database
Copy OK

Track 18

Filename F:\2005.James Moody - Just Moody (Quadromania, 4CD)\CD2\18. I Can't Get Started.wav

Pre-gap length 0:00:02.00

Peak level 99.9 %
Extraction speed 3.5 X
Track quality 100.0 %
Test CRC 5DAEF05F
Copy CRC 5DAEF05F
Track not present in AccurateRip database
Copy OK


None of the tracks are present in the AccurateRip database

No errors occurred

End of status report

==== Log checksum F04F10DC0BBB7532F5549BF985E83EF7B0EE29622527FC69BD8F274F7400F32E ====

[CUETools log; Date: 13.06.2018 14:07:55; Version: 2.1.4]
[CTDB TOCID: S3TSKKkpG9rFFw8NxHYFInPfhWI-] found.
Track | CTDB Status
1 | (5/5) Accurately ripped
2 | (5/5) Accurately ripped
3 | (5/5) Accurately ripped
4 | (5/5) Accurately ripped
5 | (5/5) Accurately ripped
6 | (5/5) Accurately ripped
7 | (5/5) Accurately ripped
8 | (5/5) Accurately ripped
9 | (5/5) Accurately ripped
10 | (5/5) Accurately ripped
11 | (5/5) Accurately ripped
12 | (5/5) Accurately ripped
13 | (5/5) Accurately ripped
14 | (5/5) Accurately ripped
15 | (5/5) Accurately ripped
16 | (5/5) Accurately ripped
17 | (5/5) Accurately ripped
18 | (5/5) Accurately ripped
[AccurateRip ID: 00245400-01e7d2de-ee0d1912] found.
Track [ CRC | V2 ] Status
01 [54618885|569c3b04] (0+2/2) Accurately ripped
02 [b09df78f|66580d54] (0+2/2) Accurately ripped
03 [130e3468|07bc44d8] (0+2/2) Accurately ripped
04 [f685013f|18696310] (0+2/2) Accurately ripped
05 [c128c2a3|dba1a22c] (0+2/2) Accurately ripped
06 [4f5f04d5|b7351395] (0+2/2) Accurately ripped
07 [a44c5451|f13de03d] (0+2/2) Accurately ripped
08 [bd54d20a|b82e9a0d] (0+2/2) Accurately ripped
09 [4c83fd05|ab9dac0b] (0+2/2) Accurately ripped
10 [f6828846|5beb9c68] (0+2/2) Accurately ripped
11 [c6583ba5|f8a36826] (0+2/2) Accurately ripped
12 [2486e4c9|f21f0985] (0+2/2) Accurately ripped
13 [3ad99cc5|8e164ea9] (0+2/2) Accurately ripped
14 [95f885f7|50137c7c] (0+2/2) Accurately ripped
15 [5a94884d|3a88d425] (0+2/2) Accurately ripped
16 [13bb1b05|e422a777] (0+2/2) Accurately ripped
17 [e4b36e2c|bcf9bc1d] (0+2/2) Accurately ripped
18 [3dc282ca|4a4e0678] (0+2/2) Accurately ripped

Track Peak [ CRC32 ] [W/O NULL] [ LOG ]
– 100,0 [39A82E46] [BFB84B22]
01 99,4 [17B1F557] [27F27A14] CRC32
02 99,9 [FE51FE8A] [668883B4] CRC32
03 98,4 [84BF0D88] [DF78BBD5] CRC32
04 99,8 [8277845D] [B5CBBCB0] CRC32
05 99,8 [E8E65E28] [672310A4] CRC32
06 98,8 [B3BB1AFD] [62903FE5] CRC32
07 100,0 [793E8F4E] [7E7AE8E3] CRC32
08 98,7 [DACBC804] [E5441973] CRC32
09 100,0 [3E4E73C6] [0004080C] CRC32
10 99,9 [FCFE5E9F] [344B931B] CRC32
11 99,8 [D3FE43B8] [3FC15BF2] CRC32
12 100,0 [D4108152] [09664B85] CRC32
13 99,9 [E713A4DF] [D507ECBE] CRC32
14 99,8 [0176FA5A] [225B209C] CRC32
15 99,9 [159D7486] [C5E745CA] CRC32
16 98,9 [83C4D7BF] [728E66B7] CRC32
17 99,9 [89817B91] [78FA3BD5] CRC32
18 99,9 [5DAEF05F] [BE7B4A97] CRC32

Exact Audio Copy V1.0 beta 3 from 29. August 2011

EAC extraction logfile from 21. May 2013, 17:06

James Moody / Just Moody - CD 3

Used drive : Optiarc DVD RW AD-5200A Adapter: 0 ID: 0

Read mode : Secure
Utilize accurate stream : Yes
Defeat audio cache : Yes
Make use of C2 pointers : No

Read offset correction : 48
Overread into Lead-In and Lead-Out : No
Fill up missing offset samples with silence : Yes
Delete leading and trailing silent blocks : No
Null samples used in CRC calculations : Yes
Used interface : Native Win32 interface for Win NT & 2000
Gap handling : Appended to previous track

Used output format : User Defined Encoder
Selected bitrate : 128 kBit/s
Quality : High
Add ID3 tag : No
Command line compressor : C:\Program Files\Exact Audio Copy\Flac\flac.exe
Additional command line options : -V -8 -T "Genre=%genre%" -T "Artist=%artist%" -T "Title=%title%" -T "Album=%albumtitle%" -T "Date=%year%" -T "Tracknumber=%tracknr%" -T "Comment=%comment%" %source%


TOC of the extracted CD

Track | Start | Length | Start sector | End sector
––––––––––––––––––––––––––––-
1 | 0:00.00 | 3:29.42 | 0 | 15716
2 | 3:29.42 | 2:41.20 | 15717 | 27811
3 | 6:10.62 | 2:16.45 | 27812 | 38056
4 | 8:27.32 | 3:06.22 | 38057 | 52028
5 | 11:33.54 | 3:13.74 | 52029 | 66577
6 | 14:47.53 | 3:27.45 | 66578 | 82147
7 | 18:15.23 | 2:24.06 | 82148 | 92953
8 | 20:39.29 | 2:47.47 | 92954 | 105525
9 | 23:27.01 | 2:39.64 | 105526 | 117514
10 | 26:06.65 | 2:26.41 | 117515 | 128505
11 | 28:33.31 | 2:54.71 | 128506 | 141626
12 | 31:28.27 | 3:40.21 | 141627 | 158147
13 | 35:08.48 | 3:06.33 | 158148 | 172130
14 | 38:15.06 | 2:52.68 | 172131 | 185098
15 | 41:07.74 | 4:34.19 | 185099 | 205667
16 | 45:42.18 | 3:08.58 | 205668 | 219825
17 | 48:51.01 | 3:09.46 | 219826 | 234046
18 | 52:00.47 | 2:40.02 | 234047 | 246048
19 | 54:40.49 | 3:30.03 | 246049 | 261801


Track 1

Filename F:\2005.James Moody - Just Moody (Quadromania, 4CD)\CD3\01. Riffin' and Raphin'.wav

Pre-gap length 0:00:02.00

Peak level 100.0 %
Extraction speed 2.2 X
Track quality 100.0 %
Test CRC 62184D6D
Copy CRC 62184D6D
Track not present in AccurateRip database
Copy OK

Track 2

Filename F:\2005.James Moody - Just Moody (Quadromania, 4CD)\CD3\02. St. Louis Blues.wav

Pre-gap length 0:00:02.00

Peak level 99.8 %
Extraction speed 2.2 X
Track quality 100.0 %
Test CRC 7A60D7D0
Copy CRC 7A60D7D0
Track not present in AccurateRip database
Copy OK

Track 3

Filename F:\2005.James Moody - Just Moody (Quadromania, 4CD)\CD3\03. In A Rush.wav

Pre-gap length 0:00:02.00

Peak level 99.9 %
Extraction speed 2.0 X
Track quality 100.0 %
Test CRC 9C366E8B
Copy CRC 9C366E8B
Track not present in AccurateRip database
Copy OK

Track 4

Filename F:\2005.James Moody - Just Moody (Quadromania, 4CD)\CD3\04. Embraceable You.wav

Pre-gap length 0:00:02.00

Peak level 99.9 %
Extraction speed 2.6 X
Track quality 100.0 %
Test CRC 77945FF8
Copy CRC 77945FF8
Track not present in AccurateRip database
Copy OK

Track 5

Filename F:\2005.James Moody - Just Moody (Quadromania, 4CD)\CD3\05. The Man I Love.wav

Pre-gap length 0:00:02.00

Peak level 100.0 %
Extraction speed 2.8 X
Track quality 100.0 %
Test CRC C859DC12
Copy CRC C859DC12
Track not present in AccurateRip database
Copy OK

Track 6

Filename F:\2005.James Moody - Just Moody (Quadromania, 4CD)\CD3\06. Les Feuilles Mortes.wav

Pre-gap length 0:00:02.00

Peak level 99.8 %
Extraction speed 2.9 X
Track quality 100.0 %
Test CRC E774CEE0
Copy CRC E774CEE0
Track not present in AccurateRip database
Copy OK

Track 7

Filename F:\2005.James Moody - Just Moody (Quadromania, 4CD)\CD3\07. Chanter Pour Toi.wav

Pre-gap length 0:00:02.00

Peak level 99.9 %
Extraction speed 2.4 X
Track quality 99.9 %
Test CRC 57B8EEE0
Copy CRC 57B8EEE0
Track not present in AccurateRip database
Copy OK

Track 8

Filename F:\2005.James Moody - Just Moody (Quadromania, 4CD)\CD3\08. Bedelia.wav

Pre-gap length 0:00:02.00

Peak level 99.4 %
Extraction speed 2.6 X
Track quality 99.9 %
Test CRC C7041592
Copy CRC C7041592
Track not present in AccurateRip database
Copy OK

Track 9

Filename F:\2005.James Moody - Just Moody (Quadromania, 4CD)\CD3\09. Aimer Comme Je T'aime.wav

Pre-gap length 0:00:02.00

Peak level 99.1 %
Extraction speed 3.1 X
Track quality 100.0 %
Test CRC 612B24CB
Copy CRC 612B24CB
Track not present in AccurateRip database
Copy OK

Track 10

Filename F:\2005.James Moody - Just Moody (Quadromania, 4CD)\CD3\10. Si Lolie.wav

Pre-gap length 0:00:02.00

Peak level 100.0 %
Extraction speed 3.1 X
Track quality 100.0 %
Test CRC 66F792BE
Copy CRC 66F792BE
Track not present in AccurateRip database
Copy OK

Track 11

Filename F:\2005.James Moody - Just Moody (Quadromania, 4CD)\CD3\11. September Serenade.wav

Pre-gap length 0:00:02.00

Peak level 99.9 %
Extraction speed 2.8 X
Track quality 99.9 %
Test CRC 736549B0
Copy CRC 736549B0
Track not present in AccurateRip database
Copy OK

Track 12

Filename F:\2005.James Moody - Just Moody (Quadromania, 4CD)\CD3\12. Bootsie.wav

Pre-gap length 0:00:02.00

Peak level 99.9 %
Extraction speed 3.4 X
Track quality 100.0 %
Test CRC FFB98B2E
Copy CRC FFB98B2E
Track not present in AccurateRip database
Copy OK

Track 13

Filename F:\2005.James Moody - Just Moody (Quadromania, 4CD)\CD3\13. I Cover The Waterfront.wav

Pre-gap length 0:00:02.00

Peak level 100.0 %
Extraction speed 3.4 X
Track quality 100.0 %
Test CRC 2EFDFB4C
Copy CRC 2EFDFB4C
Track not present in AccurateRip database
Copy OK

Track 14

Filename F:\2005.James Moody - Just Moody (Quadromania, 4CD)\CD3\14. Deep Purple.wav

Pre-gap length 0:00:02.00

Peak level 98.1 %
Extraction speed 3.4 X
Track quality 100.0 %
Test CRC 8143176E
Copy CRC 8143176E
Track not present in AccurateRip database
Copy OK

Track 15

Filename F:\2005.James Moody - Just Moody (Quadromania, 4CD)\CD3\15. Lover, Come Back To Me.wav

Pre-gap length 0:00:01.74

Peak level 99.9 %
Extraction speed 3.6 X
Track quality 100.0 %
Test CRC 8FD3048E
Copy CRC 8FD3048E
Track not present in AccurateRip database
Copy OK

Track 16

Filename F:\2005.James Moody - Just Moody (Quadromania, 4CD)\CD3\16. That's My Desire.wav

Pre-gap length 0:00:02.00

Peak level 99.9 %
Extraction speed 3.4 X
Track quality 100.0 %
Test CRC FF0048AF
Copy CRC FF0048AF
Track not present in AccurateRip database
Copy OK

Track 17

Filename F:\2005.James Moody - Just Moody (Quadromania, 4CD)\CD3\17. More Than You Know.wav

Pre-gap length 0:00:02.00

Peak level 98.4 %
Extraction speed 3.4 X
Track quality 100.0 %
Test CRC F09D9B72
Copy CRC F09D9B72
Track not present in AccurateRip database
Copy OK

Track 18

Filename F:\2005.James Moody - Just Moody (Quadromania, 4CD)\CD3\18. Moody's Mode.wav

Pre-gap length 0:00:02.00

Peak level 98.2 %
Extraction speed 2.8 X
Track quality 99.9 %
Test CRC 60A090A1
Copy CRC 60A090A1
Track not present in AccurateRip database
Copy OK

Track 19

Filename F:\2005.James Moody - Just Moody (Quadromania, 4CD)\CD3\19. This Is Always.wav

Pre-gap length 0:00:02.00

Peak level 99.9 %
Extraction speed 3.5 X
Track quality 100.0 %
Test CRC 4E4EB117
Copy CRC 4E4EB117
Track not present in AccurateRip database
Copy OK


None of the tracks are present in the AccurateRip database

No errors occurred

End of status report

==== Log checksum 2E121531F697BCD055718A8390FE225C8ABB0EBD181DE10941A9588074FBF2E8 ====

[CUETools log; Date: 13.06.2018 14:09:21; Version: 2.1.4]
[CTDB TOCID: biVmZEZY1ViSsd4Xb17kPoPcyfQ-] found.
Track | CTDB Status
1 | (5/5) Accurately ripped
2 | (5/5) Accurately ripped
3 | (5/5) Differs in 175 samples @01:59:24
4 | (5/5) Accurately ripped
5 | (5/5) Accurately ripped
6 | (5/5) Accurately ripped
7 | (5/5) Accurately ripped
8 | (5/5) Accurately ripped
9 | (5/5) Accurately ripped
10 | (5/5) Accurately ripped
11 | (5/5) Accurately ripped
12 | (5/5) Accurately ripped
13 | (5/5) Accurately ripped
14 | (5/5) Accurately ripped
15 | (5/5) Accurately ripped
16 | (5/5) Accurately ripped
17 | (5/5) Accurately ripped
18 | (5/5) Accurately ripped
19 | (5/5) Accurately ripped
[AccurateRip ID: 0026edc7-02237118-0f0da213] found.
Track [ CRC | V2 ] Status
01 [3ff68002|7040cb1b] (0+2/2) Accurately ripped
02 [f038d824|1b273d83] (0+2/2) Accurately ripped
03 [0592239b|214f758d] (0+0/2) No match
04 [9cdc785b|d903adc2] (0+2/2) Accurately ripped
05 [00e26609|88994c32] (0+2/2) Accurately ripped
06 [de0de83d|0645c0dd] (0+2/2) Accurately ripped
07 [2eebd769|67afa3d7] (0+2/2) Accurately ripped
08 [bd872a9c|f8336bbf] (0+2/2) Accurately ripped
09 [6fd14e13|213eb8d5] (0+2/2) Accurately ripped
10 [68f6a9b6|b49bf5ab] (0+2/2) Accurately ripped
11 [2fe494e2|6394b669] (0+2/2) Accurately ripped
12 [0e962dfb|00aa3b99] (0+2/2) Accurately ripped
13 [95985687|3cc07656] (0+2/2) Accurately ripped
14 [5453200a|6d0a095a] (0+2/2) Accurately ripped
15 [61e51e51|650786b4] (0+2/2) Accurately ripped
16 [58062af1|4a004e63] (0+2/2) Accurately ripped
17 [4250c9d1|4f395553] (0+2/2) Accurately ripped
18 [96d96c48|7795bda9] (0+2/2) Accurately ripped
19 [189e2ccf|db78880d] (0+2/2) Accurately ripped

Track Peak [ CRC32 ] [W/O NULL] [ LOG ]
– 100,0 [2310DA50] [E2948F22]
01 99,9 [62184D6D] [39B4A40C] CRC32
02 99,8 [7A60D7D0] [C7EAA645] CRC32
03 99,9 [9C366E8B] [CB4F6E81] CRC32
04 99,9 [77945FF8] [68A7C53F] CRC32
05 100,0 [C859DC12] [F43D80D9] CRC32
06 99,8 [E774CEE0] [93C5C98F] CRC32
07 99,9 [57B8EEE0] [170325EB] CRC32
08 99,4 [C7041592] [0526976A] CRC32
09 99,1 [612B24CB] [6657FDA7] CRC32
10 100,0 [66F792BE] [2261C8D9] CRC32
11 99,9 [736549B0] [3D9DE3ED] CRC32
12 99,9 [FFB98B2E] [CF8CDD35] CRC32
13 100,0 [2EFDFB4C] [5B8D056E] CRC32
14 98,1 [8143176E] [24FBAC6F] CRC32
15 99,9 [8FD3048E] [F61F5B42] CRC32
16 99,9 [FF0048AF] [73A0B821] CRC32
17 98,4 [F09D9B72] [C6364255] CRC32
18 98,2 [60A090A1] [63D4AE5F] CRC32
19 99,9 [4E4EB117] [C4C28C6F] CRC32

Exact Audio Copy V1.0 beta 3 from 29. August 2011

EAC extraction logfile from 21. May 2013, 17:50

James Moody / Just Moody - CD 4

Used drive : Optiarc DVD RW AD-5200A Adapter: 0 ID: 0

Read mode : Secure
Utilize accurate stream : Yes
Defeat audio cache : Yes
Make use of C2 pointers : No

Read offset correction : 48
Overread into Lead-In and Lead-Out : No
Fill up missing offset samples with silence : Yes
Delete leading and trailing silent blocks : No
Null samples used in CRC calculations : Yes
Used interface : Native Win32 interface for Win NT & 2000
Gap handling : Appended to previous track

Used output format : User Defined Encoder
Selected bitrate : 128 kBit/s
Quality : High
Add ID3 tag : No
Command line compressor : C:\Program Files\Exact Audio Copy\Flac\flac.exe
Additional command line options : -V -8 -T "Genre=%genre%" -T "Artist=%artist%" -T "Title=%title%" -T "Album=%albumtitle%" -T "Date=%year%" -T "Tracknumber=%tracknr%" -T "Comment=%comment%" %source%


TOC of the extracted CD

Track | Start | Length | Start sector | End sector
––––––––––––––––––––––––––––-
1 | 0:00.00 | 3:22.19 | 0 | 15168
2 | 3:22.19 | 2:48.22 | 15169 | 27790
3 | 6:10.41 | 3:17.51 | 27791 | 42616
4 | 9:28.17 | 3:12.32 | 42617 | 57048
5 | 12:40.49 | 2:59.33 | 57049 | 70506
6 | 15:40.07 | 3:06.23 | 70507 | 84479
7 | 18:46.30 | 2:43.22 | 84480 | 96726
8 | 21:29.52 | 4:11.02 | 96727 | 115553
9 | 25:40.54 | 3:55.56 | 115554 | 133234
10 | 29:36.35 | 3:50.11 | 133235 | 150495
11 | 33:26.46 | 3:56.32 | 150496 | 168227
12 | 37:23.03 | 5:39.14 | 168228 | 193666
13 | 43:02.17 | 2:50.35 | 193667 | 206451
14 | 45:52.52 | 2:47.36 | 206452 | 219012
15 | 48:40.13 | 3:15.17 | 219013 | 233654
16 | 51:55.30 | 3:39.49 | 233655 | 250128


Track 1

Filename F:\2005.James Moody - Just Moody (Quadromania, 4CD)\CD4\01. I'm Gone.wav

Pre-gap length 0:00:02.00

Peak level 99.4 %
Extraction speed 2.2 X
Track quality 100.0 %
Test CRC CF1D8ACA
Copy CRC CF1D8ACA
Track not present in AccurateRip database
Copy OK

Track 2

Filename F:\2005.James Moody - Just Moody (Quadromania, 4CD)\CD4\02. A Hundred Years From Today.wav

Pre-gap length 0:00:02.00

Peak level 100.0 %
Extraction speed 1.9 X
Track quality 99.9 %
Test CRC 2712808C
Copy CRC 2712808C
Track not present in AccurateRip database
Copy OK

Track 3

Filename F:\2005.James Moody - Just Moody (Quadromania, 4CD)\CD4\03. Keepin' Up With Jonesy.wav

Pre-gap length 0:00:02.00

Peak level 99.9 %
Extraction speed 2.5 X
Track quality 100.0 %
Test CRC 5C977247
Copy CRC 5C977247
Track not present in AccurateRip database
Copy OK

Track 4

Filename F:\2005.James Moody - Just Moody (Quadromania, 4CD)\CD4\04. Workshop.wav

Pre-gap length 0:00:02.00

Peak level 99.8 %
Extraction speed 2.7 X
Track quality 100.0 %
Test CRC 36AA70A7
Copy CRC 36AA70A7
Track not present in AccurateRip database
Copy OK

Track 5

Filename F:\2005.James Moody - Just Moody (Quadromania, 4CD)\CD4\05. That Man O' Mine.wav

Pre-gap length 0:00:02.00

Peak level 99.9 %
Extraction speed 2.8 X
Track quality 100.0 %
Test CRC 3788918D
Copy CRC 3788918D
Track not present in AccurateRip database
Copy OK

Track 6

Filename F:\2005.James Moody - Just Moody (Quadromania, 4CD)\CD4\06. Over The Rainbow.wav

Pre-gap length 0:00:02.00

Peak level 99.2 %
Extraction speed 2.9 X
Track quality 100.0 %
Test CRC 42F62D20
Copy CRC 42F62D20
Track not present in AccurateRip database
Copy OK

Track 7

Filename F:\2005.James Moody - Just Moody (Quadromania, 4CD)\CD4\07. Jack Raggs.wav

Pre-gap length 0:00:02.00

Peak level 99.6 %
Extraction speed 2.9 X
Track quality 100.0 %
Test CRC 408725CF
Copy CRC 408725CF
Track not present in AccurateRip database
Copy OK

Track 8

Filename F:\2005.James Moody - Just Moody (Quadromania, 4CD)\CD4\08. Mambo With Moody.wav

Pre-gap length 0:00:02.00

Peak level 99.2 %
Extraction speed 3.3 X
Track quality 100.0 %
Test CRC 2AD903EE
Copy CRC 2AD903EE
Track not present in AccurateRip database
Copy OK

Track 9

Filename F:\2005.James Moody - Just Moody (Quadromania, 4CD)\CD4\09. It Might As Well Be Spring.wav

Pre-gap length 0:00:02.00

Peak level 100.0 %
Extraction speed 3.4 X
Track quality 100.0 %
Test CRC 4335B47E
Copy CRC 4335B47E
Track not present in AccurateRip database
Copy OK

Track 10

Filename F:\2005.James Moody - Just Moody (Quadromania, 4CD)\CD4\10. It Might As Well Be Spring.wav

Pre-gap length 0:00:02.00

Peak level 99.8 %
Extraction speed 3.5 X
Track quality 100.0 %
Test CRC 4DEAD220
Copy CRC 4DEAD220
Track not present in AccurateRip database
Copy OK

Track 11

Filename F:\2005.James Moody - Just Moody (Quadromania, 4CD)\CD4\11. Blues In The Closet.wav

Pre-gap length 0:00:02.00

Peak level 99.9 %
Extraction speed 3.5 X
Track quality 100.0 %
Test CRC 3750B662
Copy CRC 3750B662
Track not present in AccurateRip database
Copy OK

Track 12

Filename F:\2005.James Moody - Just Moody (Quadromania, 4CD)\CD4\12. Moody's Mood For Blues.wav

Pre-gap length 0:00:02.00

Peak level 99.3 %
Extraction speed 3.6 X
Track quality 100.0 %
Test CRC C041A8C9
Copy CRC C041A8C9
Track not present in AccurateRip database
Copy OK

Track 13

Filename F:\2005.James Moody - Just Moody (Quadromania, 4CD)\CD4\13. Nobody Knows The Trouble I've Seen.wav

Pre-gap length 0:00:02.00

Peak level 99.7 %
Extraction speed 3.4 X
Track quality 100.0 %
Test CRC 80F61EC2
Copy CRC 80F61EC2
Track not present in AccurateRip database
Copy OK

Track 14

Filename F:\2005.James Moody - Just Moody (Quadromania, 4CD)\CD4\14. I Got The Blues.wav

Pre-gap length 0:00:02.00

Peak level 99.9 %
Extraction speed 3.3 X
Track quality 100.0 %
Test CRC 82EEAA31
Copy CRC 82EEAA31
Track not present in AccurateRip database
Copy OK

Track 15

Filename F:\2005.James Moody - Just Moody (Quadromania, 4CD)\CD4\15. Blue Walk.wav

Pre-gap length 0:00:02.00

Peak level 99.1 %
Extraction speed 2.9 X
Track quality 99.9 %
Test CRC A9AACEC5
Copy CRC A9AACEC5
Track not present in AccurateRip database
Copy OK

Track 16

Filename F:\2005.James Moody - Just Moody (Quadromania, 4CD)\CD4\16. Faster James.wav

Pre-gap length 0:00:02.00

Peak level 99.5 %
Extraction speed 3.4 X
Track quality 100.0 %
Test CRC FC0C544A
Copy CRC FC0C544A
Track not present in AccurateRip database
Copy OK


None of the tracks are present in the AccurateRip database

No errors occurred

End of status report

==== Log checksum B7B327B247E97B3B71F8DE59FDB1EC557B17B6C8EDFF4EDE10EB3EACF6919D13 ====

[CUETools log; Date: 13.06.2018 14:10:09; Version: 2.1.4]
[CTDB TOCID: 7kPH3h.FZvhv08IrICovCHruAuw-] found.
Track | CTDB Status
1 | (5/5) Accurately ripped
2 | (5/5) Accurately ripped
3 | (5/5) Accurately ripped
4 | (5/5) Accurately ripped
5 | (5/5) Accurately ripped
6 | (5/5) Accurately ripped
7 | (5/5) Accurately ripped
8 | (5/5) Accurately ripped
9 | (5/5) Accurately ripped
10 | (5/5) Accurately ripped
11 | (5/5) Accurately ripped
12 | (5/5) Accurately ripped
13 | (5/5) Accurately ripped
14 | (5/5) Accurately ripped
15 | (5/5) Accurately ripped
16 | (5/5) Accurately ripped
[AccurateRip ID: 001f8181-017ed026-d10d0710] found.
Track [ CRC | V2 ] Status
01 [69ca7b37|c16d000b] (0+2/2) Accurately ripped
02 [43cbd428|13d68cdd] (0+2/2) Accurately ripped
03 [1c12b518|421bb83c] (0+2/2) Accurately ripped
04 [dd48da68|727dec1b] (0+2/2) Accurately ripped
05 [04bda003|77281a0d] (0+2/2) Accurately ripped
06 [2849a62a|10534e03] (0+2/2) Accurately ripped
07 [5c4fba08|464adc79] (0+2/2) Accurately ripped
08 [c98bcff1|ed870a57] (0+2/2) Accurately ripped
09 [e0991283|029be0b1] (0+2/2) Accurately ripped
10 [a0604303|bd326e44] (0+2/2) Accurately ripped
11 [e4ac4f68|21f34d9b] (0+2/2) Accurately ripped
12 [c8bbbf02|3bfb3c71] (0+2/2) Accurately ripped
13 [ddbcc8ce|4ddc7892] (0+2/2) Accurately ripped
14 [53a64337|3ef5723b] (0+2/2) Accurately ripped
15 [e4621028|2b65021e] (0+2/2) Accurately ripped
16 [30f7aa43|aaefeecc] (0+2/2) Accurately ripped

Track Peak [ CRC32 ] [W/O NULL] [ LOG ]
– 100,0 [30FC4DBF] [9FA2310E]
01 99,4 [CF1D8ACA] [D02A94DF] CRC32
02 100,0 [2712808C] [623D3040] CRC32
03 99,9 [5C977247] [32102562] CRC32
04 99,8 [36AA70A7] [2417CA00] CRC32
05 99,9 [3788918D] [5229037D] CRC32
06 99,2 [42F62D20] [0902C01A] CRC32
07 99,6 [408725CF] [02AE5C71] CRC32
08 99,2 [2AD903EE] [FFAD314C] CRC32
09 100,0 [4335B47E] [A6AF1DED] CRC32
10 99,8 [4DEAD220] [1477B409] CRC32
11 99,9 [3750B662] [5AC9665B] CRC32
12 99,3 [C041A8C9] [A11B5F60] CRC32
13 99,7 [80F61EC2] [7B9C37A6] CRC32
14 99,9 [82EEAA31] [A76ECD54] CRC32
15 99,1 [A9AACEC5] [19323644] CRC32
16 99,5 [FC0C544A] [8BA6BC1F] CRC32

Thanks to ssagwebster

See also: