Janis Ian - The Secret Life of J. Eddy Fink (1968) + Who Really Cares (1969) 2 LP in 1 CD, Remastered 2009

Posted By: Designol
Janis Ian - The Secret Life of J. Eddy Fink (1968) + Who Really Cares (1969) 2 LP in 1 CD, Remastered 2009

Janis Ian - The Secret Life of J. Eddy Fink (1968) + Who Really Cares (1969) 2 LP in 1 CD, Remastered 2009
EAC | FLAC | Image (Cue&Log) ~ 486 Mb (incl 5%) | Mp3 (CBR320) ~ 221 Mb (incl 5%) | Scans included
Genre: Singer/Songwriter, Rock, Folk Rock, Psychedelic | Label: BGO | # BGOCD910 | Time: 01:17:27

Digitally remastered two-fer from the Folk/Rock singer/songwriter containing two of her original albums on one CD: Secret Life of J. Eddy Fink (1968) and Who Really Cares (1969). These are a young Janis' third and fourth recordings for Verve. She retired from music at 19, but returned to go onto huge success with her 1974 album Stars and a long international career.

Great Britain’s BGO imprint always does a stellar job when it comes to reissues. This two-fer reissue of Janis Ian’s second and third albums released on Verve/Forecast in 1968 and 1969, respectively, is no exception. Listening to these albums all these years later, it is astonishing to note that Ian was still in her teens when they were released. While neither album charted, both are rich, varied, and convincing. Check the seven-plus minute “Mistaken Identity,” from The Secret Life of J. Eddy Fink, produced by Ian and Shadow Morton. With its seamless integration of Ian’s pianistic knowledge of hard bop jazz harmony, classic American ballad-book styles, and shifting time signatures; this track is worth the price of admission by itself. Other stellar tracks include the Bob Dylan-influenced “Friends Again,” and the fuzzed-out rock of “Sweet Misery.” Who Really Cares is even more ambitious. Produced by Charlie Calello, Ian is credited as co-arranger for a studio band full of crack musicians including Dick Hyman, Hugh McCracken, Joe Farrell, Marvin Stamm, and others. Ian plays piano on the set. Listen to the interplay with vibraphonist David Freidman on “Orphan of the Wind”; it swings hard but never loses its groove. Check the driving souled-out rock of “Sea and Sand,” the bluesy country-rocker “Time on My Hands,” and “Love You More Than Yesterday,” with her scat singing fronting a full R&B horn section. Both records hold up beautifully. This two-fer on a single disc, is well worth seeking out for Ian fans, since this release marks the first appearance of these albums on CD.

Review by Thom Jurek, Allmusic.com

Janis Ian - The Secret Life of J. Eddy Fink (1968) + Who Really Cares (1969) 2 LP in 1 CD, Remastered 2009



Tracklist:

The Secret Life of J. Eddy Fink (1968):

01. Everybody Knows (02:53)
02. Mistaken Identity (07:12)
03. Friends Again (01:48)
04. 42nd St. Psycho Blues (03:57)
05. She's Made Of Porcelain (02:35)
06. Sweet Misery (03:36)
07. When I Was A Child (03:48)
08. What Do You Think Of The Dead? (03:23)
09. Look To The Rain (05:15)
10. Son Of Love (03:11)
11. Baby's Blue (05:19)

Who Really Cares (1969):

12. Time On My Hands (02:55)
13. Snowbird (04:23)
14. Love You More Than Yesterday (03:09)
15. Orphan Of The Wind (05:09)
16. Sea & Sand (02:52)
17. Galveston (03:42)
18. Do You Remember? (03:13)
19. Month Of May (04:32)
20. Calling Your Name (04:24)


Exact Audio Copy V1.0 beta 3 from 29. August 2011

Отчёт EAC об извлечении, выполненном 22. декабря 2015, 23:34

Janis Ian / The Secret Life Of J.Eddy Fink/Who Really Cares

Дисковод: TSSTcorpCDDVDW SN-208BB Adapter: 1 ID: 0

Режим чтения : Достоверность
Использование точного потока : Да
Отключение кэша аудио : Да
Использование указателей C2 : Нет

Коррекция смещения при чтении : 6
Способность читать области Lead-in и Lead-out : Нет
Заполнение пропущенных сэмплов тишиной : Да
Удаление блоков с тишиной в начале и конце : Нет
При вычислениях CRC использовались нулевые сэмплы : Да
Интерфейс : Встроенный Win32-интерфейс для Win NT/2000

Выходной формат : Пользовательский кодировщик
Выбранный битрейт : 128 kBit/s
Качество : Высокий
Добавление ID3-тега : Нет
Утилита сжатия : C:\Program Files (x86)\Exact Audio Copy\Flac\flac.exe
Дополнительные параметры : -V -8 -T "Date=%year%" -T "Genre=%genre%" %source%


TOC извлечённого CD

Трек | Старт | Длительность | Начальный сектор | Конечный сектор
––––––––––––––––––––––––––––––––––-
1 | 0:00.00 | 2:53.60 | 0 | 13034
2 | 2:53.60 | 7:12.63 | 13035 | 45497
3 | 10:06.48 | 1:48.48 | 45498 | 53645
4 | 11:55.21 | 3:57.30 | 53646 | 71450
5 | 15:52.51 | 2:35.71 | 71451 | 83146
6 | 18:28.47 | 3:36.14 | 83147 | 99360
7 | 22:04.61 | 3:48.43 | 99361 | 116503
8 | 25:53.29 | 3:23.58 | 116504 | 131786
9 | 29:17.12 | 5:15.49 | 131787 | 155460
10 | 34:32.61 | 3:11.74 | 155461 | 169859
11 | 37:44.60 | 5:19.14 | 169860 | 193798
12 | 43:03.74 | 2:55.28 | 193799 | 206951
13 | 45:59.27 | 4:23.60 | 206952 | 226736
14 | 50:23.12 | 3:09.55 | 226737 | 240966
15 | 53:32.67 | 5:09.01 | 240967 | 264142
16 | 58:41.68 | 2:52.16 | 264143 | 277058
17 | 61:34.09 | 3:42.38 | 277059 | 293746
18 | 65:16.47 | 3:13.24 | 293747 | 308245
19 | 68:29.71 | 4:32.23 | 308246 | 328668
20 | 73:02.19 | 4:24.43 | 328669 | 348511


Характеристики диапазона извлечения и сообщения об ошибках

Выбранный диапазон

Имя файла C:\Users\Samsung\Documents\Janis Ian - The Secret Life Of J.Eddy Fink,Who Really Cares\Janis Ian - The Secret Life Of J.Eddy Fink,Who Really Cares.wav

Пиковый уровень 100.0 %
Скорость извлечения 3.4 X
Качество диапазона 100.0 %
CRC теста 65C039B6
CRC копии 65C039B6
Копирование… OK

Ошибок не произошло


AccurateRip: сводка

Трек 1 : извлечено точно (доверие 4) [FC294D2D] (AR v2)
Трек 2 : извлечено точно (доверие 4) [78CCD0C8] (AR v2)
Трек 3 : извлечено точно (доверие 4) [2CD3AA0B] (AR v2)
Трек 4 : извлечено точно (доверие 4) [323384AF] (AR v2)
Трек 5 : извлечено точно (доверие 4) [739C39F8] (AR v2)
Трек 6 : извлечено точно (доверие 4) [F2E48AFC] (AR v2)
Трек 7 : извлечено точно (доверие 4) [5C6E9DED] (AR v2)
Трек 8 : извлечено точно (доверие 4) [7659B9F1] (AR v2)
Трек 9 : извлечено точно (доверие 4) [BA33EE28] (AR v2)
Трек 10 : извлечено точно (доверие 4) [9514435E] (AR v2)
Трек 11 : извлечено точно (доверие 4) [ABA7A172] (AR v2)
Трек 12 : извлечено точно (доверие 4) [9B40B841] (AR v2)
Трек 13 : извлечено точно (доверие 4) [45536619] (AR v2)
Трек 14 : извлечено точно (доверие 4) [532D202F] (AR v2)
Трек 15 : извлечено точно (доверие 4) [A764936E] (AR v2)
Трек 16 : извлечено точно (доверие 4) [1A2D44D2] (AR v2)
Трек 17 : извлечено точно (доверие 4) [37DFF871] (AR v2)
Трек 18 : извлечено точно (доверие 4) [440A22F9] (AR v2)
Трек 19 : извлечено точно (доверие 4) [4E0C8BB8] (AR v2)
Трек 20 : извлечено точно (доверие 4) [24707CA4] (AR v2)

Все треки извлечены точно

Конец отчёта

==== Контрольная сумма отчёта 14BACE0FD0C98AE28CA73F1AC546F3E3703C2EA8ABBAA58E7C9CE21920D8E4C6 ====

foobar2000 1.2 / Dynamic Range Meter 1.1.1
log date: 2015-12-25 14:51:53

––––––––––––––––––––––––––––––––––––––––
Analyzed: Janis Ian / The Secret Life Of J.Eddy Fink/Who Really Cares
––––––––––––––––––––––––––––––––––––––––

DR Peak RMS Duration Track
––––––––––––––––––––––––––––––––––––––––
DR10 0.00 dB -11.95 dB 2:54 01-Everybody Knows
DR10 0.00 dB -13.66 dB 7:13 02-Mistaken Identity
DR10 0.00 dB -12.36 dB 1:49 03-Friends Again
DR10 0.00 dB -13.09 dB 3:57 04-42nd St. Psycho Blues
DR9 0.00 dB -13.17 dB 2:36 05-She's Made Of Porcelain
DR9 -0.50 dB -11.24 dB 3:36 06-Sweet Misery
DR10 0.00 dB -15.60 dB 3:49 07-When I Was A Child
DR11 0.00 dB -13.05 dB 3:24 08-What Do You Think Of The Dead?
DR9 0.00 dB -11.46 dB 5:16 09-Look To The Rain
DR12 -0.79 dB -15.87 dB 3:12 10-Son Of Love
DR10 0.00 dB -13.00 dB 5:19 11-Baby's Blue
DR10 0.00 dB -12.24 dB 2:55 12-Time On My Hands
DR10 0.00 dB -14.33 dB 4:24 13-Snowbird
DR10 0.00 dB -11.90 dB 3:10 14-Love You More Than Yesterday
DR11 -0.60 dB -15.00 dB 5:09 15-Orphan Of The Wind
DR9 0.00 dB -10.86 dB 2:52 16-Sea & Sand
DR10 0.00 dB -13.67 dB 3:43 17-Galveston
DR8 -0.80 dB -11.59 dB 3:13 18-Do You Remember?
DR11 0.00 dB -15.46 dB 4:32 19-Month Of May
DR10 0.00 dB -13.38 dB 4:25 20-Calling Your Name
––––––––––––––––––––––––––––––––––––––––

Number of tracks: 20
Official DR value: DR10

Samplerate: 44100 Hz
Channels: 2
Bits per sample: 16
Bitrate: 777 kbps
Codec: FLAC
================================================================================

Janis Ian - The Secret Life of J. Eddy Fink (1968) + Who Really Cares (1969) 2 LP in 1 CD, Remastered 2009

Janis Ian - The Secret Life of J. Eddy Fink (1968) + Who Really Cares (1969) 2 LP in 1 CD, Remastered 2009


Janis Ian - The Secret Life of J. Eddy Fink (1968) + Who Really Cares (1969) 2 LP in 1 CD, Remastered 2009