Subcategories

Jean-Efflam Bavouzet - Claude Debussy: Complete Works for Piano, Volumes 1-5 (2007-2009) 5CD [Combined Repost]

Posted By: Designol
Jean-Efflam Bavouzet - Claude Debussy: Complete Works for Piano, Volumes 1-5 (2007-2009) 5CD [Combined Repost]

Jean-Efflam Bavouzet - Claude Debussy: Complete Works for Piano, Volumes 1-5 (5CD)
EAC | FLAC | Image (Cue&Log) ~ 947 Mb | Artwork Included
Genre: Classical | Label: Chandos | Time: 05:58:58

Jean-Efflam Bavouzet’s vivid and personal interpretations of Debussy’s complete works for piano are available for the first time in an attractive five-volume set, this is the series that put Bavouzet on the map, and established him firmly as a leading and internationally acclaimed pianist.

Album 1 offers Debussy’s two books of Préludes, complemented by the only recently rediscovered and rarely recorded late prelude entitled Les soirs illuminés par l’ardeur du charbon. Gramophone wrote of this disc: ‘Bavouzet commands all the shading, nuance and timbral sensitivity one expects in Debussy, together with virtuoso flair and characterful spontaneity.’

The second album reveals a more reflective, private period in Debussy’s compositional career. In the dedication of the three Images, Debussy wrote: ‘These pieces would feel extremely nervous entering “the brilliantly lit salons” regularly patronised by people who don’t like music. They are rather “conversations” between the Piano and Oneself.’ LA Times wrote: ‘In what may turn out to be the greatest complete recorded survey of the composer’s piano music yet, Jean-Efflam Bavouzet… plays with such bracing clarity that hearing the early Romantic pieces, one feels like jumping into an icy pond after an hour in the sauna.’

On album 3, the music moves to a more playful strand in Debussy’s output, with generally shorter pieces of the salon genre, including the two famous collections Children’s Corner and Suite bergamasque. Of album 4, which won a Gramophone Award in 2009, the magazine Pianist wrote: ‘Trust me, both the Images and Études easily conquer any other modern recording.’

The fifth and concluding album brings together the ballets Khamma, Jeux and La Boîte à joujoux, all far better known in their orchestral guise, but here performed in Debussy’s initial versions for solo piano. This album was an Editor’s Choice in the magazines Gramophone and Classic FM and nominated for a Gramophone Award in 2010, in the instrumental category.

Praised for his meticulous fidelity to the composer's intentions, as well as for his rich tonal palette and the warmth of his expressions, Jean-Efflam Bavouzet has won many admirers for his five albums of the complete solo piano music of Claude Debussy. These recordings were produced by Chandos between 2007 and 2009, and they have now been gathered into a handsome box set; each disc is presented with its own cardboard sleeve and the original liner notes that accompanied each release. The roster of artists who have recorded Debussy's keyboard music is a long and distinguished one, though Bavouzet is easily ranked in the upper echelons, equal in stature among such luminaries as Jean-Yves Thibaudet, Arturo Benedetti Michelangeli, Krystian Zimerman, Maurizio Pollini, Angela Hewitt, Pierre-Laurent Aimard, and Pascal Rogé. Experienced listeners will already have favorite recordings of the Préludes, Images, Estampes, and Études, as well as the perennially popular Suite bergamasque, Children's Corner, and other picturesque pieces. However, many will be won over by the consistency of Bavouzet's playing, and newcomers will find that his disciplined yet gorgeous readings are a great way to begin appreciating these charming classics. Chandos provides excellent sound that gives the piano a clear presence yet takes nothing away from Bavouzet's atmospheric colors or the radiant acoustics. Highly recommended.

Blair Sanderson, Allmusic.com

Jean-Efflam Bavouzet - Claude Debussy: Complete Works for Piano, Volumes 1-5 (2007-2009) 5CD [Combined Repost]






Jean-Efflam Bavouzet - Claude Debussy: Complete Works for Piano, Volumes 1-5 (2007-2009) 5CD [Combined Repost]

Jean-Efflam Bavouzet - Claude Debussy: Complete Works for Piano, Vol. 1 (2007)
EAC | FLAC | Image (Cue&Log) ~ 180 Mb | Artwork included
Label: Chandos | # CHAN 10421 | 01:19:48

Brilliantly played, charismatically interpreted, and superbly recorded, Jean-Efflam Bavouzet's disc coupling both Debussy's Books of Préludes has everything going for it. The last discovery of Georg Solti and protégé Pierre Boulez, Bavouzet has a huge technique, a variegated tone, and a commanding personality, and he plays these super virtuoso works without missing a note. Some might miss the poetry of Les sons et les parfums tournent dans l'air du soir or the sensuality of La fille aux cheveux de lin, or the mystery of Canope or the whimsy of Hommage à S. Pickwick, Esq. P.P.M.P.C., but no one could complain that Ce qu'a vu le vent d'Ouest isn't breathtaking, La cathédrale engloutie isn't awe-inspiring, Les fées sont d'exquises danseuses isn't enchanting, and Feux d'artifice isn't intoxicating. With the encore of Les soirs illuminés par l'ardeur du charbon – an ephemeral yet effecting work Debussy wrote for the charcoal dealer who kept him warm in frigid winter of 1916-1917 that came to light only in 2001 – Bavouzet's disc becomes a necessary addition to any Debussy collection aspiring to completeness. Recorded in 2006 by Ralph Couzens in Potton Hall in Dunwich, Suffolk, using a Steinway Model D owned by S.E. Foster, these performances sound fresh and sonorous.

James Leonard, Allmusic.com

Tracklist:

Préludes, Book I
01. I. Danseuses de Delphes (2:57)
02. II. Voiles (3:38)
03. III. Le vent dans la plaine (2:00)
04. IV. Les sons et les parfums tournent dans l'air du soir (3:02)
05. V. Les collines d'Anacapri (2:56)
06. VI. Des pas sur la neige (4:22)
07. VII. Ce qu'a vu le Vent d'Ouest (3:17)
08. VIII. La fille aux cheveux de lin (2:26)
09. IX. La serenade interrompue (2:51)
10. X. La Cathedrale engloutie (6:09)
11. XI. La danse de Puck (2:54)
12. XII. Minstrels (2:28)

Préludes, Book II
13. I. Brouillards (3:03)
14. II. Feuilles mortes (3:18)
15. III. La puerta del Vino (3:26)
16. IV. Les fees sont d'exquises danseuses (2:39)
17. V. Bruyeres (2:49)
18. VI. General Lavine - excentric (2:43)
19. VII. La terrasse des audiences du clair de lune (4:46)
20. VIII. Ondine (3:15)
21. IX. Hommage a S. Pickwick Esq. P.P.M.P.C. (2:39)
22. X. Canope (3:00)
23. XI. Les tierces alternees (2:33)
24. XII. Feux d'artifice (4:25)

25. Les soirs illumines par l'ardeur du charbon (2:14)


Exact Audio Copy V1.0 beta 3 from 29. August 2011

EAC extraction logfile from 12. October 2012, 1:03

Jean-Efflam Bavouzet / Debussy - Complete Works for Piano - Vol.1

Used drive : HL-DT-STDVDRAM GSA-4083N Adapter: 1 ID: 0

Read mode : Secure
Utilize accurate stream : Yes
Defeat audio cache : Yes
Make use of C2 pointers : No

Read offset correction : 667
Overread into Lead-In and Lead-Out : No
Fill up missing offset samples with silence : Yes
Delete leading and trailing silent blocks : No
Null samples used in CRC calculations : Yes
Used interface : Native Win32 interface for Win NT & 2000

Used output format : User Defined Encoder
Selected bitrate : 896 kBit/s
Quality : High
Add ID3 tag : No
Command line compressor : C:\Program Files\Exact Audio Copy\Flac\flac.exe
Additional command line options : -V -8 %source%


TOC of the extracted CD

Track | Start | Length | Start sector | End sector
––––––––––––––––––––––––––––-
1 | 0:00.00 | 2:56.48 | 0 | 13247
2 | 2:56.48 | 3:37.68 | 13248 | 29590
3 | 6:34.41 | 2:00.22 | 29591 | 38612
4 | 8:34.63 | 3:01.64 | 38613 | 52251
5 | 11:36.52 | 2:56.08 | 52252 | 65459
6 | 14:32.60 | 4:21.48 | 65460 | 85082
7 | 18:54.33 | 3:16.45 | 85083 | 99827
8 | 22:11.03 | 2:25.64 | 99828 | 110766
9 | 24:36.67 | 2:51.00 | 110767 | 123591
10 | 27:27.67 | 6:08.48 | 123592 | 151239
11 | 33:36.40 | 2:54.28 | 151240 | 164317
12 | 36:30.68 | 2:27.55 | 164318 | 175397
13 | 38:58.48 | 3:02.45 | 175398 | 189092
14 | 42:01.18 | 3:18.20 | 189093 | 203962
15 | 45:19.38 | 3:26.14 | 203963 | 219426
16 | 48:45.52 | 2:39.24 | 219427 | 231375
17 | 51:25.01 | 2:49.03 | 231376 | 244053
18 | 54:14.04 | 2:42.42 | 244054 | 256245
19 | 56:56.46 | 4:45.59 | 256246 | 277679
20 | 61:42.30 | 3:14.51 | 277680 | 292280
21 | 64:57.06 | 2:39.03 | 292281 | 304208
22 | 67:36.09 | 2:59.63 | 304209 | 317696
23 | 70:35.72 | 2:32.43 | 317697 | 329139
24 | 73:08.40 | 4:25.36 | 329140 | 349050
25 | 77:34.01 | 2:13.66 | 349051 | 359091


Range status and errors

Selected range

Filename J:\Music\Debussy - Complete Works for Piano, Vol.1 - Bavouzet\Debussy - Complete Works for Piano - Vol.1.wav

Peak level 75.5 %
Extraction speed 4.3 X
Range quality 100.0 %
Test CRC 9B2BAB30
Copy CRC 9B2BAB30
Copy OK

No errors occurred

End of status report

==== Log checksum F8474085C837AB83DE9771FB915669C6949C3788B25A94613ED1220C7244BA1F ====

[CUETools log; Date: 29.03.2018 18:09:58; Version: 2.1.4]
[CTDB TOCID: BlvdS2B8oy9EoWs_HITQAietuac-] found.
Track | CTDB Status
1 | (68/68) Accurately ripped
2 | (68/68) Accurately ripped
3 | (68/68) Accurately ripped
4 | (68/68) Accurately ripped
5 | (67/68) Accurately ripped
6 | (68/68) Accurately ripped
7 | (68/68) Accurately ripped
8 | (68/68) Accurately ripped
9 | (68/68) Accurately ripped
10 | (67/68) Accurately ripped
11 | (68/68) Accurately ripped
12 | (67/68) Accurately ripped
13 | (67/68) Accurately ripped
14 | (67/68) Accurately ripped
15 | (67/68) Accurately ripped
16 | (67/68) Accurately ripped
17 | (67/68) Accurately ripped
18 | (67/68) Accurately ripped
19 | (68/68) Accurately ripped
20 | (66/68) Accurately ripped
21 | (68/68) Accurately ripped
22 | (67/68) Accurately ripped
23 | (67/68) Accurately ripped
24 | (67/68) Accurately ripped
25 | (68/68) Accurately ripped
[AccurateRip ID: 004773cb-0509dbce-8912b319] found.
Track [ CRC | V2 ] Status
01 [aa0eba5b|8848321a] (29+33/77) Accurately ripped
02 [3e2dc38e|a25c0fe5] (28+33/76) Accurately ripped
03 [1b69bf28|3f012f1e] (29+33/77) Accurately ripped
04 [17defcc9|abc41fc7] (29+32/76) Accurately ripped
05 [9cf8c621|1bf8ea84] (29+32/76) Accurately ripped
06 [b65f5876|1b6d7882] (29+33/77) Accurately ripped
07 [05c987bb|92dc7eb9] (29+33/77) Accurately ripped
08 [cbbc4dec|3a8560f1] (29+33/77) Accurately ripped
09 [09b21a22|8d82de69] (29+33/77) Accurately ripped
10 [a13fa4a1|c1214e5e] (29+33/77) Accurately ripped
11 [cbba2894|980160e6] (29+33/77) Accurately ripped
12 [2ef10009|dde0fa90] (29+33/77) Accurately ripped
13 [4d012fef|bc28ad35] (29+33/77) Accurately ripped
14 [c544c8cf|33322ae9] (29+33/77) Accurately ripped
15 [3b3f1d87|e787f036] (28+33/76) Accurately ripped
16 [9ba1547a|0da5cc56] (28+33/76) Accurately ripped
17 [4e3e759c|fca247a4] (27+33/75) Accurately ripped
18 [7f30cc5c|d7374d08] (29+33/77) Accurately ripped
19 [2679bf43|ee8cfbf8] (28+33/76) Accurately ripped
20 [3c2e1a4d|2fd8a4f6] (29+33/77) Accurately ripped
21 [0da96b22|d12afc0a] (28+33/76) Accurately ripped
22 [0ef452e6|580262ad] (28+33/76) Accurately ripped
23 [a7335ee4|861b508d] (28+32/75) Accurately ripped
24 [59b47a87|ca81cf7c] (29+31/75) Accurately ripped
25 [4f935ff6|24b1732a] (29+32/76) Accurately ripped
Offsetted by -635:
01 [decd6429] (00/77) No match (V2 was not tested)
02 [dccb0c0b] (00/76) No match (V2 was not tested)
03 [85c74772] (00/77) No match (V2 was not tested)
04 [26cb3ac0] (00/76) No match (V2 was not tested)
05 [ec4ddc3a] (00/76) No match (V2 was not tested)
06 [bf00e9e1] (00/77) No match (V2 was not tested)
07 [06e5a53c] (00/77) No match (V2 was not tested)
08 [39e2ef73] (00/77) No match (V2 was not tested)
09 [7886f7cc] (00/77) No match (V2 was not tested)
10 [c94d082a] (00/77) No match (V2 was not tested)
11 [8e11fd0f] (00/77) No match (V2 was not tested)
12 [c0fd56c2] (00/77) No match (V2 was not tested)
13 [1061f6c6] (00/77) No match (V2 was not tested)
14 [af2df58b] (00/77) No match (V2 was not tested)
15 [df062dc6] (00/76) No match (V2 was not tested)
16 [9db6e8f8] (00/76) No match (V2 was not tested)
17 [f5045d00] (00/75) No match (V2 was not tested)
18 [c14cde69] (00/77) No match (V2 was not tested)
19 [e5f39edd] (00/76) No match (V2 was not tested)
20 [47ccb155] (00/77) No match (V2 was not tested)
21 [eee86820] (00/76) No match (V2 was not tested)
22 [951f8574] (00/76) No match (V2 was not tested)
23 [c67ec79b] (00/75) No match (V2 was not tested)
24 [978d121a] (00/75) No match (V2 was not tested)
25 [717ae7ce] (00/76) No match (V2 was not tested)

Track Peak [ CRC32 ] [W/O NULL] [ LOG ]
– 75,5 [9B2BAB30] [B7FB6D35] CRC32
01 36,9 [78E2B61F] [E9EACB11]
02 63,8 [B9AAF414] [5A67EC82]
03 55,7 [25E3EB47] [AD889277]
04 42,4 [7CE34DE4] [0C65B16B]
05 68,4 [06750988] [8EA86E04]
06 11,6 [33D8836C] [7CB8B0EE]
07 75,5 [97C9C717] [BC4A404B]
08 37,2 [39A9F795] [06BD0250]
09 54,0 [4D7DC12E] [6F46D273]
10 73,6 [847CCC3E] [42BE7817]
11 48,9 [7B1B044C] [25165B63]
12 64,2 [07329746] [60F0C6A7]
13 50,0 [8C1AE43B] [792EE4D5]
14 28,2 [AE48A988] [7F74A01E]
15 55,1 [9E5BDAED] [3EB4A159]
16 51,7 [9194D79C] [BF6C7313]
17 34,5 [2E463A7A] [D5CA30F5]
18 51,0 [5D25C771] [2D042894]
19 66,8 [AA8889D9] [BBE81D36]
20 28,5 [327A4171] [FB2B8E8D]
21 63,2 [F08B56DD] [5153B569]
22 17,1 [CE4D4254] [833B67F7]
23 49,6 [7F40FD7A] [E1B14720]
24 68,9 [D9B8D877] [C6BD5658]
25 28,2 [3F36DA2E] [F4DACEB2]

foobar2000 1.2 / Dynamic Range Meter 1.1.1
log date: 2018-04-02 22:55:07

––––––––––––––––––––––––––––––––––––––––
Analyzed: Jean-Efflam Bavouzet / Debussy - Complete Works for Piano - Vol.1
––––––––––––––––––––––––––––––––––––––––

DR Peak RMS Duration Track
––––––––––––––––––––––––––––––––––––––––
DR15 -8.64 dB -29.85 dB 2:57 01-Preludes, Book I - I. Danseuses de Delphes
DR15 -3.90 dB -31.03 dB 3:38 02-Preludes, Book I - II. Voiles
DR14 -5.07 dB -25.64 dB 2:00 03-Preludes, Book I - III. Le vent dans la plaine
DR14 -7.45 dB -29.07 dB 3:02 04-Preludes, Book I - IV. Les sons et les parfums tournent dans l'air du soir
DR13 -3.29 dB -23.78 dB 2:56 05-Preludes, Book I - V. Les collines d'Anacapri
DR15 -18.64 dB -39.20 dB 4:22 06-Preludes, Book I - VI. Des pas sur la neige
DR12 -2.44 dB -19.80 dB 3:17 07-Preludes, Book I - VII. Ce qu'a vu le Vent d'Ouest
DR13 -8.58 dB -32.06 dB 2:26 08-Preludes, Book I - VIII. La fille aux cheveux de lin
DR15 -5.35 dB -26.62 dB 2:51 09-Preludes, Book I - IX. La serenade interrompue
DR14 -2.66 dB -24.94 dB 6:09 10-Preludes, Book I - X. La Cathedrale engloutie
DR14 -6.20 dB -25.97 dB 2:54 11-Preludes, Book I - XI. La danse de Puck
DR14 -3.84 dB -23.87 dB 2:28 12-Preludes, Book I - XII. Minstrels
DR17 -6.01 dB -31.09 dB 3:03 13-Preludes, Book II - I. Brouillards
DR15 -10.98 dB -33.35 dB 3:18 14-Preludes, Book II - II. Feuilles mortes
DR14 -5.17 dB -26.46 dB 3:26 15-Preludes, Book II - III. La puerta del Vino
DR14 -5.73 dB -26.16 dB 2:39 16-Preludes, Book II - IV. Les fees sont d'exquises danseuses
DR14 -9.24 dB -30.16 dB 2:49 17-Preludes, Book II - V. Bruyeres
DR13 -5.85 dB -24.69 dB 2:43 18-Preludes, Book II - VI. General Lavine - excentric
DR17 -3.50 dB -29.98 dB 4:46 19-Preludes, Book II - VII. La terrasse des audiences du clair de lune
DR13 -10.88 dB -28.97 dB 3:15 20-Preludes, Book II - VIII. Ondine
DR13 -3.98 dB -23.97 dB 2:39 21-Preludes, Book II - IX. Hommage a S. Pickwick Esq. P.P.M.P.C.
DR14 -15.30 dB -35.48 dB 3:00 22-Preludes, Book II - X. Canope
DR14 -6.07 dB -25.64 dB 2:33 23-Preludes, Book II - XI. Les tierces alternees
DR14 -3.23 dB -22.96 dB 4:25 24-Preludes, Book II - XII. Feux d'artifice
DR13 -10.97 dB -33.48 dB 2:14 25-Les soirs illumines par l'ardeur du charbon
––––––––––––––––––––––––––––––––––––––––

Number of tracks: 25
Official DR value: DR14

Samplerate: 44100 Hz
Channels: 2
Bits per sample: 16
Bitrate: 309 kbps
Codec: FLAC
================================================================================




Jean-Efflam Bavouzet - Claude Debussy: Complete Works for Piano, Volumes 1-5 (2007-2009) 5CD [Combined Repost]

Jean-Efflam Bavouzet - Claude Debussy: Complete Works for Piano, Vol. 2 (2007)
EAC | FLAC | Image (Cue&Log) ~ 171 Mb | Artwork included
Label: Chandos | # CHAN 10443 | 01:05:53

This second volume of Jean-Efflam Bavouzet’s Debussy cycle reveals the intelligence of his programming. A trio of three-movement works is at its heart, but the disc opens and closes with two further triptychs, pseudo-cycles of contemporaneous pieces usually heard in isolation. Bavouzet’s strengths are also to the fore, with glowing colours in the opening Ballade and Valse romantique, followed by sparkling elegance in the Danse. For once the benchmark artist, Walter Gieseking (EMI), is merely brilliant rather than at his peerless best in the Estampes and Pour le piano. By contrast, his slightly detached, yet sustained touch in the ‘Sarabande’ from the latter leaves recent pianists sounding about as refined as cold porridge. Bavouzet crashes into the opening ‘Prelude’ with breathless excitement, but takes Debussy’s indication to slow down a little while easing into the main theme as a cue to slam on the brakes. It certainly grabs the attention, but Bavouzet never quite regains the adrenalin-pumping promise of the opening few bars; the momentum is dissipated, and there is little forward direction as the music bubbles upwards. Similarly, the outer movements of Estampes are exquisitely judged, but drizzle from ‘Jardins sous la pluie’ seems to have been blown into the central ‘La soirée dans Grenade…’. Noriko Ogawa (BIS) takes much longer, but her guitarists have real fire. Despite these caveats, and while Ogawa also takes the palm in the Images (oubliées), Bavouzet has numerous worthwhile insights. This cycle may yet prove to be greater than the sum of its individual parts.

Christopher Dingle, BBC Music Magazine

Tracklist:

01. Ballade (Ballade slave) (6:17)
02. Valse romantique (3:20)
03. Danse (Tarentelle styrienne) (4:45)

Images (oubliées)
04. I. Lent (melancolique et doux) (3:55)
05. II. Dans le mouvement d'une 'Sarabande', c'est-à-dire avec une élégance grâve et lente, même un peu vieux portrait, souvenir du Louvre, etc. (4:14)
06. III. Quelques aspects de 'Nous n'irons plus au bois' parce qu'il fait un temps insupportable. Très vite - Modéré - Premier Mouvement (vif et joyeux) (3:49)

Estampes
07. I. Pagodes. Moderement anime (4:57)
08. II. La soiree dans grenade… Mouvement de habanera (4:53)
09. III. Jardins sous la pluie. Net et vif (3:26)

Pour le piano
10. I. Prelude. A mademoiselle M.W. de Romilly. Assez animé et très rythmé - Tempo di cadenza - Tempo I (4:06)
11. II. Sarabande. A madame E. Rouart (Nee Y. Lerolle) (4:12)
12. III. Toccata. A N.G. Coronio. Vif (3:39)

13. Masques (4:18)
14. L'lsle joyeuse (5:34)
15. …D'un cahier d'esquisses (4:28)


Exact Audio Copy V1.0 beta 3 from 29. August 2011

EAC extraction logfile from 6. October 2012, 20:03

Jean-Efflam Bavouzet / Debussy - Complete Works for Piano - Vol.2

Used drive : HL-DT-STDVDRAM GSA-4083N Adapter: 1 ID: 0

Read mode : Secure
Utilize accurate stream : Yes
Defeat audio cache : Yes
Make use of C2 pointers : No

Read offset correction : 667
Overread into Lead-In and Lead-Out : No
Fill up missing offset samples with silence : Yes
Delete leading and trailing silent blocks : No
Null samples used in CRC calculations : Yes
Used interface : Native Win32 interface for Win NT & 2000

Used output format : User Defined Encoder
Selected bitrate : 896 kBit/s
Quality : High
Add ID3 tag : No
Command line compressor : C:\Program Files\Exact Audio Copy\Flac\flac.exe
Additional command line options : -V -8 %source%


TOC of the extracted CD

Track | Start | Length | Start sector | End sector
––––––––––––––––––––––––––––-
1 | 0:00.00 | 6:16.68 | 0 | 28267
2 | 6:16.68 | 3:19.62 | 28268 | 43254
3 | 9:36.55 | 4:45.14 | 43255 | 64643
4 | 14:21.69 | 3:55.09 | 64644 | 82277
5 | 18:17.03 | 4:14.25 | 82278 | 101352
6 | 22:31.28 | 3:48.59 | 101353 | 118511
7 | 26:20.12 | 4:56.64 | 118512 | 140775
8 | 31:17.01 | 4:53.23 | 140776 | 162773
9 | 36:10.24 | 3:25.70 | 162774 | 178218
10 | 39:36.19 | 4:06.07 | 178219 | 196675
11 | 43:42.26 | 4:12.07 | 196676 | 215582
12 | 47:54.33 | 3:38.42 | 215583 | 231974
13 | 51:33.00 | 4:17.44 | 231975 | 251293
14 | 55:50.44 | 5:34.23 | 251294 | 276366
15 | 61:24.67 | 4:27.70 | 276367 | 296461


Range status and errors

Selected range

Filename J:\Music\Debussy - Complete Works for Piano, Vol.2 - Bavouzet\Debussy - Complete Works for Piano - Vol.2.wav

Peak level 77.9 %
Extraction speed 4.3 X
Range quality 99.9 %
Test CRC C560A32B
Copy CRC C560A32B
Copy OK

No errors occurred

End of status report

==== Log checksum 2BA8663D0FCE499C9B1D78EC3CBC4840262A671686708D72F4B11E367CEFC7D4 ====

[CUETools log; Date: 02.04.2018 22:49:15; Version: 2.1.4]
[CTDB TOCID: ho_6PRtvXiqH5r_Q9JwPs_OqLKg-] found.
Track | CTDB Status
1 | (69/69) Accurately ripped
2 | (69/69) Accurately ripped
3 | (69/69) Accurately ripped
4 | (69/69) Accurately ripped
5 | (69/69) Accurately ripped
6 | (69/69) Accurately ripped
7 | (69/69) Accurately ripped
8 | (67/69) Accurately ripped
9 | (69/69) Accurately ripped
10 | (69/69) Accurately ripped
11 | (69/69) Accurately ripped
12 | (66/69) Accurately ripped
13 | (69/69) Accurately ripped
14 | (69/69) Accurately ripped
15 | (69/69) Accurately ripped
[AccurateRip ID: 002471d4-01998d86-fb0f700f] found.
Track [ CRC | V2 ] Status
01 [eb151c3a|b307d01c] (31+29/79) Accurately ripped
02 [e3459138|3b9546ad] (30+29/78) Accurately ripped
03 [e2cb206b|3c752176] (32+29/80) Accurately ripped
04 [64511faa|31f19795] (32+29/80) Accurately ripped
05 [9075b22c|7785c1fb] (31+29/79) Accurately ripped
06 [85abedb9|2fe80817] (32+29/80) Accurately ripped
07 [a5b1c8f5|dbb85a3d] (31+29/79) Accurately ripped
08 [e136e456|21973877] (31+29/79) Accurately ripped
09 [51dd93f1|0f0fcc30] (31+28/78) Accurately ripped
10 [86323928|de871c17] (31+29/79) Accurately ripped
11 [c8c2b3d1|1937d2cf] (30+29/78) Accurately ripped
12 [8446e05c|f8ed6d51] (31+29/79) Accurately ripped
13 [2e8e3eba|62b09659] (31+29/79) Accurately ripped
14 [077d5867|9a3bae42] (31+29/79) Accurately ripped
15 [e559f576|887719c9] (31+29/79) Accurately ripped
Offsetted by -635:
01 [8f12f01b] (02/79) Accurately ripped
02 [200a125f] (02/78) Accurately ripped
03 [c1a80e4e] (02/80) Accurately ripped
04 [a7ada5da] (02/80) Accurately ripped
05 [409967c9] (02/79) Accurately ripped
06 [85045182] (02/80) Accurately ripped
07 [b32daeaf] (02/79) Accurately ripped
08 [e1e27ffd] (02/79) Accurately ripped
09 [399964d6] (02/78) Accurately ripped
10 [160e851b] (02/79) Accurately ripped
11 [f9668c56] (02/78) Accurately ripped
12 [f998c7b6] (02/79) Accurately ripped
13 [7a69af8f] (02/79) Accurately ripped
14 [3ea7d809] (02/79) Accurately ripped
15 [fdf9d0ca] (02/79) Accurately ripped

Track Peak [ CRC32 ] [W/O NULL] [ LOG ]
– 77,9 [C560A32B] [ECA0050C] CRC32
01 46,1 [E0EF6830] [0219334C]
02 77,9 [9D1AB23D] [BD57BC57]
03 70,7 [1B8210C7] [404983A7]
04 53,8 [B3D707DC] [2DBA6180]
05 62,3 [EB1A6073] [596BF9FB]
06 62,7 [78541609] [E78E76EB]
07 62,9 [7B4DA82D] [FC3E5D9F]
08 61,8 [3D70C08F] [3A68F238]
09 64,9 [B8553DFA] [EB1A6E78]
10 74,4 [385539C1] [5ACCC507]
11 62,5 [019C4FB9] [E50FBED7]
12 68,0 [BF2EFB20] [8C9371B3]
13 73,4 [AC9FFB8C] [84B2D46A]
14 71,1 [BEE31FE0] [B980F610]
15 42,8 [5D47D694] [395E6751]

foobar2000 1.2 / Dynamic Range Meter 1.1.1
log date: 2018-04-02 22:55:29

––––––––––––––––––––––––––––––––––––––––
Analyzed: Jean-Efflam Bavouzet / Debussy - Complete Works for Piano - Vol.2
––––––––––––––––––––––––––––––––––––––––

DR Peak RMS Duration Track
––––––––––––––––––––––––––––––––––––––––
DR14 -6.71 dB -27.60 dB 6:17 01-Ballade (Ballade slave)
DR14 -2.16 dB -24.25 dB 3:20 02-Valse romantique
DR13 -3.01 dB -22.00 dB 4:45 03-Danse (Tarentelle styrienne)
DR14 -5.38 dB -27.19 dB 3:55 04-Images (oubliees) - I. Lent (melancolique et doux)
DR14 -4.11 dB -25.36 dB 4:14 05-Images (oubliees) - II. Dans le mouvement d'une 'Sarabande', c'est-a-dire ave…
DR13 -4.05 dB -22.66 dB 3:49 06-Images (oubliees) - III. Quelques aspects de 'Nous n'irons plus au bois' parc…
DR14 -4.02 dB -25.30 dB 4:57 07-Estampes - I. Pagodes. Moderement anime
DR14 -4.18 dB -25.50 dB 4:53 08-Estampes - II. La soiree dans grenade… Mouvement de habanera
DR13 -3.75 dB -22.31 dB 3:26 09-Estampes - III. Jardins sous la pluie. Net et vif
DR13 -2.56 dB -21.54 dB 4:06 10-Pour le piano - I. Prelude. A mademoiselle M.W. de Romilly…
DR15 -4.07 dB -26.37 dB 4:12 11-Pour le piano - II. Sarabande. A madame E. Rouart (Nee Y. Lerolle)
DR13 -3.35 dB -21.66 dB 3:39 12-Pour le piano - III. Toccata. A N.G. Coronio. Vif
DR12 -2.68 dB -21.79 dB 4:18 13-Masques
DR13 -2.95 dB -21.47 dB 5:34 14-L'lsle joyeuse
DR16 -7.36 dB -30.42 dB 4:28 15-…D'un cahier d'esquisses
––––––––––––––––––––––––––––––––––––––––

Number of tracks: 15
Official DR value: DR14

Samplerate: 44100 Hz
Channels: 2
Bits per sample: 16
Bitrate: 356 kbps
Codec: FLAC
================================================================================




Jean-Efflam Bavouzet - Claude Debussy: Complete Works for Piano, Volumes 1-5 (2007-2009) 5CD [Combined Repost]

Jean-Efflam Bavouzet - Claude Debussy: Complete Works for Piano, Vol. 3 (2008)
EAC | FLAC | Image (Cue&Log) ~ 195 Mb | Artwork included
Label: Chandos | # CHAN 10467 | 01:11:55

Another winner in Jean-Efflam Bavouzet's survey of Debussy's complete piano music for Chandos, Vol. 3 brings together sentimental favorites and nearly unknown works. On the one hand, there are Clair de Lune, Réverie, and Children's Corner, on the other, the extremely early (the composer was 18) Danse bohémienne and the extremely late (the composer died three years afterwards) Élégie. Perhaps surprisingly to those who recall his brilliantly austere Images from Vol. 1 and his blazingly virtuosic Préludes from Vol. 2, Bavouzet's interpretations of the sentimental favorites are lush-toned and warmhearted, with wonderfully sustained legato and tastefully discrete use of the sustaining pedal. Unsurprisingly, however, Bavouzet is totally under the skin of Debussy's music. His Children's Corner balances wry wit with deep affection, and his La plus que lente waltz balances dry irony and profound emotion. Though there are certainly other great recordings of Debussy's piano music from Gieseking through Rogé, Bavouzet's recordings surely belong in that company. Chandos' piano sound is rich and ringing, with plenty of detail and amazing presence.

James Leonard, Allmusic.com

Tracklist:

01. Nocturne (1892) (5:43)

Suite bergamasque (1890/1905)
02. Prelude (3:44)
03. Menuet (4:06)
04. Clair de Lune (4:50)
05. Passepied (3:43)

06. Danse bohemienne (1880) (2:03)

Deux Arabesques (1890–91)
07. Premiere Arabesque (4:04)
08. Deuxieme Arabesque (3:14)

09. Reverie (c. 1890) (4:23)

10. Mazurka (c. 1890) (3:02)

Children’s Corner (1906–08)
11. I Doctor Gradus ad Parnassum (2:06)
12. II Jumbo’s Lullaby (3:08)
13. III Serenade for the Doll (2:25)
14. IV The snow is dancing (2:30)
15. V The little Shepherd (2:23)
16. VI Golliwogg’s cake walk (3:11)

17. Hommage a Haydn (1909) (2:26)

18. Morceau de Concours (1904) (0:59)

19. La plus que lente (1910) (4:41)

20. The little Nigar (1909) (1:14)

21. Page d’Album (1915) (1:09)

22. Berceuse heroique (1914) (4:19)

23. Elegie (1915) (2:31)


Exact Audio Copy V1.0 beta 3 from 29. August 2011

EAC extraction logfile from 18. December 2011, 10:53

Jean-Efflam Bavouzet / Debussy - Complete Works for Piano - Vol.3

Used drive : HL-DT-STDVDRAM GSA-4083N Adapter: 1 ID: 0

Read mode : Secure
Utilize accurate stream : Yes
Defeat audio cache : Yes
Make use of C2 pointers : No

Read offset correction : 667
Overread into Lead-In and Lead-Out : No
Fill up missing offset samples with silence : Yes
Delete leading and trailing silent blocks : No
Null samples used in CRC calculations : Yes
Used interface : Native Win32 interface for Win NT & 2000

Used output format : User Defined Encoder
Selected bitrate : 896 kBit/s
Quality : High
Add ID3 tag : No
Command line compressor : C:\Program Files\Exact Audio Copy\Flac\flac.exe
Additional command line options : -V -8 %source%


TOC of the extracted CD

Track | Start | Length | Start sector | End sector
––––––––––––––––––––––––––––-
1 | 0:00.00 | 5:43.09 | 0 | 25733
2 | 5:43.09 | 3:44.11 | 25734 | 42544
3 | 9:27.20 | 4:06.20 | 42545 | 61014
4 | 13:33.40 | 4:50.05 | 61015 | 82769
5 | 18:23.45 | 3:43.26 | 82770 | 99520
6 | 22:06.71 | 2:03.34 | 99521 | 108779
7 | 24:10.30 | 4:04.08 | 108780 | 127087
8 | 28:14.38 | 3:13.49 | 127088 | 141611
9 | 31:28.12 | 4:22.44 | 141612 | 161305
10 | 35:50.56 | 3:02.04 | 161306 | 174959
11 | 38:52.60 | 2:06.13 | 174960 | 184422
12 | 40:58.73 | 3:08.32 | 184423 | 198554
13 | 44:07.30 | 2:24.54 | 198555 | 209408
14 | 46:32.09 | 2:29.52 | 209409 | 220635
15 | 49:01.61 | 2:23.24 | 220636 | 231384
16 | 51:25.10 | 3:11.35 | 231385 | 245744
17 | 54:36.45 | 2:26.24 | 245745 | 256718
18 | 57:02.69 | 0:58.42 | 256719 | 261110
19 | 58:01.36 | 4:40.53 | 261111 | 282163
20 | 62:42.14 | 1:14.19 | 282164 | 287732
21 | 63:56.33 | 1:09.29 | 287733 | 292936
22 | 65:05.62 | 4:18.56 | 292937 | 312342
23 | 69:24.43 | 2:30.70 | 312343 | 323662


Range status and errors

Selected range

Filename J:\Music\Debussy - Complete Works for Piano, Vol.3 - Bavouzet\Debussy - Complete Works for Piano - Vol 3.wav

Peak level 90.7 %
Extraction speed 4.2 X
Range quality 99.9 %
Test CRC F8427E68
Copy CRC F8427E68
Copy OK

No errors occurred

End of status report

==== Log checksum 28416A66791203A917D1B068AF7895607DF7CD7929782CB176411DF4019B6408 ====

[CUETools log; Date: 02.04.2018 22:49:33; Version: 2.1.4]
[CTDB TOCID: eC.lLAgyGNmBFP7bEWKieDfY0bk-] found.
Track | CTDB Status
1 | (94/94) Accurately ripped
2 | (94/94) Accurately ripped
3 | (94/94) Accurately ripped
4 | (94/94) Accurately ripped
5 | (94/94) Accurately ripped
6 | (94/94) Accurately ripped
7 | (94/94) Accurately ripped
8 | (94/94) Accurately ripped
9 | (94/94) Accurately ripped
10 | (94/94) Accurately ripped
11 | (94/94) Accurately ripped
12 | (94/94) Accurately ripped
13 | (93/94) Accurately ripped
14 | (94/94) Accurately ripped
15 | (93/94) Accurately ripped
16 | (94/94) Accurately ripped
17 | (94/94) Accurately ripped
18 | (94/94) Accurately ripped
19 | (94/94) Accurately ripped
20 | (94/94) Accurately ripped
21 | (94/94) Accurately ripped
22 | (94/94) Accurately ripped
23 | (93/94) Accurately ripped
[AccurateRip ID: 00421a7a-04261271-6c10db17] found.
Track [ CRC | V2 ] Status
01 [7c20f611|f0cc73a8] (30+50/80) Accurately ripped
02 [0e980c50|cfc5e74c] (30+51/81) Accurately ripped
03 [5bfd0868|858b8553] (30+51/81) Accurately ripped
04 [8d6aa0bf|965d79f6] (30+52/82) Accurately ripped
05 [99019531|ba31fff7] (30+51/81) Accurately ripped
06 [f13a3c02|28f0e270] (30+50/80) Accurately ripped
07 [94b0e199|2bd0b725] (30+51/81) Accurately ripped
08 [4d348827|616913e0] (30+51/81) Accurately ripped
09 [d007238b|13889c5f] (30+51/81) Accurately ripped
10 [468a9dce|35b970a1] (30+50/80) Accurately ripped
11 [0b9d1deb|b91081e2] (30+52/82) Accurately ripped
12 [04403d3c|7bafff7a] (30+52/82) Accurately ripped
13 [c0945689|2418c4b1] (30+52/82) Accurately ripped
14 [e471775d|14fad2f9] (30+52/82) Accurately ripped
15 [218d66ea|9eda9395] (30+52/82) Accurately ripped
16 [f8d46b72|0854ae17] (30+51/81) Accurately ripped
17 [6aa7a9a8|8c601fca] (30+51/81) Accurately ripped
18 [7701c9ce|08947c20] (30+49/79) Accurately ripped
19 [ee552127|8babc130] (30+51/81) Accurately ripped
20 [eb5f7e4c|4faa6f95] (30+50/80) Accurately ripped
21 [920eff47|aa037077] (30+50/80) Accurately ripped
22 [a92f2825|bf5378bd] (30+50/80) Accurately ripped
23 [0942a6dd|62043f80] (29+50/79) Accurately ripped

Track Peak [ CRC32 ] [W/O NULL] [ LOG ]
– 90,7 [F8427E68] [F6AFDB1A] CRC32
01 51,6 [F65DC11E] [D12B03F5]
02 69,3 [CC2C5537] [830EA7F6]
03 44,5 [F34DCF2E] [5F0A3028]
04 30,0 [F2036BAF] [192A3A45]
05 44,8 [EA3CED6B] [2CD87C8D]
06 55,5 [294554CC] [FD77B521]
07 40,8 [3633F22D] [F421D7E0]
08 71,8 [4D6A939C] [2C1ECD8A]
09 23,2 [62601230] [526E18D0]
10 74,8 [41677042] [6C21D9FB]
11 70,0 [14D12FC4] [9B583B96]
12 21,8 [D74D07F6] [71CE0C8F]
13 52,2 [466DD8D0] [919A398C]
14 52,8 [E423F784] [09BE94BD]
15 33,9 [66CCE20E] [82FDA586]
16 66,8 [DE1234A0] [0CAB14A0]
17 73,7 [EB503EC4] [9CDD6300]
18 90,7 [BD85B0BF] [9DE86CBA]
19 59,6 [D19826F7] [C6BCA49C]
20 64,1 [5C9F28E9] [C7ACA038]
21 26,9 [10FDA5CD] [C55A2547]
22 63,2 [662CD15F] [7A708A81]
23 21,4 [BEF3ADD2] [D42D95BA]

foobar2000 1.2 / Dynamic Range Meter 1.1.1
log date: 2018-04-02 22:55:53

––––––––––––––––––––––––––––––––––––––––
Analyzed: Jean-Efflam Bavouzet / Debussy - Complete Works for Piano - Vol.3
––––––––––––––––––––––––––––––––––––––––

DR Peak RMS Duration Track
––––––––––––––––––––––––––––––––––––––––
DR14 -5.73 dB -26.27 dB 5:43 01-Nocturne (1892)
DR15 -3.18 dB -23.07 dB 3:44 02-Suite bergamasque (1890/1905) - Prelude
DR12 -7.02 dB -24.47 dB 4:06 03-Suite bergamasque (1890/1905) - Menuet
DR14 -10.45 dB -30.53 dB 4:50 04-Suite bergamasque (1890/1905) - Clair de Lune
DR14 -6.96 dB -26.58 dB 3:43 05-Suite bergamasque (1890/1905) - Passepied
DR14 -5.11 dB -23.83 dB 2:03 06-Danse bohemienne (1880)
DR12 -7.78 dB -27.64 dB 4:04 07-Deux Arabesques (1890–91) - Premiere Arabesque
DR15 -2.87 dB -24.04 dB 3:14 08-Deux Arabesques (1890–91) - Deuxieme Arabesque
DR14 -12.68 dB -32.28 dB 4:23 09-Reverie (c. 1890)
DR14 -2.51 dB -25.15 dB 3:02 10-Mazurka (c. 1890)
DR13 -3.09 dB -23.37 dB 2:06 11-Children’s Corner (1906–08) - I Doctor Gradus ad Parnassum
DR12 -13.21 dB -33.11 dB 3:08 12-Children’s Corner (1906–08) - II Jumbo’s Lullaby
DR16 -5.64 dB -28.06 dB 2:25 13-Children’s Corner (1906–08) - III Serenade for the Doll
DR15 -5.54 dB -27.71 dB 2:30 14-Children’s Corner (1906–08) - IV The snow is dancing
DR15 -9.37 dB -32.91 dB 2:23 15-Children’s Corner (1906–08) - V The little Shepherd
DR15 -3.50 dB -24.56 dB 3:11 16-Children’s Corner (1906–08) - VI Golliwogg’s cake walk
DR15 -2.64 dB -25.36 dB 2:26 17-Hommage a Haydn (1909)
DR13 -0.84 dB -20.68 dB 0:59 18-Morceau de Concours (1904)
DR14 -4.49 dB -26.02 dB 4:41 19-La plus que lente (1910)
DR13 -3.86 dB -23.93 dB 1:14 20-The little Nigar (1909)
DR11 -11.38 dB -30.13 dB 1:09 21-Page d’Album (1915)
DR16 -3.98 dB -29.75 dB 4:19 22-Berceuse heroique (1914)
DR14 -13.37 dB -36.66 dB 2:31 23-Elegie (1915)
––––––––––––––––––––––––––––––––––––––––

Number of tracks: 23
Official DR value: DR14

Samplerate: 44100 Hz
Channels: 2
Bits per sample: 16
Bitrate: 375 kbps
Codec: FLAC
================================================================================




Jean-Efflam Bavouzet - Claude Debussy: Complete Works for Piano, Volumes 1-5 (2007-2009) 5CD [Combined Repost]

Jean-Efflam Bavouzet - Claude Debussy: Complete Works for Piano, Vol. 4 (2008)
EAC | FLAC | Image (Cue&Log) ~ 211 Mb | Artwork included
Label: Chandos | # CHAN 10497 | 01:16:33

Best Instrumental Recording 2009 Gramophone magazine Award

Jean-Efflam Bavouzet's four-disc survey of Debussy's complete piano music may well be among the finest ever recorded, fit to stand with Gieseking and Rogé. Here in the fourth and final volume, Bavouzet completes his survey with both series of Images and both books of Études. The former are among the French Impressionist's most richly evocative works while the latter are among the French proto-Modernist's most recklessly virtuosic works, and Bavouzet gives every work the performance it deserves. In the Images, his nuanced tone, blended sonorities, and intense intimacy reach to the music's expressive heart. In the Études, his clear tone, brazen sonorities and astounding technique find the music's intellectual core. But whatever the music, Bavouzet is always himself. Just to take two small examples, the way he treats the accents in "Mouvement" from the First Series of Images and in the Pour les 'cinq doigts' from Book 1 of the Études is wholly his own, the former closer to détaché than staccato, the later closer to staccato than sforzando. And yet Bavouzet is always faithful to the music. No matter how fresh and natural his interpretation, his fidelity to the score is absolute. Recorded in crystalline and atmospheric digital sound, this disc concludes a series that every Debussy aficionado should pay close attention to.

James Leonard, Allmusic.com

Tracklist:

Images, First Series
01. Reflets dans l'eau. Andantino molto (Tempo rubato) - (5:05)
02. Hommage a Rameau. Lent et grave (dans le style d'une Sarabande, mais sans rigueur) - (6:09)
03. Mouvement. Anime (avec une legerete fantasque, mais precise) - (3:17)

Images, Second Series
04. Cloches a travers les feuilles. A Alexandre Charpentier. Lent - (4:24)
05. Et la lune descend sur le temple qui fut. A Louis Laloy. Lent - Retenu (4:54)
06. Poissons d'or. A Ricardo Vines. Anime - (3:42)

Etudes, Book 1
07. I - pour les 'cinq doigts': d'apres Monsieur Czerny. Sagement - (3:06)
08. II - pour les Tierces. Moderato, ma non troppo - (3:40)
09. III - pour les Quartes. Andantino con moto - (4:55)
10. IV - pour les Sixtes. Lento - Animando poco a poco - (4:01)
11. V - pour les Octaves. Joyeus et emporte, librement rythme - (2:43)
12. VI - pour les huits doigts. Vivamente, molto leggiero e leggiero e legato - (1:39)

Etudes, Book 2
13. VII - pour les degres chromatiques. Scherzando, animato assai - (2:11)
14. VIII - pour les agrements. Lento, rubato e leggiero - Stretto - (5:03)
15. IX - pour les notes repetees. Scherzando - Poco rubato - (3:06)
16. X - pour les Sonorites opposees. Moderere, sans lenteur - (5:42)
17. Etudes retrouvee. A first version of Etude XI '- pour les Arpeges composes' (3:56)
18. XI - pour les Arpeges composes. [ ] - Lumineux - (4:28)
19. XII - pour les accords. Decide, rythme, sans lourdeur - Poco allargando - (4:35)


Exact Audio Copy V1.0 beta 3 from 29. August 2011

EAC extraction logfile from 7. January 2012, 19:21

Jean-Efflam Bavouzet / Debussy - Complete Works for Piano - Vol.4

Used drive : HL-DT-STDVDRAM GSA-4083N Adapter: 1 ID: 0

Read mode : Secure
Utilize accurate stream : Yes
Defeat audio cache : Yes
Make use of C2 pointers : No

Read offset correction : 667
Overread into Lead-In and Lead-Out : No
Fill up missing offset samples with silence : Yes
Delete leading and trailing silent blocks : No
Null samples used in CRC calculations : Yes
Used interface : Native Win32 interface for Win NT & 2000

Used output format : User Defined Encoder
Selected bitrate : 896 kBit/s
Quality : High
Add ID3 tag : No
Command line compressor : C:\Program Files\Exact Audio Copy\Flac\flac.exe
Additional command line options : -V -8 %source%


TOC of the extracted CD

Track | Start | Length | Start sector | End sector
––––––––––––––––––––––––––––-
1 | 0:00.00 | 5:04.71 | 0 | 22870
2 | 5:04.71 | 6:08.51 | 22871 | 50521
3 | 11:13.47 | 3:17.13 | 50522 | 65309
4 | 14:30.60 | 4:23.46 | 65310 | 85080
5 | 18:54.31 | 4:53.60 | 85081 | 107115
6 | 23:48.16 | 3:41.55 | 107116 | 123745
7 | 27:29.71 | 3:06.01 | 123746 | 137696
8 | 30:35.72 | 3:39.42 | 137697 | 154163
9 | 34:15.39 | 4:54.71 | 154164 | 176284
10 | 39:10.35 | 4:00.50 | 176285 | 194334
11 | 43:11.10 | 2:43.31 | 194335 | 206590
12 | 45:54.41 | 1:38.53 | 206591 | 213993
13 | 47:33.19 | 2:10.48 | 213994 | 223791
14 | 49:43.67 | 5:03.33 | 223792 | 246549
15 | 54:47.25 | 3:05.41 | 246550 | 260465
16 | 57:52.66 | 5:41.43 | 260466 | 286083
17 | 63:34.34 | 3:55.65 | 286084 | 303773
18 | 67:30.24 | 4:27.64 | 303774 | 323862
19 | 71:58.13 | 4:35.04 | 323863 | 344491


Range status and errors

Selected range

Filename F:\Music\Debussy - Complete Works for Piano, Vol.4 - Bavouzet\Debussy - Complete Works for Piano - Vol.4.wav

Peak level 95.3 %
Extraction speed 4.0 X
Range quality 99.9 %
Test CRC 3B819B5B
Copy CRC 3B819B5B
Copy OK

No errors occurred

End of status report

==== Log checksum B22C8016D4CDAD309EF28BE7205D4CD917D36C74309C1F397A6E859E4CA9A556 ====

[CUETools log; Date: 02.04.2018 22:49:53; Version: 2.1.4]
[CTDB TOCID: 9DicvhlrvPpL2xlc79ViCv5Hx1A-] found.
Track | CTDB Status
1 | (67/67) Accurately ripped
2 | (67/67) Accurately ripped
3 | (67/67) Accurately ripped
4 | (67/67) Accurately ripped
5 | (67/67) Accurately ripped
6 | (67/67) Accurately ripped
7 | (67/67) Accurately ripped
8 | (67/67) Accurately ripped
9 | (67/67) Accurately ripped
10 | (67/67) Accurately ripped
11 | (67/67) Accurately ripped
12 | (67/67) Accurately ripped
13 | (67/67) Accurately ripped
14 | (67/67) Accurately ripped
15 | (67/67) Accurately ripped
16 | (67/67) Accurately ripped
17 | (67/67) Accurately ripped
18 | (67/67) Accurately ripped
19 | (66/67) Accurately ripped
[AccurateRip ID: 0035d04d-02e2c860-1d11f113] found.
Track [ CRC | V2 ] Status
01 [fd2ed17e|9b81227d] (16+32/75) Accurately ripped
02 [feb5e888|cb7741d6] (17+32/75) Accurately ripped
03 [ab72b125|c9ed94e9] (17+32/76) Accurately ripped
04 [6cdbee96|23424a3f] (16+32/75) Accurately ripped
05 [3603548f|f5a54484] (16+32/75) Accurately ripped
06 [22aa07ae|52066790] (16+32/74) Accurately ripped
07 [6e229635|14fbb4f7] (16+32/74) Accurately ripped
08 [5ec9d881|f9f30008] (16+32/74) Accurately ripped
09 [16bdd722|32b32e31] (16+32/72) Accurately ripped
10 [822fa594|c9b8a9a3] (16+32/74) Accurately ripped
11 [85e55b66|fc6f9eb6] (16+32/73) Accurately ripped
12 [b36b16ee|707efc6a] (16+32/74) Accurately ripped
13 [d16014d0|3a9ad839] (16+32/74) Accurately ripped
14 [696e01c3|f038d46f] (16+32/73) Accurately ripped
15 [eb9edce6|9292df31] (16+31/73) Accurately ripped
16 [ebcb7cfd|23e980b6] (15+31/71) Accurately ripped
17 [15abc054|486a694f] (16+32/73) Accurately ripped
18 [e8122b50|66d2efb8] (16+32/74) Accurately ripped
19 [f50d3270|f5f5d938] (16+31/72) Accurately ripped
Offsetted by -599:
01 [9a262544] (12/75) Accurately ripped
02 [78174db9] (11/75) Accurately ripped
03 [3c5232eb] (12/76) Accurately ripped
04 [12b764c3] (12/75) Accurately ripped
05 [76a80241] (12/75) Accurately ripped
06 [e320cf8b] (11/74) Accurately ripped
07 [2506e035] (11/74) Accurately ripped
08 [ab35e0a7] (11/74) Accurately ripped
09 [2bc618cd] (09/72) Accurately ripped
10 [0a313a24] (11/74) Accurately ripped
11 [3da4bc98] (10/73) Accurately ripped
12 [97fbc001] (11/74) Accurately ripped
13 [351cce6c] (11/74) Accurately ripped
14 [cfef6b78] (10/73) Accurately ripped
15 [210e496c] (11/73) Accurately ripped
16 [4cc51992] (10/71) Accurately ripped
17 [9d5872ef] (10/73) Accurately ripped
18 [d8c5341f] (11/74) Accurately ripped
19 [edba7636] (10/72) Accurately ripped

Track Peak [ CRC32 ] [W/O NULL] [ LOG ]
– 95,3 [3B819B5B] [A4899891] CRC32
01 65,2 [783111A6] [202BD89C]
02 67,7 [EE96C476] [101BAA06]
03 77,9 [23371359] [64C84062]
04 56,2 [770F048E] [B0C1C794]
05 28,2 [B19A0139] [8D3E7ADA]
06 69,1 [9ADB9099] [BB0A201D]
07 90,8 [D6B9F505] [E70ABAF2]
08 95,3 [4FF1552C] [565BC156]
09 69,7 [D7F817E3] [26D61814]
10 55,0 [A2455581] [4F806D53]
11 84,5 [F8CF65AF] [612F58BD]
12 39,8 [6BA18C74] [DD053B9E]
13 37,5 [CB3E0D36] [DB5177CE]
14 77,7 [2BFBDD5F] [E0D1CF80]
15 71,6 [34E5FD16] [2A398482]
16 73,5 [1D49C79E] [BD4DE591]
17 57,2 [5A1D334B] [AFF8AC9B]
18 71,8 [AA7ED62A] [1F114B80]
19 94,1 [AD112F3D] [1F72ACAA]

foobar2000 1.2 / Dynamic Range Meter 1.1.1
log date: 2018-04-02 22:56:19

––––––––––––––––––––––––––––––––––––––––
Analyzed: Jean-Efflam Bavouzet / Debussy - Complete Works for Piano - Vol.4
––––––––––––––––––––––––––––––––––––––––

DR Peak RMS Duration Track
––––––––––––––––––––––––––––––––––––––––
DR15 -3.71 dB -26.87 dB 5:05 01-Images, First Series - Reflets dans l'eau. Andantino molto (Tempo rubato) -
DR16 -3.38 dB -26.95 dB 6:09 02-Images, First Series - Hommage a Rameau. Lent et grave (dans le style d'une Sarabande, mais sans rigueur) -
DR13 -2.16 dB -21.70 dB 3:17 03-Images, First Series - Mouvement. Anime (avec une legerete fantasque, mais precise) -
DR16 -4.99 dB -28.81 dB 4:24 04-Images, Second Series - Cloches a travers les feuilles. A Alexandre Charpentier. Lent -
DR15 -10.99 dB -34.09 dB 4:54 05-Images, Second Series - Et la lune descend sur le temple qui fut. A Louis Laloy. Lent - Retenu
DR13 -3.21 dB -22.96 dB 3:42 06-Images, Second Series - Poissons d'or. A Ricardo Vines. Anime -
DR14 -0.83 dB -21.89 dB 3:06 07-Etudes, Book 1 - I - pour les 'cinq doigts': d'apres Monsieur Czerny. Sagement -
DR15 -0.41 dB -21.69 dB 3:40 08-Etudes, Book 1 - II - pour les Tierces. Moderato, ma non troppo -
DR15 -3.13 dB -26.20 dB 4:55 09-Etudes, Book 1 - III - pour les Quartes. Andantino con moto -
DR15 -5.18 dB -26.45 dB 4:01 10-Etudes, Book 1 - IV - pour les Sixtes. Lento - Animando poco a poco -
DR13 -1.46 dB -19.85 dB 2:43 11-Etudes, Book 1 - V - pour les Octaves. Joyeus et emporte, librement rythme -
DR12 -8.00 dB -27.26 dB 1:39 12-Etudes, Book 1 - VI - pour les huits doigts. Vivamente, molto leggiero e leggiero e legato -
DR13 -8.51 dB -25.79 dB 2:11 13-Etudes, Book 2 - VII - pour les degres chromatiques. Scherzando, animato assai -
DR16 -2.19 dB -26.05 dB 5:03 14-Etudes, Book 2 - VIII - pour les agrements. Lento, rubato e leggiero - Stretto -
DR15 -2.90 dB -24.58 dB 3:06 15-Etudes, Book 2 - IX - pour les notes repetees. Scherzando - Poco rubato -
DR18 -2.67 dB -30.25 dB 5:42 16-Etudes, Book 2 - X - pour les Sonorites opposees. Moderere, sans lenteur -
DR13 -4.85 dB -24.56 dB 3:56 17-Etudes, Book 2 - Etudes retrouvee. A first version of Etude XI '- pour les Arpeges composes'
DR16 -2.87 dB -26.38 dB 4:28 18-Etudes, Book 2 - XI - pour les Arpeges composes. [ ] - Lumineux -
DR15 -0.52 dB -22.11 dB 4:35 19-Etudes, Book 2 - XII - pour les accords. Decide, rythme, sans lourdeur - Poco allargando -
––––––––––––––––––––––––––––––––––––––––

Number of tracks: 19
Official DR value: DR15

Samplerate: 44100 Hz
Channels: 2
Bits per sample: 16
Bitrate: 381 kbps
Codec: FLAC
================================================================================




Jean-Efflam Bavouzet - Claude Debussy: Complete Works for Piano, Volumes 1-5 (2007-2009) 5CD [Combined Repost]

Jean-Efflam Bavouzet - Claude Debussy: Complete Works for Piano, Vol. 5 (2009)
EAC | FLAC | Image (Cue&Log) ~ 189 Mb | Artwork included
Label: Chandos | # CHAN 10545 | 01:04:48

The fifth volume of Jean-Efflam Bavouzet's survey of the complete piano music of Claude Debussy is at least as fine as the previous four, and perhaps even more interesting. Throughout this series, Bavouzet has shown himself to be not only a stupendous virtuoso – nothing in the Études or the Préludes is technically beyond him – but also an exemplary Debussy pianist. He knows how to blend, balance, shade, and shadow so that the music always sounds like it is by Debussy and no other composer. In this volume, Bavouzet takes on three works rarely programmed or recorded in any form and plays them in their nearly unknown piano versions: the ballets Khamma, Jeux, and La boîte à joujoux. Though the piano versions were intended only as aids for dance rehearsal and not as a substitute for the full scores, they prove wholly persuasive in these performances. Bavouzet tosses off the most challenging passages as easily as if they were five-finger exercises, but more importantly, he makes compelling cases for these rare pieces, revealing each as a fully worthy work, something at which many conductors have failed. Though no fan of the composer should be without the orchestral versions of these scores, this disc should be of interest to anyone who loves Debussy. Chandos' digital sound is warm, deep, detailed, and colorful.

James Leonard, Allmusic.com

Tracklist:

Khamma
01. Prelude (1:02)
02. Scene 1. The Inner Temple of the Great God Amon-Ra (3:50)
03. Scene 2 (2:41)
04. First Dance (3:28)
05. Second Dance (1:36)
06. Third Dance (1:43)
07. Suddenly, Khamma notices… (1:50)
08. Scene 3 (3:33)

Jeux
09. Prelude. The curtain rises… (2:06)
10. Two timid, curious girls… (1:01)
11. One of the girls dances… (1:14)
12. The young man can be seen… (1:14)
13. They dance together. He asks… (2:10)
14. The young man follows… (2:08)
15. Wrapped up in their dance… (1:41)
16. However, the young man… (1:35)
17. Now all three of them… (3:05)
18. A tennis ball falls at… (0:48)

La Boite a joujoux
19. Prelude. The Box Sleeps - First Tableau. The Toy Shop (11:57)
20. Second Tableau. The Battlefield (8:06)
21. Third Tableau. Sheepfold for Sale (5:08)
22. Fourth Tableau. After the Fortune Is Made - Epilogue (2:52)


Exact Audio Copy V1.0 beta 3 from 29. August 2011

EAC extraction logfile from 7. January 2012, 21:50

Jean-Efflam Bavouzet / Debussy - Complete Works for Piano - Vol.5

Used drive : HL-DT-STDVDRAM GSA-4083N Adapter: 1 ID: 0

Read mode : Secure
Utilize accurate stream : Yes
Defeat audio cache : Yes
Make use of C2 pointers : No

Read offset correction : 667
Overread into Lead-In and Lead-Out : No
Fill up missing offset samples with silence : Yes
Delete leading and trailing silent blocks : No
Null samples used in CRC calculations : Yes
Used interface : Native Win32 interface for Win NT & 2000

Used output format : User Defined Encoder
Selected bitrate : 896 kBit/s
Quality : High
Add ID3 tag : No
Command line compressor : C:\Program Files\Exact Audio Copy\Flac\flac.exe
Additional command line options : -V -8 %source%


TOC of the extracted CD

Track | Start | Length | Start sector | End sector
––––––––––––––––––––––––––––-
1 | 0:00.00 | 1:02.07 | 0 | 4656
2 | 1:02.07 | 3:49.54 | 4657 | 21885
3 | 4:51.61 | 2:41.26 | 21886 | 33986
4 | 7:33.12 | 3:28.35 | 33987 | 49621
5 | 11:01.47 | 1:35.53 | 49622 | 56799
6 | 12:37.25 | 1:42.69 | 56800 | 64518
7 | 14:20.19 | 1:49.39 | 64519 | 72732
8 | 16:09.58 | 3:33.05 | 72733 | 88712
9 | 19:42.63 | 2:05.52 | 88713 | 98139
10 | 21:48.40 | 1:01.10 | 98140 | 102724
11 | 22:49.50 | 1:14.20 | 102725 | 108294
12 | 24:03.70 | 1:14.26 | 108295 | 113870
13 | 25:18.21 | 2:10.00 | 113871 | 123620
14 | 27:28.21 | 2:07.60 | 123621 | 133205
15 | 29:36.06 | 1:40.57 | 133206 | 140762
16 | 31:16.63 | 1:34.65 | 140763 | 147877
17 | 32:51.53 | 3:04.69 | 147878 | 161746
18 | 35:56.47 | 0:48.31 | 161747 | 165377
19 | 36:45.03 | 11:56.74 | 165378 | 219151
20 | 48:42.02 | 8:06.15 | 219152 | 255616
21 | 56:48.17 | 5:07.61 | 255617 | 278702
22 | 61:56.03 | 2:52.15 | 278703 | 291617


Range status and errors

Selected range

Filename F:\Music\Debussy - Complete Works for Piano, Vol.5 - Bavouzet\Debussy - Complete Works for Piano - Vol.5.wav

Peak level 93.5 %
Extraction speed 4.3 X
Range quality 100.0 %
Test CRC 51397E07
Copy CRC 51397E07
Copy OK

No errors occurred

End of status report

==== Log checksum 9B1D9AD85F8AFA70B65F137EF82534504CE98D36AFB3C704CBDDE637779D2235 ====

[CUETools log; Date: 02.04.2018 22:50:09; Version: 2.1.4]
[CTDB TOCID: h8bCwKowDHXaV1yHuTOVMN.3ujg-] found.
Track | CTDB Status
1 | (54/54) Accurately ripped
2 | (54/54) Accurately ripped
3 | (54/54) Accurately ripped
4 | (54/54) Accurately ripped
5 | (54/54) Accurately ripped
6 | (54/54) Accurately ripped
7 | (54/54) Accurately ripped
8 | (54/54) Accurately ripped
9 | (54/54) Accurately ripped
10 | (54/54) Accurately ripped
11 | (54/54) Accurately ripped
12 | (54/54) Accurately ripped
13 | (54/54) Accurately ripped
14 | (54/54) Accurately ripped
15 | (54/54) Accurately ripped
16 | (54/54) Accurately ripped
17 | (54/54) Accurately ripped
18 | (54/54) Accurately ripped
19 | (54/54) Accurately ripped
20 | (54/54) Accurately ripped
21 | (54/54) Accurately ripped
22 | (54/54) Accurately ripped
[AccurateRip ID: 0029b63f-02a979d6-390f3016] found.
Track [ CRC | V2 ] Status
01 [85d82998|325ff18f] (09+26/49) Accurately ripped
02 [0ca4eee8|b6b41e92] (09+26/49) Accurately ripped
03 [5a2cf09f|7608497a] (10+26/50) Accurately ripped
04 [b805e37b|3f7fc2f5] (10+26/50) Accurately ripped
05 [7202c9ad|71a1b3c8] (10+26/50) Accurately ripped
06 [1e456ab3|25e776d1] (10+26/50) Accurately ripped
07 [4b63429b|8dccbb1d] (10+26/50) Accurately ripped
08 [509518d9|d49b49b0] (10+26/50) Accurately ripped
09 [0decd0f2|f19c8ef0] (10+26/50) Accurately ripped
10 [c49431c3|6aaf5f93] (10+26/50) Accurately ripped
11 [f2d8097a|84d33bd0] (10+26/50) Accurately ripped
12 [e13a1e39|01eb1f5f] (10+26/50) Accurately ripped
13 [da765ed2|3fe3b7ad] (10+26/50) Accurately ripped
14 [df8e5680|e71bb075] (10+26/50) Accurately ripped
15 [13430d85|f44d549e] (10+26/50) Accurately ripped
16 [d1e21231|9d0b810d] (10+26/50) Accurately ripped
17 [dcc71377|6f42bb29] (10+26/50) Accurately ripped
18 [fc77cdcb|22b39626] (10+26/50) Accurately ripped
19 [daf73093|4826b573] (10+25/49) Accurately ripped
20 [ae32d0b9|9b7b45d7] (10+26/49) Accurately ripped
21 [54499b98|1113e430] (10+26/49) Accurately ripped
22 [28b1e27d|10f940bf] (10+27/50) Accurately ripped
Offsetted by -36:
01 [74017dc4] (00/49) No match (V2 was not tested)
02 [1f6215b6] (00/49) No match (V2 was not tested)
03 [9b369074] (00/50) No match (V2 was not tested)
04 [ec80472a] (00/50) No match (V2 was not tested)
05 [5edb4770] (00/50) No match (V2 was not tested)
06 [8c699954] (00/50) No match (V2 was not tested)
07 [de13db8c] (00/50) No match (V2 was not tested)
08 [59dfdac9] (00/50) No match (V2 was not tested)
09 [65a96814] (00/50) No match (V2 was not tested)
10 [63ddc686] (00/50) No match (V2 was not tested)
11 [f8e5f738] (00/50) No match (V2 was not tested)
12 [bc125b1e] (00/50) No match (V2 was not tested)
13 [8ac3d52b] (00/50) No match (V2 was not tested)
14 [d0e0c557] (00/50) No match (V2 was not tested)
15 [8296867e] (00/50) No match (V2 was not tested)
16 [81e2d940] (00/50) No match (V2 was not tested)
17 [694b3168] (00/50) No match (V2 was not tested)
18 [0a7939a6] (00/50) No match (V2 was not tested)
19 [701f6a79] (00/49) No match (V2 was not tested)
20 [2c08ad38] (00/49) No match (V2 was not tested)
21 [a939432d] (00/49) No match (V2 was not tested)
22 [be7af9c8] (00/50) No match (V2 was not tested)

Track Peak [ CRC32 ] [W/O NULL] [ LOG ]
– 93,5 [51397E07] [F750D54A] CRC32
01 60,7 [17946D0E] [F7F40930]
02 71,7 [10E5879F] [6D9D15AF]
03 66,3 [FF1B62DA] [9D69DC1F]
04 65,9 [A8B2E2E6] [8F50B1E3]
05 67,0 [BE2A1BFF] [DDBFA147]
06 24,4 [21F561C5] [07340B6E]
07 72,2 [BBE2F0CF] [314784BF]
08 81,4 [01FAF49B] [8A2F0B62]
09 88,9 [C81B4E02] [DDB9C6EA]
10 50,3 [0914C09D] [37D37AFC]
11 54,4 [7214367A] [6E36468A]
12 65,9 [894F8FF1] [AF68B413]
13 76,7 [4E80C14C] [D66AC984]
14 86,0 [29FBC5A2] [40872BFF]
15 59,0 [B7BC8D3C] [2C4394DF]
16 93,5 [D3E869FB] [6EEC87FF]
17 85,5 [1FDDFCD7] [0FCDBC29]
18 11,9 [B69D0F26] [EBB5AD18]
19 74,6 [A80C3203] [FCEDF4C2]
20 75,9 [C1D15A76] [9B587512]
21 50,5 [7B4FA1F6] [FD5101C5]
22 83,0 [93A4EDD1] [7819ED4E]

foobar2000 1.2 / Dynamic Range Meter 1.1.1
log date: 2018-04-02 22:56:40

––––––––––––––––––––––––––––––––––––––––
Analyzed: Jean-Efflam Bavouzet / Debussy - Complete Works for Piano - Vol.5
––––––––––––––––––––––––––––––––––––––––

DR Peak RMS Duration Track
––––––––––––––––––––––––––––––––––––––––
DR10 -4.33 dB -25.49 dB 1:02 01-Khamma - Prelude
DR16 -2.89 dB -26.63 dB 3:50 02-Khamma - Scene 1. The Inner Temple of the Great God Amon-Ra
DR14 -3.56 dB -24.47 dB 2:41 03-Khamma - Scene 2
DR15 -3.62 dB -25.48 dB 3:28 04-Khamma - First Dance
DR13 -3.47 dB -22.49 dB 1:36 05-Khamma - Second Dance
DR13 -12.25 dB -31.68 dB 1:43 06-Khamma - Third Dance
DR13 -2.82 dB -20.40 dB 1:50 07-Khamma - Suddenly, Khamma notices…
DR13 -1.78 dB -22.81 dB 3:33 08-Khamma - Scene 3
DR14 -1.02 dB -27.44 dB 2:06 09-Jeux - Prelude. The curtain rises…
DR12 -6.44 dB -23.87 dB 1:01 10-Jeux - Two timid, curious girls…
DR14 -5.28 dB -24.09 dB 1:14 11-Jeux - One of the girls dances…
DR12 -3.62 dB -22.98 dB 1:14 12-Jeux - The young man can be seen…
DR16 -2.29 dB -24.33 dB 2:10 13-Jeux - They dance together. He asks…
DR14 -1.30 dB -21.37 dB 2:08 14-Jeux - The young man follows…
DR14 -4.58 dB -29.40 dB 1:41 15-Jeux - Wrapped up in their dance…
DR13 -0.58 dB -20.17 dB 1:35 16-Jeux - However, the young man…
DR13 -1.36 dB -19.65 dB 3:05 17-Jeux - Now all three of them…
DR12 -18.44 dB -39.14 dB 0:48 18-Jeux - A tennis ball falls at…
DR17 -2.54 dB -25.60 dB 11:57 19-La Boite a joujoux - Prelude. The Box Sleeps - First Tableau. The Toy Shop
DR18 -2.39 dB -26.84 dB 8:06 20-La Boite a joujoux - Second Tableau. The Battlefield
DR14 -5.93 dB -27.53 dB 5:08 21-La Boite a joujoux - Third Tableau. Sheepfold for Sale
DR13 -1.61 dB -22.39 dB 2:52 22-La Boite a joujoux - Fourth Tableau. After the Fortune Is Made - Epilogue
––––––––––––––––––––––––––––––––––––––––

Number of tracks: 22
Official DR value: DR14

Samplerate: 44100 Hz
Channels: 2
Bits per sample: 16
Bitrate: 402 kbps
Codec: FLAC
================================================================================