Subcategories

Jean-Efflam Bavouzet - Haydn: Piano Sonatas, Vol. 7 (2018)

Posted By: tirexiss
Jean-Efflam Bavouzet - Haydn: Piano Sonatas, Vol. 7 (2018)

Jean-Efflam Bavouzet - Haydn: Piano Sonatas, Vol. 7 (2018)
EAC | FLAC (image+.cue, log) | Covers Included | 72:42 | 247 MB
Genre: Classical | Label: Chandos Records | Catalog: CHAN10998

Alongside an internationally acclaimed celebration of Debussy’s centenary, Jean-Efflam Bavouzet continues his sumptuous journey through Haydn, the instalments consistently praised for their intelligent approach and clear and vivid interpretations. Recorded on a modern Yamaha CFX in the warm acoustic of Potton Hall in Suffolk, the series has now reached Volume 7, which showcases several rarely heard sonatas, some of which have been considered of dubious authenticity or outrightapocryphal. With the exception of No. 13 (Hob. XVI: 6), absolutely and unarguably authentic, these sonatas survive only in the form of copies, and to establish a chronology is difficult, even impossible. But through Jean-Efflam Bavouzet’s playing, all these pieces are revealed in their purest essence and diversity, from the energetic, witty, and ironic to the graceful, tender, and intimate.

Jean-Efflam Bavouzet - Haydn: Piano Sonatas, Vol. 7 (2018)

Track List:

Franz Joseph Haydn

[1]-[3] Sonata No.8 in A major, Hob. XVI: 5
[4]-[6] Sonata No.46 in E major, Hob. XVI: 31
[7]-[10] Sonata No.13 in G major, Hob. XVI: 6
[11]-[13] Sonata No.57 in F major, Hob. XVI: 47
[14]-[15] Sonata No.58 in C major, Hob. XVI: 48

Performers:
Jean-Efflam Bavouzet, piano

Exact Audio Copy V1.3 from 2. September 2016

EAC extraction logfile from 16. February 2019, 19:08

Jean-Efflam Bavouzet / Haydn - Piano Sonatas, Vol.7

Used drive : ASUS SDRW-08U7M-U Adapter: 1 ID: 1

Read mode : Secure
Utilize accurate stream : Yes
Defeat audio cache : Yes
Make use of C2 pointers : No

Read offset correction : 6
Overread into Lead-In and Lead-Out : No
Fill up missing offset samples with silence : Yes
Delete leading and trailing silent blocks : No
Null samples used in CRC calculations : Yes
Used interface : Native Win32 interface for Win NT & 2000

Used output format : User Defined Encoder
Selected bitrate : 128 kBit/s
Quality : High
Add ID3 tag : No
Command line compressor : C:\Program Files (x86)\Exact Audio Copy\Flac\flac.exe
Additional command line options : -V -8 -T "Date=%year%" -T "Genre=%genre%" %source%


TOC of the extracted CD

Track | Start | Length | Start sector | End sector
––––––––––––––––––––––––––––-
1 | 0:00.00 | 5:33.72 | 0 | 25046
2 | 5:33.72 | 3:03.57 | 25047 | 38828
3 | 8:37.54 | 3:40.36 | 38829 | 55364
4 | 12:18.15 | 6:43.63 | 55365 | 85652
5 | 19:02.03 | 2:36.73 | 85653 | 97425
6 | 21:39.01 | 2:28.56 | 97426 | 108581
7 | 24:07.57 | 5:18.06 | 108582 | 132437
8 | 29:25.63 | 4:03.27 | 132438 | 150689
9 | 33:29.15 | 4:42.26 | 150690 | 171865
10 | 38:11.41 | 2:40.60 | 171866 | 183925
11 | 40:52.26 | 8:02.56 | 183926 | 220131
12 | 48:55.07 | 6:18.09 | 220132 | 248490
13 | 55:13.16 | 4:59.66 | 248491 | 270981
14 | 60:13.07 | 8:21.20 | 270982 | 308576
15 | 68:34.27 | 4:06.59 | 308577 | 327085


Range status and errors

Selected range

Filename C:\temp\CHAN_10998 - Haydn - Piano Sonatas, Vol.7 - Bavouzet - 2018\Haydn - Piano Sonatas, Vol.7.wav

Peak level 98.4 %
Extraction speed 5.3 X
Range quality 99.9 %
Test CRC 6467AE2A
Copy CRC 6467AE2A
Copy OK

No errors occurred


AccurateRip summary

Track 1 accurately ripped (confidence 1) [71C66F2C] (AR v2)
Track 2 accurately ripped (confidence 1) [CA9107B1] (AR v2)
Track 3 accurately ripped (confidence 1) [9A0BBE30] (AR v2)
Track 4 accurately ripped (confidence 1) [5C57E0C9] (AR v2)
Track 5 accurately ripped (confidence 1) [4F21CF8F] (AR v2)
Track 6 accurately ripped (confidence 1) [54443665] (AR v2)
Track 7 accurately ripped (confidence 1) [F6575528] (AR v2)
Track 8 accurately ripped (confidence 1) [EA36CA71] (AR v2)
Track 9 accurately ripped (confidence 1) [9BC6A7FF] (AR v2)
Track 10 accurately ripped (confidence 1) [B2B2A2EA] (AR v2)
Track 11 accurately ripped (confidence 1) [08FA08CB] (AR v2)
Track 12 accurately ripped (confidence 1) [75BCE7EA] (AR v2)
Track 13 accurately ripped (confidence 1) [94390CF9] (AR v2)
Track 14 accurately ripped (confidence 1) [115A97F3] (AR v2)
Track 15 accurately ripped (confidence 1) [8C68F106] (AR v2)

All tracks accurately ripped

End of status report

==== Log checksum 1B9D07375208AEB7679E52937DD2AA6AEDEA093FCA720F2E9B400CEB669A450A ====

Thanks to the Original ripper (A-Z)!

Welcome to my blog!

Download: