Tags
Language
Tags

Jerry Goldsmith - Capricorn One: Original Motion Picture Soundtrack (1977) Remastered Limited Edition 2005

Posted By: Efgrapha
Jerry Goldsmith - Capricorn One: Original Motion Picture Soundtrack (1977) Remastered Limited Edition 2005

Jerry Goldsmith - Capricorn One: Original Motion Picture Soundtrack (1977/2005)
EAC | FLAC (Tracks) + cue.+log ~ 305 Mb | Scans included | Time: 00:56:32
Soundtrack, Score | Label: Intrada | # Special Collection Volume ISC 21

Although the film in question is largely forgotten, Jerry Goldsmith's music for the sci-fi opus Capricorn One looms as arguably the most influential and imitated action score of the late 20th century. An exhilarating work that evolves with masterful purpose and precision, its densely percussive arrangements remain synonymous with adventure and suspense decades after the fact. Where followers like Alan Silvestri and James Horner rely almost solely on sensory assault to convey danger and dread, Goldsmith sculpts the music of Capricorn One via complex orchestration and meticulous sound effects, building and expanding his central themes to create genuine drama. Tightrope-taut and brilliantly paced, the soundtrack is more vividly cinematic than its accompanying celluloid images themselves. It's a virtual master class in the art of film music.

Jason Ankeny, All Music Guide

Jerry Goldsmith - Capricorn One: Original Motion Picture Soundtrack (1977) Remastered Limited Edition 2005



Jerry Goldsmith - Capricorn One: Original Motion Picture Soundtrack (1977) Remastered Limited Edition 2005



Tracklist:

01. Main Title (1:15)
02. Abort 1 (1:33)
03. Abort 2 (0:35)
04. Capricorn Control (0:28)
05. Mars (1:21)
06. Docking (2:49)
07. Working Overtime (0:46)
08. We Have Landed (1:02)
09. The Message (3:55)
10. Kay's Theme (Trio Source) / Elliot Is Missing (3:40)
11. The Letter (2:58)
12. Break Out (5:08)
13. The Desert (0:30)
14. Bedtime Story (2:37)
15. The Helicopters (1:07)
16. Hide and Seek (1:26)
17. No Water (2:49)
18. Flare No. 1 (0:31)
19. The Long Climb / Flare No. 2 (3:53)
20. The Snake (3:35)
21. To Bru From Kay (1:50)
22. The Station (5:31)
23. The Celebration (1:40)
24. End Title (2:11)
25. Fanfare Source (0:15)
26. Breakout (LP Imitation) (3:05)


Exact Audio Copy V0.99 prebeta 4 from 23. January 2008

EAC extraction logfile from 14. November 2013, 16:23

Jerry Goldsmith / Capricorn One

Used drive : PIONEER DVD RW DVR-109 Adapter: 1 ID: 0

Read mode : Secure
Utilize accurate stream : Yes
Defeat audio cache : Yes
Make use of C2 pointers : No

Read offset correction : 48
Overread into Lead-In and Lead-Out : No
Fill up missing offset samples with silence : Yes
Delete leading and trailing silent blocks : No
Null samples used in CRC calculations : Yes
Used interface : Native Win32 interface for Win NT & 2000
Gap handling : Appended to previous track

Used output format : Internal WAV Routines
Sample format : 44.100 Hz; 16 Bit; Stereo


TOC of the extracted CD

Track | Start | Length | Start sector | End sector
––––––––––––––––––––––––––––-
1 | 0:00.00 | 1:15.35 | 0 | 5659
2 | 1:15.35 | 1:33.23 | 5660 | 12657
3 | 2:48.58 | 0:34.61 | 12658 | 15268
4 | 3:23.44 | 0:27.67 | 15269 | 17360
5 | 3:51.36 | 1:21.10 | 17361 | 23445
6 | 5:12.46 | 2:49.19 | 23446 | 36139
7 | 8:01.65 | 0:46.19 | 36140 | 39608
8 | 8:48.09 | 1:02.00 | 39609 | 44258
9 | 9:50.09 | 3:54.74 | 44259 | 61882
10 | 13:45.08 | 3:40.22 | 61883 | 78404
11 | 17:25.30 | 2:57.74 | 78405 | 91753
12 | 20:23.29 | 5:07.63 | 91754 | 114841
13 | 25:31.17 | 0:30.15 | 114842 | 117106
14 | 26:01.32 | 2:36.46 | 117107 | 128852
15 | 28:38.03 | 1:07.03 | 128853 | 133880
16 | 29:45.06 | 1:25.60 | 133881 | 140315
17 | 31:10.66 | 2:49.25 | 140316 | 153015
18 | 34:00.16 | 0:30.69 | 153016 | 155334
19 | 34:31.10 | 3:53.11 | 155335 | 172820
20 | 38:24.21 | 3:35.13 | 172821 | 188958
21 | 41:59.34 | 1:49.57 | 188959 | 197190
22 | 43:49.16 | 5:31.32 | 197191 | 222047
23 | 49:20.48 | 1:39.49 | 222048 | 229521
24 | 51:00.22 | 2:10.73 | 229522 | 239344
25 | 53:11.20 | 0:14.74 | 239345 | 240468
26 | 53:26.19 | 3:05.33 | 240469 | 254376


Track 1

Filename C:\Documents and Settings\My Documents\My Music\Jerry Goldsmith\1999 - Capricorn One\01. Main Title.wav

Pre-gap length 0:00:02.00

Peak level 100.0 %
Track quality 100.0 %
Test CRC 115A0B4F
Copy CRC 115A0B4F
Accurately ripped (confidence 11) [993DBDDD]
Copy OK

Track 2

Filename C:\Documents and Settings\My Documents\My Music\Jerry Goldsmith\1999 - Capricorn One\02. Abort 1.wav

Peak level 100.0 %
Track quality 100.0 %
Test CRC 554BBABF
Copy CRC 554BBABF
Accurately ripped (confidence 11) [0C420B3B]
Copy OK

Track 3

Filename C:\Documents and Settings\My Documents\My Music\Jerry Goldsmith\1999 - Capricorn One\03. Abort 2.wav

Peak level 78.6 %
Track quality 100.0 %
Test CRC 7AFBD805
Copy CRC 7AFBD805
Accurately ripped (confidence 11) [E3D837EF]
Copy OK

Track 4

Filename C:\Documents and Settings\My Documents\My Music\Jerry Goldsmith\1999 - Capricorn One\04. Capricorn Control.wav

Peak level 92.2 %
Track quality 100.0 %
Test CRC 262E1ADF
Copy CRC 262E1ADF
Accurately ripped (confidence 11) [B4F2872E]
Copy OK

Track 5

Filename C:\Documents and Settings\My Documents\My Music\Jerry Goldsmith\1999 - Capricorn One\05. Mars.wav

Peak level 94.9 %
Track quality 100.0 %
Test CRC FA2F56CB
Copy CRC FA2F56CB
Accurately ripped (confidence 11) [6DCE2FCE]
Copy OK

Track 6

Filename C:\Documents and Settings\My Documents\My Music\Jerry Goldsmith\1999 - Capricorn One\06. Docking.wav

Peak level 78.6 %
Track quality 100.0 %
Test CRC 81D6B504
Copy CRC 81D6B504
Accurately ripped (confidence 11) [F0ACFE8A]
Copy OK

Track 7

Filename C:\Documents and Settings\My Documents\My Music\Jerry Goldsmith\1999 - Capricorn One\07. Working Overtime.wav

Peak level 23.8 %
Track quality 100.0 %
Test CRC 56EC340A
Copy CRC 56EC340A
Accurately ripped (confidence 11) [E7DC6BCD]
Copy OK

Track 8

Filename C:\Documents and Settings\My Documents\My Music\Jerry Goldsmith\1999 - Capricorn One\08. We Have Landed.wav

Peak level 54.5 %
Track quality 100.0 %
Test CRC B62008D7
Copy CRC B62008D7
Accurately ripped (confidence 11) [369468F8]
Copy OK

Track 9

Filename C:\Documents and Settings\My Documents\My Music\Jerry Goldsmith\1999 - Capricorn One\09. The Message.wav

Peak level 75.1 %
Track quality 100.0 %
Test CRC 1E5DDD60
Copy CRC 1E5DDD60
Accurately ripped (confidence 11) [746BC05E]
Copy OK

Track 10

Filename C:\Documents and Settings\My Documents\My Music\Jerry Goldsmith\1999 - Capricorn One\10. Kay's Theme (Trio Source) _ Elliot Is Missing.wav

Peak level 97.3 %
Track quality 100.0 %
Test CRC CA71E4DC
Copy CRC CA71E4DC
Accurately ripped (confidence 11) [EDBDBB9F]
Copy OK

Track 11

Filename C:\Documents and Settings\My Documents\My Music\Jerry Goldsmith\1999 - Capricorn One\11. The Letter.wav

Peak level 58.0 %
Track quality 100.0 %
Test CRC 09FD0AB8
Copy CRC 09FD0AB8
Accurately ripped (confidence 11) [E285A3A8]
Copy OK

Track 12

Filename C:\Documents and Settings\My Documents\My Music\Jerry Goldsmith\1999 - Capricorn One\12. Break Out.wav

Peak level 100.0 %
Track quality 100.0 %
Test CRC 54AD5BF1
Copy CRC 54AD5BF1
Accurately ripped (confidence 11) [CC7E2918]
Copy OK

Track 13

Filename C:\Documents and Settings\My Documents\My Music\Jerry Goldsmith\1999 - Capricorn One\13. The Desert.wav

Peak level 25.4 %
Track quality 100.0 %
Test CRC 75DFCEA4
Copy CRC 75DFCEA4
Accurately ripped (confidence 11) [AAADD527]
Copy OK

Track 14

Filename C:\Documents and Settings\My Documents\My Music\Jerry Goldsmith\1999 - Capricorn One\14. Bedtime Story.wav

Peak level 42.2 %
Track quality 100.0 %
Test CRC 227364D3
Copy CRC 227364D3
Accurately ripped (confidence 11) [77B01FFB]
Copy OK

Track 15

Filename C:\Documents and Settings\My Documents\My Music\Jerry Goldsmith\1999 - Capricorn One\15. The Helicopters.wav

Peak level 100.0 %
Track quality 100.0 %
Test CRC C9FC6197
Copy CRC C9FC6197
Accurately ripped (confidence 11) [75E3893D]
Copy OK

Track 16

Filename C:\Documents and Settings\My Documents\My Music\Jerry Goldsmith\1999 - Capricorn One\16. Hide and Seek.wav

Peak level 100.0 %
Track quality 100.0 %
Test CRC DC5579DA
Copy CRC DC5579DA
Accurately ripped (confidence 11) [75CA16CD]
Copy OK

Track 17

Filename C:\Documents and Settings\My Documents\My Music\Jerry Goldsmith\1999 - Capricorn One\17. No Water.wav

Peak level 100.0 %
Track quality 100.0 %
Test CRC A77B0E5A
Copy CRC A77B0E5A
Accurately ripped (confidence 11) [E7AC2AA3]
Copy OK

Track 18

Filename C:\Documents and Settings\My Documents\My Music\Jerry Goldsmith\1999 - Capricorn One\18. Flare No. 1.wav

Peak level 49.6 %
Track quality 100.0 %
Test CRC 9D99E742
Copy CRC 9D99E742
Accurately ripped (confidence 11) [EBC7D528]
Copy OK

Track 19

Filename C:\Documents and Settings\My Documents\My Music\Jerry Goldsmith\1999 - Capricorn One\19. The Long Climb _ Flare No. 2.wav

Peak level 99.9 %
Track quality 100.0 %
Test CRC 6A590DA3
Copy CRC 6A590DA3
Accurately ripped (confidence 11) [C25C80DD]
Copy OK

Track 20

Filename C:\Documents and Settings\My Documents\My Music\Jerry Goldsmith\1999 - Capricorn One\20. The Snake.wav

Peak level 100.0 %
Track quality 100.0 %
Test CRC 5BB84DA9
Copy CRC 5BB84DA9
Accurately ripped (confidence 11) [14568149]
Copy OK

Track 21

Filename C:\Documents and Settings\My Documents\My Music\Jerry Goldsmith\1999 - Capricorn One\21. To Bru From Kay.wav

Peak level 59.8 %
Track quality 100.0 %
Test CRC 14E2197E
Copy CRC 14E2197E
Accurately ripped (confidence 11) [0938D630]
Copy OK

Track 22

Filename C:\Documents and Settings\My Documents\My Music\Jerry Goldsmith\1999 - Capricorn One\22. The Station.wav

Peak level 100.0 %
Track quality 100.0 %
Test CRC 988AA26D
Copy CRC 988AA26D
Accurately ripped (confidence 11) [0D5FD72C]
Copy OK

Track 23

Filename C:\Documents and Settings\My Documents\My Music\Jerry Goldsmith\1999 - Capricorn One\23. The Celebration.wav

Peak level 100.0 %
Track quality 100.0 %
Test CRC D864F034
Copy CRC D864F034
Accurately ripped (confidence 11) [4A0A6E22]
Copy OK

Track 24

Filename C:\Documents and Settings\My Documents\My Music\Jerry Goldsmith\1999 - Capricorn One\24. End Title.wav

Peak level 100.0 %
Track quality 100.0 %
Test CRC 40269A17
Copy CRC 40269A17
Accurately ripped (confidence 11) [851C4BD8]
Copy OK

Track 25

Filename C:\Documents and Settings\My Documents\My Music\Jerry Goldsmith\1999 - Capricorn One\25. Fanfare Source.wav

Peak level 100.0 %
Track quality 100.0 %
Test CRC 63C0C762
Copy CRC 63C0C762
Accurately ripped (confidence 10) [842BA5BE]
Copy OK

Track 26

Filename C:\Documents and Settings\My Documents\My Music\Jerry Goldsmith\1999 - Capricorn One\26. Breakout (LP Imitation).wav

Peak level 100.0 %
Track quality 100.0 %
Test CRC A34161C7
Copy CRC A34161C7
Accurately ripped (confidence 10) [37FFAB65]
Copy OK


All tracks accurately ripped

No errors occurred

End of status report

[CUETools log; Date: 30.07.2018 17:32:58; Version: 2.1.4]
[CTDB TOCID: spPPMOqT3_e95l4OojV7_ORnU2Y-] found.
Track | CTDB Status
1 | (10/10) Accurately ripped
2 | (10/10) Accurately ripped
3 | (10/10) Accurately ripped
4 | (10/10) Accurately ripped
5 | (10/10) Accurately ripped
6 | (10/10) Accurately ripped
7 | (10/10) Accurately ripped
8 | (10/10) Accurately ripped
9 | (10/10) Accurately ripped
10 | (10/10) Accurately ripped
11 | (10/10) Accurately ripped
12 | (10/10) Accurately ripped
13 | (10/10) Accurately ripped
14 | (10/10) Accurately ripped
15 | (10/10) Accurately ripped
16 | (10/10) Accurately ripped
17 | (10/10) Accurately ripped
18 | (10/10) Accurately ripped
19 | (10/10) Accurately ripped
20 | (10/10) Accurately ripped
21 | (10/10) Accurately ripped
22 | (10/10) Accurately ripped
23 | (10/10) Accurately ripped
24 | (10/10) Accurately ripped
25 | (10/10) Accurately ripped
26 | (10/10) Accurately ripped
[AccurateRip ID: 002f861e-039dbcbf-3c0d3f1a] found.
Track [ CRC | V2 ] Status
01 [993dbddd|9bac05bd] (06+14/20) Accurately ripped
02 [0c420b3b|2e76c006] (06+14/20) Accurately ripped
03 [e3d837ef|863abf0c] (06+14/20) Accurately ripped
04 [b4f2872e|24818dec] (06+14/20) Accurately ripped
05 [6dce2fce|7e6519a6] (06+14/20) Accurately ripped
06 [f0acfe8a|438e54b9] (06+14/20) Accurately ripped
07 [e7dc6bcd|4ef65e65] (06+14/20) Accurately ripped
08 [369468f8|0ff4b7f0] (06+14/20) Accurately ripped
09 [746bc05e|92fb32cb] (06+14/20) Accurately ripped
10 [edbdbb9f|edced5ef] (06+14/20) Accurately ripped
11 [e285a3a8|e45e50e2] (06+14/20) Accurately ripped
12 [cc7e2918|231829ea] (06+14/20) Accurately ripped
13 [aaadd527|e71a1d5e] (06+14/20) Accurately ripped
14 [77b01ffb|a26e8ce9] (06+14/20) Accurately ripped
15 [75e3893d|ee291d29] (06+14/20) Accurately ripped
16 [75ca16cd|d630c143] (06+14/20) Accurately ripped
17 [e7ac2aa3|18b92191] (06+14/20) Accurately ripped
18 [ebc7d528|f56e2af5] (06+14/20) Accurately ripped
19 [c25c80dd|d6124fc3] (06+14/20) Accurately ripped
20 [14568149|d0af3b02] (06+14/20) Accurately ripped
21 [0938d630|3ce5c31f] (06+14/20) Accurately ripped
22 [0d5fd72c|05dd63de] (06+14/20) Accurately ripped
23 [4a0a6e22|c51b7203] (06+14/20) Accurately ripped
24 [851c4bd8|8fcad327] (06+14/20) Accurately ripped
25 [842ba5be|d402a26e] (06+13/19) Accurately ripped
26 [37ffab65|75290ca4] (06+13/19) Accurately ripped

Track Peak [ CRC32 ] [W/O NULL] [ LOG ]
– 100,0 [430AC68B] [89327F39]
01 100,0 [115A0B4F] [F2C4FB6B] CRC32
02 100,0 [554BBABF] [1E9CED9B] CRC32
03 78,6 [7AFBD805] [4E67108D] CRC32
04 92,2 [262E1ADF] [9B68D221] CRC32
05 94,9 [FA2F56CB] [A245D2CE] CRC32
06 78,6 [81D6B504] [2AD581A8] CRC32
07 23,8 [56EC340A] [34628B91] CRC32
08 54,5 [B62008D7] [2BDED7D4] CRC32
09 75,1 [1E5DDD60] [AD03E63E] CRC32
10 97,3 [CA71E4DC] [C5F6B19D] CRC32
11 58,0 [09FD0AB8] [C144F23E] CRC32
12 100,0 [54AD5BF1] [84DB6F9A] CRC32
13 25,4 [75DFCEA4] [75D146A7] CRC32
14 42,2 [227364D3] [E41C3BFE] CRC32
15 100,0 [C9FC6197] [988D82A7] CRC32
16 100,0 [DC5579DA] [D14B3F00] CRC32
17 100,0 [A77B0E5A] [C23867FD] CRC32
18 49,6 [9D99E742] [9B782E82] CRC32
19 99,9 [6A590DA3] [0F042B9D] CRC32
20 100,0 [5BB84DA9] [34054635] CRC32
21 59,8 [14E2197E] [251D8575] CRC32
22 100,0 [988AA26D] [8AE5BD8C] CRC32
23 100,0 [D864F034] [2FCFE730] CRC32
24 100,0 [40269A17] [DC2EF0AC] CRC32
25 100,0 [63C0C762] [274C06BE] CRC32
26 100,0 [A34161C7] [EFE1A981] CRC32

foobar2000 1.2 / Dynamic Range Meter 1.1.1
log date: 2018-07-30 17:38:19

––––––––––––––––––––––––––––––––––––––––
Analyzed: Jerry Goldsmith / Capricorn One
––––––––––––––––––––––––––––––––––––––––

DR Peak RMS Duration Track
––––––––––––––––––––––––––––––––––––––––
DR12 0.00 dB -13.93 dB 1:15 01-Main Title
DR14 0.00 dB -19.46 dB 1:33 02-Abort 1
DR10 -2.09 dB -19.79 dB 0:35 03-Abort 2
DR10 -0.70 dB -17.91 dB 0:28 04-Capricorn Control
DR15 -0.45 dB -20.55 dB 1:21 05-Mars
DR12 -2.08 dB -20.25 dB 2:49 06-Docking
DR11 -12.46 dB -27.89 dB 0:46 07-Working Overtime
DR10 -5.26 dB -21.63 dB 1:02 08-We Have Landed
DR13 -2.48 dB -21.95 dB 3:55 09-The Message
DR17 -0.23 dB -20.68 dB 3:40 10-Kay's Theme (Trio Source) / Elliot Is Missing
DR11 -4.73 dB -22.34 dB 2:58 11-The Letter
DR12 0.00 dB -17.52 dB 5:08 12-Break Out
DR10 -11.90 dB -26.82 dB 0:30 13-The Desert
DR13 -7.48 dB -26.77 dB 2:37 14-Bedtime Story
DR16 0.00 dB -21.92 dB 1:07 15-The Helicopters
DR14 0.00 dB -17.67 dB 1:26 16-Hide and Seek
DR13 0.00 dB -21.94 dB 2:49 17-No Water
DR8 -6.08 dB -23.31 dB 0:31 18-Flare No. 1
DR14 0.00 dB -21.56 dB 3:53 19-The Long Climb / Flare No. 2
DR14 0.00 dB -20.85 dB 3:35 20-The Snake
DR15 -4.46 dB -27.51 dB 1:50 21-To Bru From Kay
DR14 0.00 dB -20.58 dB 5:31 22-The Station
DR12 0.00 dB -16.22 dB 1:40 23-The Celebration
DR12 0.00 dB -15.09 dB 2:11 24-End Title
DR12 0.00 dB -17.93 dB 0:15 25-Fanfare Source
DR11 0.00 dB -13.83 dB 3:05 26-Breakout (LP Imitation)
––––––––––––––––––––––––––––––––––––––––

Number of tracks: 26
Official DR value: DR13

Samplerate: 44100 Hz
Channels: 2
Bits per sample: 16
Bitrate: 853 kbps
Codec: FLAC
================================================================================

Jerry Goldsmith - Capricorn One: Original Motion Picture Soundtrack (1977) Remastered Limited Edition 2005

Jerry Goldsmith - Capricorn One: Original Motion Picture Soundtrack (1977) Remastered Limited Edition 2005

All thanks to original uploader

More Movies & Soundtracks in Efgrapha Blog