Subcategories
Tags
Language
Tags

Jewlia Eisenberg (Charming Hostess, Red Pocket) - 7 Albums (1998 - 2010) Re-up

Posted By: v3122
Jewlia Eisenberg (Charming Hostess, Red Pocket) - 7 Albums (1998 - 2010) Re-up

Jewlia Eisenberg (Charming Hostess, Red Pocket) - 7 Albums (1998 - 2010)
EAC | Flac(Image) + Cue + Log | MP3 CBR 320Kbps
7CD | Label: Various | ~ 2272 + 915 Mb | Scans
Avant-Garde / A Capella / Folk / Experimental / Art-Rock

Charming Hostess is a whirl of eerie harmony, hot rhythm and radical braininess. Our music explores the intersection of text and the sounding body– complex ideas expressed physically, based on voice and vocal percussion, handclaps and heartbeats, sex-breath and silence. We live where diasporas collide, incorporating piyyutim and Pygmy counterpoint, doo-wop and niggunim, work songs and Torah chanting. The texts speak of mysticism and sex; angels and demons; and the trials and joys of love and sex…

–––––––––––––––-

Charming Hostess - это вихрь жуткой гармонии, горячего ритма и радикальной безмозглости. Наша музыка исследует пересечения текста и звуков тела - сложных идей, выраженных физически на основе голоса и вокальных ритмов, хлопанья в ладоши и сердцебиения, сексуальных вздохов и молчания. Мы живём на стыке диаспор, включая в себя звучание пигмеев и пиютим, ду-вопа и нигуним, рабочих песен и скандирования Торы. Тексты говорят о мистицизме и сэксе, ангелах и демонах, судебных заседаниях и наслаждениях любви…
Charming Hostess:

Jewlia Eisenberg (Charming Hostess, Red Pocket) - 7 Albums (1998 - 2010) Re-up

Charming Hostess:

Charming Hostess is a RIO/Avant-Prog band based out of San Francisco, California. They are a result of a collaboration between three members of IDIOT FLESH and a group of female vocalists and dancers. These musicians got started at the infamous Barrington Hall in U.C. Berkeley along with bands such as ACID RAIN, 501 SPANISH VERBS and KING BEAVER. For Over a decade, Charming Hostess has been showcasing their take on World Music and mixing it with Balkan Folk music, A Capella, Judeo-Arabic praise songs, Pygmy counterpoint, doo-wop, Torah Chanting, American country, and tying it all together with their trademark female vocal harmonies. The band has released three studio albums: their debut Eat in 1999, Sarajevo Blues in 2004, and Punch in 2005. Many of the original members of Charming Hostess were also a part of the album Trilectic released in 2001. The inside booklet is actually subtitled as a Charming Hostess release. Three of the members of Charming Hostess - Nils Frykdahl, Dan Rathburn, and Carla Kihlstedt - would go on to form SLEEPYTIME GORILLA MUSEUM.

~ Progarchives
–––––––––––––––-

Jewlia Eisenberg (Charming Hostess, Red Pocket) - 7 Albums (1998 - 2010) Re-up

CD01: Charming Hostess - Eat (1998):
EAC | Flac(Image) + Cue + Log | MP3 CBR 320Kbps
Scans Included | 2008, Charming Hostess | ~ 334 + 141 Mb

My first ever Charming Hostess' album was their Tzadik-released "Sarajevo Blues" almost shocking collection of sad songs in part based on Bosnian war-time poet lyrics with Balkan folklore elements and downtown punk sharpness. I fell in love with the band after that album.
Their debut "Eat" came to me second. Aerial and quirky mix of excellent a Capella female vocals, deep bass, sax,violin,flutes,Eastern European/Jewish/Latin folklore mixed with always melodic post punk radical elements,everything played and recorded at the highest possible level! 14 quite short compositions with often shocking lyrics mostly in English (but in Spanish and one of Slavic languages as well), Balkan rhythms, klezmer light flavor and strong West Coast harmonies! Yes, from now I know I really love this band!

One of the best American RIO album I ever heard! Should attract wide circles of listeners (unless you're allergic to folklore in your music or some radical lyrics).Very recommended.

~ snobb, Progarchives

Sometimes you just can't say it any better: "For 8 years Charming Hostess was a rock band that blended eerie harmonies, complex rhythms, and a playfulness about gender. Charming Hostess drew on women's vocal traditions (primarily from Eastern Europe and North Africa), and integrated them with American folk forms both white and black."

So says the Charming Hostess website, and so it is. Eat, the group's first CD, was a revelation: taking folk musics both familiar and unfamiliar and blending them into their twisted mix of rock, jazz, and funk. It's a testament to their creativity that seven years later, there still isn't anything that sounds quite like it, with the exception of the band's long-delayed followup album, Punch. The majority of the songs here are traditional folk songs arranged by Jewlia Eisenberg for Charming Hostess' three-woman harmonized vocal attack, as well as their often quirky instrumental inclinations (many of which involve tricky time signatures). You'll find Hungarian, Judeo-Spanish, Judeo-Turkish, African-American, and Bulgarian traditional songs, in addition to oddities like a rearrangement of "Won't You Keep Us Working" by The Residents and a tremendously effective musical interpretation of the Yiddish proverb "Sha Shtil."

With such a diversity of source material, it's a testament to Eisenberg's vision that Eat still feels coherent, and Charming Hostess maintains a distinct and unmistakable identity. At the core of that identity are the three wonderfully talented vocalists, whose voices blend in pleasing and addictive ways throughout the album. But there's also an irrepressible sense of humor, a strange edge to the lyrical content (much of which deals with gender roles and identity and intimate relationships), and an overall playfulness that holds everything together. In fact, it's the more playful pieces — the catchy "Klezsex" and the funked-up, rocked-out Bulgarian folksong "Elenke," on which Jenny Scheinman absolutely shines on electric violin, among them — that are my lasting favorites.

The members of the sadly now-defunct Charming Hostess "big band" are true musical chameleons — some members of groups like Sleepytime Gorilla Museum, Faun Fables, and so on, some active in the prolific West Coast avant-jazz scene — so it should be no surprise that Eat is similarly schizophrenic. Yet somehow it all fits together beautifully: with this album, Jewlia Eisenberg successfully found common threads that run through all folk musics regardless of the extent of their separation in time and space. Not only that, but she took those threads and ran with them, weaving them into a fantastic and inspiring whole.

review by Brandon Wu, Progreviews

Самый первый диск, записанный Джулией Эйзенберг со товарищи. Тогда "сотоварищи" назывались Charming Hostess Big Band. Диск был выпущен на Vaccination Records крохотным тиражом, и был мгновенно распродан. Двумя годоми позже диск был переиздан, и добавлены 2 бонус трека, записанных, видимо, в церкви на коллективных распевках.

… диск и вправду выдающийся, даром, что дебютный. Такая невероятная смесь фолка восточной Европы (болгарские, испанские, мадьярские народные песни), северной Африки, иудейских комьюнити Европы и Азии, и - банального рока, фанка и джаза, аранжированные и спетые а капелла бесподобной Джулией и ребятами…

~ tatuk
Jewlia Eisenberg (Charming Hostess, Red Pocket) - 7 Albums (1998 - 2010) Re-up

Tracklist:

1. Dali Tzerni — 2:30
2. Laws of Physics — 4:19
3. Mi Nuera — 3:14
4. Won't You Keep Us Working — 2:35
5. Give Him a Little Time — 4:11
6. Mi Dimandas — 2:22
7. Ferret Said — 5:40
8. Dilmando Dilbero — 1:40
9. Oh Julie — 3:25
10. Sha Shtil — 3:25
11. Klezsex — 2:26
12. Elenke — 5:23
13. I'm Not Hungry — 2:15
14. When Jesus Christ Was Here on Earth — 4:03

Bonus tracks:

15. Cici Bunici
16. Poor Lazarus

Personnel:

- Dan Rathburn / bass
- Wes Anderson / drums , percussion
- Jenny Scheinman / violin
- Nils Frykdahl / saxophone, flute, guitar, percussion
- Carla Kihlstedt / vocals
- Nina Rolle / vocals
- Jewlia Eisenberg / vocals, band leader

Exact Audio Copy V0.99 prebeta 5 from 4. May 2009

EAC extraction logfile from 9. March 2010, 21:48

Charming Hostess / Eat

Used drive : LITE-ON COMBO LTC-48161H Adapter: 0 ID: 0

Read mode : Secure
Utilize accurate stream : Yes
Defeat audio cache : Yes
Make use of C2 pointers : No

Read offset correction : 6
Overread into Lead-In and Lead-Out : No
Fill up missing offset samples with silence : Yes
Delete leading and trailing silent blocks : No
Null samples used in CRC calculations : Yes
Used interface : Native Win32 interface for Win NT & 2000

Used output format : User Defined Encoder
Selected bitrate : 768 kBit/s
Quality : High
Add ID3 tag : No
Command line compressor : C:\Program Files\Exact Audio Copy\FLAC\FLAC.EXE
Additional command line options : -8 -V -T "ARTIST=%a" -T "TITLE=%t" -T "ALBUM=%g" -T "DATE=%y" -T "TRACKNUMBER=%n" -T "GENRE=%m" -T "COMMENT=EAC FLAC -8" %s


TOC of the extracted CD

Track | Start | Length | Start sector | End sector
––––––––––––––––––––––––––––-
1 | 0:00.00 | 2:32.13 | 0 | 11412
2 | 2:32.13 | 4:20.73 | 11413 | 30985
3 | 6:53.11 | 3:14.35 | 30986 | 45570
4 | 10:07.46 | 2:37.47 | 45571 | 57392
5 | 12:45.18 | 4:15.32 | 57393 | 76549
6 | 17:00.50 | 2:22.24 | 76550 | 87223
7 | 19:22.74 | 5:42.61 | 87224 | 112934
8 | 25:05.60 | 1:41.17 | 112935 | 120526
9 | 26:47.02 | 3:27.43 | 120527 | 136094
10 | 30:14.45 | 3:26.12 | 136095 | 151556
11 | 33:40.57 | 2:28.15 | 151557 | 162671
12 | 36:08.72 | 5:26.31 | 162672 | 187152
13 | 41:35.28 | 2:25.70 | 187153 | 198097
14 | 44:01.23 | 4:05.11 | 198098 | 216483
15 | 48:06.34 | 1:24.21 | 216484 | 222804
16 | 49:30.55 | 4:06.20 | 222805 | 241274


Range status and errors

Selected range

Filename C:\EAC\Charming Hostess - Eat.wav

Peak level 100.0 %
Range quality 100.0 %
Copy CRC 91E9E7BF
Copy OK

No errors occurred


AccurateRip summary

Track 1 not present in database
Track 2 not present in database
Track 3 not present in database
Track 4 not present in database
Track 5 not present in database
Track 6 not present in database
Track 7 not present in database
Track 8 not present in database
Track 9 not present in database
Track 10 not present in database
Track 11 not present in database
Track 12 not present in database
Track 13 not present in database
Track 14 not present in database
Track 15 not present in database
Track 16 not present in database

None of the tracks are present in the AccurateRip database

End of status report

AUDIOCHECKER v2.0 beta (build 457) - by Dester - opdester@freemail.hu
~~~~~~~~~~~~~~~~~~~~~~~~~~~~~~~~~~
-=== DO NOT EDIT THIS FILE! ===-

Path: …\Charming Hostess - Eat (2000 Remastered) 1998

1 -=- Charming Hostess - Eat.flac -=- MPEG (95%)

146549172

[Verification date: 20.03.2011 19:26:45]
[Disc ID: 001f69f2-01798e12-da0c9110]
Track [ CRC ] Status
01 [f6767f2f] (01/01) Accurately ripped as in pressing(s) #1
02 [82e06e8b] (01/01) Accurately ripped as in pressing(s) #1
03 [0e3dae8c] (01/01) Accurately ripped as in pressing(s) #1
04 [4418b439] (01/01) Accurately ripped as in pressing(s) #1
05 [9aed630d] (01/01) Accurately ripped as in pressing(s) #1
06 [89152b96] (01/01) Accurately ripped as in pressing(s) #1
07 [0d0fc6e0] (01/01) Accurately ripped as in pressing(s) #1
08 [4e782872] (01/01) Accurately ripped as in pressing(s) #1
09 [5a8f7418] (01/01) Accurately ripped as in pressing(s) #1
10 [959b9825] (01/01) Accurately ripped as in pressing(s) #1
11 [f8f11b59] (01/01) Accurately ripped as in pressing(s) #1
12 [71cc4d61] (01/01) Accurately ripped as in pressing(s) #1
13 [bc1a747d] (01/01) Accurately ripped as in pressing(s) #1
14 [2a99ad14] (01/01) Accurately ripped as in pressing(s) #1
15 [a71de1a1] (01/01) Accurately ripped as in pressing(s) #1
16 [437becbb] (01/01) Accurately ripped as in pressing(s) #1

Track [ CRC32 ] [W/O NULL] [ LOG ]
– [91E9E7BF] [686EAF0D] CRC32
01 [7911BE4B] [525C5D15]
02 [6AB1358B] [2B515E1E]
03 [B879AA3C] [FB3F3A65]
04 [785F6DF6] [46AD0FCD]
05 [0FF8ECA4] [165B14B3]
06 [FFEDDBB0] [ADC23B00]
07 [BD6501B0] [E17DC2A7]
08 [2EC79CB1] [BE120551]
09 [CB3C5287] [442D8061]
10 [090B5434] [D6077C42]
11 [5A0AD012] [84E79042]
12 [99DEC23F] [98C6382D]
13 [822849F3] [F2C6759F]
14 [FC8B68ED] [6A73FC3B]
15 [4BD75ADB] [8E1CC5E3]
16 [30601856] [DA1DD2BA]

AuSpec:
Jewlia Eisenberg (Charming Hostess, Red Pocket) - 7 Albums (1998 - 2010) Re-up

Horizontal thick line = 5 khz; thin line = 1 Khz

Jewlia Eisenberg (Charming Hostess, Red Pocket) - 7 Albums (1998 - 2010) Re-up

––––––––––––––––––––––––––––––––––––––––––––

Jewlia Eisenberg (Charming Hostess, Red Pocket) - 7 Albums (1998 - 2010) Re-up

CD02: Charming Hostess - Punch (2004):
EAC | Flac(Image) + Cue + Log | MP3 CBR 320Kbps
Scans -> 35 Mb | Recommended Records ReR Ch1 | ~ 380 + 154 Mb

Charming Hostess third album is a great example of the "melodic" side of RIO showing in the 13 songs of this release very jazzy and proggy rhythmic sections but never losing the avant garde sense of music.
Beside the powerful rhythmical work full of jazzy, prog and tribal sections, Charming Hostess has a powerful talented duo of female singers which gives to the music a particular taste, even when the band plays songs like "Long Black Veil", an awsome track which works like a perfect country-rock-avant garde ballad…

The strong and complex work on guitars, bass, basoon and cello is the element which complete the characteristics that turns the music of Charming Hostess into an interesting and necessary album to any RIO fan.

Some highlights: "Aysh Ye Kdish", a jew/Eastern Euorpe folk song with a strong rhythmical base; "Torso", a powerful song full of surprising twists which reminds some Miriodor late works; "Street Of Tubing", the harder song of the album but also dark and thrilling; "Rise" maybe the songs that's closer to the "traditional" RIO from the 80's; "Lady Gay" the proggiest song of the album even when some twists that reminds early Gong works and suprising almost epical sections…

~ progadicto, Progarchives

Charming Hostess is the kind of band that makes for frustrating reviewing, because they integrate so many folk musics into their sound that trying to describe their music and their influences is bound to make all but the most widely-listened reviewer feel inadequate. I might say that, on Punch, this six-piece band draws from Jewish, Eastern European, and American folk traditions, but that list is both too limited and too shallow. So let's settle with this: Charming Hostess take three female vocalists, some of the musicians from the wacky, heavy, theatrical (and, yes, proggy) rock groups Sleepytime Gorilla Museum and Idiot Flesh, and aim their collected talents at a music target that itself is an eclectic collection of folk, rock, funk, and general weirdness.
Even in their big-band format (currently the group is three singers with no other members; Punch was recorded several years ago when the big band still existed), the core of Charming Hostess' sound are the harmonized voices of the three female singers. Those voices carry the melodies and sing slightly twisted lyrics (in a variety of languages) about sexuality, gender, and other life issues and topics not typically tackled in such a whimsical musical manner. Here, as on the debut Eat, the singers are augmented by diverse instrumentation, and the results range from the relatively straight-up country & western of the Lefty Frizzell cover "Long Black Veil" (a personal favorite of mine on this album) to traditional Turkish, Palestinian, Transylvanian, and African-American songs all arranged by the deft hand of bandleader Jewlia Eisenberg. All of these traditional songs are given a distinct spin courtesy of those beautiful harmonized vocals and a touch of instrumental weirdness — odd time signatures, the occasional electric funk bass line, and some driving rhythmic rock-outs.

Initially, Punch didn't grab me quite the way Eat did, probably just because the latter was such a revelation, and this release is in a sense just more of the same. The instant-gratification impact of rockified, funkified folk songs like "Dali Tzerni" or "Klezsex" isn't here. But the lessened obviousness gives way to a perhaps more subtle beauty and balance in composition, and with further listen I think this long-delayed album is close to the equal of its predecessor. Punch's improved production quality, fuller and less brittle, helps as well. It's a shame this version of the band no longer exists, but having Punch finally see the light of the day is a great treat indeed.

review by Brandon Wu, Progreviews
Jewlia Eisenberg (Charming Hostess, Red Pocket) - 7 Albums (1998 - 2010) Re-up

Tracklist:

1. Ms Lot — 1:39
2. Aish Ye Kdish — 3:18
3. Heaven Sitting Down — 4:05
4. Torso — 4:40
5. Esturlu — 2:44
6. Long Black Veil — 4:42
7. Street of Tubing — 5:07
8. Two Boys — 2:27
9. Rise — 4:30
10. Kaffe Turke — 1:35
11. Szerelem — 4:27
12. Lady Gay — 7:01
13. The Procedure and King Cobra — 4:14

Personnel:

Jewlia Eisenberg, vocals, musical direction;
Carla Kihlstedt, vocals, fiddle;
Nina Rolle, vocals, accordion;
Wesley Anderson, drums, percussion, vocals;
Nils Frykdahl, gutiar, sax, flute, didgeridoo, percussion, vocals;
Dan Rathbun, bass, gumby, vocals

Exact Audio Copy V0.99 prebeta 5 from 4. May 2009

EAC extraction logfile from 9. March 2010, 18:53

Charming Hostess / Punch

Used drive : LITE-ON COMBO LTC-48161H Adapter: 0 ID: 0

Read mode : Secure
Utilize accurate stream : Yes
Defeat audio cache : Yes
Make use of C2 pointers : No

Read offset correction : 6
Overread into Lead-In and Lead-Out : No
Fill up missing offset samples with silence : Yes
Delete leading and trailing silent blocks : No
Null samples used in CRC calculations : Yes
Used interface : Native Win32 interface for Win NT & 2000

Used output format : User Defined Encoder
Selected bitrate : 768 kBit/s
Quality : High
Add ID3 tag : No
Command line compressor : C:\Program Files\Exact Audio Copy\FLAC\FLAC.EXE
Additional command line options : -8 -V -T "ARTIST=%a" -T "TITLE=%t" -T "ALBUM=%g" -T "DATE=%y" -T "TRACKNUMBER=%n" -T "GENRE=%m" -T "COMMENT=EAC FLAC -8" %s


TOC of the extracted CD

Track | Start | Length | Start sector | End sector
––––––––––––––––––––––––––––-
1 | 0:00.00 | 1:39.41 | 0 | 7465
2 | 1:39.41 | 3:18.02 | 7466 | 22317
3 | 4:57.43 | 4:05.45 | 22318 | 40737
4 | 9:03.13 | 4:40.37 | 40738 | 61774
5 | 13:43.50 | 2:44.58 | 61775 | 74132
6 | 16:28.33 | 4:42.27 | 74133 | 95309
7 | 21:10.60 | 5:09.24 | 95310 | 118508
8 | 26:20.09 | 2:27.66 | 118509 | 129599
9 | 28:48.00 | 4:30.15 | 129600 | 149864
10 | 33:18.15 | 1:35.59 | 149865 | 157048
11 | 34:53.74 | 4:27.16 | 157049 | 177089
12 | 39:21.15 | 7:01.02 | 177090 | 208666
13 | 46:22.17 | 4:14.48 | 208667 | 227764


Range status and errors

Selected range

Filename C:\EAC\Charming Hostess - Punch.wav

Peak level 100.0 %
Range quality 100.0 %
Copy CRC EE360D5F
Copy OK

No errors occurred


AccurateRip summary

Track 1 accurately ripped (confidence 1) [2125C915]
Track 2 accurately ripped (confidence 1) [A0EE3370]
Track 3 accurately ripped (confidence 1) [59BE63D8]
Track 4 accurately ripped (confidence 1) [783FBF9A]
Track 5 accurately ripped (confidence 1) [CC2A0C07]
Track 6 accurately ripped (confidence 1) [AE5FC278]
Track 7 accurately ripped (confidence 1) [3C661A64]
Track 8 accurately ripped (confidence 1) [19C483A1]
Track 9 accurately ripped (confidence 1) [E3388679]
Track 10 accurately ripped (confidence 1) [84C0F653]
Track 11 accurately ripped (confidence 1) [D8A1D0AF]
Track 12 accurately ripped (confidence 1) [3BEF7737]
Track 13 accurately ripped (confidence 1) [DADE7B95]

All tracks accurately ripped

End of status report

AUDIOCHECKER v2.0 beta (build 457) - by Dester - opdester@freemail.hu
~~~~~~~~~~~~~~~~~~~~~~~~~~~~~~~~~~
-=== DO NOT EDIT THIS FILE! ===-

Path: …\Charming Hostess - Punch 2004

1 -=- Charming Hostess - Punch.flac -=- CDDA (99%)

155626932

[Verification date: 20.03.2011 19:27:25]
[Disc ID: 00166f4d-00e561e4-a30bdc0d]
Track [ CRC ] Status
01 [2125c915] (02/02) Accurately ripped as in pressing(s) #1
02 [a0ee3370] (02/02) Accurately ripped as in pressing(s) #1
03 [59be63d8] (02/02) Accurately ripped as in pressing(s) #1
04 [783fbf9a] (02/02) Accurately ripped as in pressing(s) #1
05 [cc2a0c07] (02/02) Accurately ripped as in pressing(s) #1
06 [ae5fc278] (02/02) Accurately ripped as in pressing(s) #1
07 [3c661a64] (02/02) Accurately ripped as in pressing(s) #1
08 [19c483a1] (02/02) Accurately ripped as in pressing(s) #1
09 [e3388679] (02/02) Accurately ripped as in pressing(s) #1
10 [84c0f653] (02/02) Accurately ripped as in pressing(s) #1
11 [d8a1d0af] (02/02) Accurately ripped as in pressing(s) #1
12 [3bef7737] (02/02) Accurately ripped as in pressing(s) #1
13 [dade7b95] (02/02) Accurately ripped as in pressing(s) #1

Track [ CRC32 ] [W/O NULL] [ LOG ]
– [EE360D5F] [154E0CB8] CRC32
01 [FC7F2AFD] [2F483E9C]
02 [3056F9ED] [06CC584B]
03 [6BA19785] [92BDF296]
04 [4E90A3B7] [1E1EBDD4]
05 [4CFCA196] [F5838FE2]
06 [11FD112B] [93949F92]
07 [F0A0208C] [3D6F91D4]
08 [A4858EDF] [5B06838A]
09 [99ADF3DA] [A8F00EBC]
10 [4C0DEFEA] [73696BE9]
11 [50DA79CF] [F8023A64]
12 [2FEC2510] [CBF9A55B]
13 [58196D2D] [B9444607]

Jewlia Eisenberg (Charming Hostess, Red Pocket) - 7 Albums (1998 - 2010) Re-up

––––––––––––––––––––––––––––––––––––––––––––

Jewlia Eisenberg (Charming Hostess, Red Pocket) - 7 Albums (1998 - 2010) Re-up

CD03: Charming Hostess - Sarajevo Blues (2004):
EAC | Flac(Image) + Cue + Log | MP3 CBR 320Kbps
Scans Included | Tzadik, TZ7197 | ~ 275 + 119 Mb

If Zap Mama included Jewish and Balkan musical influences in their repertoire they'd probably sound almost as good as Charming Hostess. But that would just be the sound. Try to imagine Zap Mama's material if their song selection criteria included a desire to match voice to unconventional songtexts to convey poetry and prose to the ear. Sounds intellectual and intimidating, especially when you consider that bandleader Eisenberg's last outing set to music the diaries of Walter Benjamin and Asja Lacis. But this, this CD? It swings. The joy of three amazing strong women's voices entwining, weaving … it's the most wonderful vocal pick-me-up I've heard in ages.

Eisenberg met Sarajevo poet Semezdin Mehmedinovic at a bar in Berkeley. Where else? (Although I, myself, happened to have been in Sarajevo before the war, and then soon after. I met typographers and teachers but no poets. So it goes. But it also means that I see a physical city, before and after the war, as I read the poems.)

Sem's poems about being in Sarajevo during the siege are piercing and personal. Reading them quietly, in the sunlight by our living room window is revealing. Listening to them set to music, set to Bosnian, Jewish, African, American melodies makes them real and personal. It's as thought the band has discovered the ultimate art of typography—the ability to convey words such that one doesn't notice that one is reading—and used music to translate from writing to the ear directly.

The album opens with a couple of traditional Bosnian Jewish songs that are welcome and beautiful. Think of Flory Jagoda (another Sarajevo poet) with three voices weaving in and out with perfect balkan-style harmonies. The CD closes with a couple of covers, unfamiliar to me, but which clearly belong.

The poetry is the main thing. In five minutes, Sem's prose, "The Tunnel" becomes a universe of despair, then meditation in a way that I missed entirely on my own reading of the full piece. It is about the narrow tunnel through which the city was supplied during the siege: "… I was ready to lay down and die right where I was 'till I found a spot that was a little wider, made to put aside the dead, so the living could pass. I just stayed right there, for hours, underground, and thought of Radovan." Similarly, the solo mixing of pure Serbo-Croatian voice (oops, sorry, it's called "Bosnian" now, as though a separate language) alternating with English solo voice on "What will you remember" is sublime and beautiful, accompanied only by spare instrumentation and background hums. In the priginal prose piece, the poet ruminates on memory and harks back and forth to 10 years ago and the movie "BladeRunner. Here, the group takes the last paragraph and captures a moment outside the scope of war, of children sledding: "those who are in love with their sleds and those who just love sledding", and holds on to that memory. "I know that, when everything passes, I'll remember this too…."

My favorite piece, however, is "Death is a Job". It could be on top 10 radio but for it's unsentimental look at a photographer waiting for someone to be shot so that he can sell the photograph to a news journal. Still, the voices just SOAR. Doowop for the nineties in Sarajevo. Even in recording despair and utter helplessness, Charming Hostess find the life in the words and turn them into a defiant celebration. On the other hand, my next favorite is the spoken, short piece, "Open Dialogue" in which they manage to skewer people's expectations and stereotypes of ethnicity and the blue/red states of the former Yugoslavia. It reminds me of Laurie Anderson's piece about Walter Benajamin in its mix of spoken voice and music, and the much to think about embodied by the dialogue. Also of note is the following piece, Adam, by Celia Dropkin, which seems to be Hebrew? (or maybe it's all Serbo-Croatian, some sung with a conspicuous modern Hebrew accent!). The album's concluding song, "Aish Ye K'dish" is definitely Serbo-Croatian with a wonderful mix of harder instrumental accompaniment and singing, all to wonderful Balkan melodies.

This is my favorite album since the first Charming Hostess album, now out of print, Eat. The only thing better than hearing ChoHo on disk is hearing them live. As I type these words, they are singing their way across the country. For those who catch them live, this review will be a pale confirmation of the wonderful, and, like the memory of children sledding on a cold January day, an affirmation of the power of voice to convey word and thought to heal and to sustain. In summary, this is a wonderful album, and possibly unlike any other that you've heard. Buy it. Then bring the band to your town to sing live

Reviewed by Ari Davidow, 29 Mar 2005

Основой диска послужила одноимённая книга балканского поэта Семездина Мемединовича, с которым Джулия случайно познакомилась в одном баре в Беркли. Как и остальные альбомы, этот альбом представляет собой смесь всевозможных музык - балканской, еврейской, африканской, имя им легион.
Самый, наверное, сильный диск получился после Eat. Издан маэстрой Зорном на TSADIK'е.

~ tatuk
Jewlia Eisenberg (Charming Hostess, Red Pocket) - 7 Albums (1998 - 2010) Re-up

Tracklist:

1. Viva Orduenya (trad., arr. Jewlia Eisenberg) 4:35
2. Si veriash la rana (trad., arr. Jewlia Eisenberg) 1:52
3. War (words: Semezdin Mehmedinovic, trans. Ammiel Alcalay; music: JE) 2:39
4. The Tunnel (words: Semezdin Mehmedinovic, trans. Ammiel Alcalay; music: JE) 4:55
5. Imam Bey's Mosque (words: Semezdin Mehmedinovic, trans. Ammiel Alcalay; music: trad., arr. JE) 2:53
6. Exodus (words: Semezdin Mehmedinovic, trans. Ammiel Alcalay; music: JE) 2:58
7. Expulsion (words: Semezdin Mehmedinovic, trans. Ammiel Alcalay; music: JE) 0:50
8. What will you remember (words: Semezdin Mehmedinovic, trans. Ammiel Alcalay; music: trad., arr. JE) 3:54
9. Grbavica (words: Semezdin Mehmedinovic, trans. Ammiel Alcalay; music: JE) 1:42
10. Death is a job (words: Semezdin Mehmedinovic, trans. Ammiel Alcalay; music: JE) 3:12
11. A relatively calm day (words: Semezdin Mehmedinovic, trans. Ammiel Alcalay; music: JE) 2:45
12. Zenica blues (words: Semezdin Mehmedinovic, trans. Ammiel Alcalay; music: JE) 4:10
13. Open dialogue (words: Semezdin Mehmedinovic, trans. Ammiel Alcalay; music: JE) 0:44
14. Adam (words: Celia Dropkin; music: Roy Yarkoni) 3:08
15. Aish ye k'dish (Sabreen; arr. w/Charming Hostess))3:18

Personnel:

Jewlia Eisenberg: voice, harmonium
Marika Hughes: voice, cello
Cynthia Taylor: voice

Special Guests:
Wesley Anderson, Juliet Lee: drums
Tim Barsky: beatbox
Devin Hoff: double bass
Carla Kihlstedt: violin
Dan Rathbun: bass
Nils Frykdahl: nylon oud, voice
Ishay Sommer: guitars, electronics
Roy Yarkoni: keyboards
Yoav Klein: bassoons

Exact Audio Copy V0.99 prebeta 5 from 4. May 2009

EAC extraction logfile from 9. March 2010, 19:54

Charming Hostess / Sarajevo Blues

Used drive : LITE-ON COMBO LTC-48161H Adapter: 0 ID: 0

Read mode : Secure
Utilize accurate stream : Yes
Defeat audio cache : Yes
Make use of C2 pointers : No

Read offset correction : 6
Overread into Lead-In and Lead-Out : No
Fill up missing offset samples with silence : Yes
Delete leading and trailing silent blocks : No
Null samples used in CRC calculations : Yes
Used interface : Native Win32 interface for Win NT & 2000

Used output format : User Defined Encoder
Selected bitrate : 768 kBit/s
Quality : High
Add ID3 tag : No
Command line compressor : C:\Program Files\Exact Audio Copy\FLAC\FLAC.EXE
Additional command line options : -8 -V -T "ARTIST=%a" -T "TITLE=%t" -T "ALBUM=%g" -T "DATE=%y" -T "TRACKNUMBER=%n" -T "GENRE=%m" -T "COMMENT=EAC FLAC -8" %s


TOC of the extracted CD

Track | Start | Length | Start sector | End sector
––––––––––––––––––––––––––––-
1 | 0:00.00 | 4:36.25 | 0 | 20724
2 | 4:36.25 | 1:53.21 | 20725 | 29220
3 | 6:29.46 | 2:41.21 | 29221 | 41316
4 | 9:10.67 | 4:56.53 | 41317 | 63569
5 | 14:07.45 | 2:54.46 | 63570 | 76665
6 | 17:02.16 | 2:56.21 | 76666 | 89886
7 | 19:58.37 | 0:49.54 | 89887 | 93615
8 | 20:48.16 | 3:54.26 | 93616 | 111191
9 | 24:42.42 | 1:44.04 | 111192 | 118995
10 | 26:26.46 | 3:13.23 | 118996 | 133493
11 | 29:39.69 | 2:47.25 | 133494 | 146043
12 | 32:27.19 | 4:11.05 | 146044 | 164873
13 | 36:38.24 | 0:44.70 | 164874 | 168243
14 | 37:23.19 | 3:09.40 | 168244 | 182458
15 | 40:32.59 | 3:18.15 | 182459 | 197323


Range status and errors

Selected range

Filename C:\EAC\Charming Hostess - Sarajevo Blues.wav

Peak level 100.0 %
Range quality 100.0 %
Copy CRC 0C53C9C1
Copy OK

No errors occurred


AccurateRip summary

Track 1 not present in database
Track 2 not present in database
Track 3 not present in database
Track 4 not present in database
Track 5 not present in database
Track 6 not present in database
Track 7 not present in database
Track 8 not present in database
Track 9 not present in database
Track 10 not present in database
Track 11 not present in database
Track 12 not present in database
Track 13 not present in database
Track 14 not present in database
Track 15 not present in database

None of the tracks are present in the AccurateRip database

End of status report

AUDIOCHECKER v2.0 beta (build 457) - by Dester - opdester@freemail.hu
~~~~~~~~~~~~~~~~~~~~~~~~~~~~~~~~~~
-=== DO NOT EDIT THIS FILE! ===-

Path: …\Charming Hostess - Sarajevo Blues 2004

1 -=- Charming Hostess - Sarajevo Blues.flac -=- CDDA (100%)

81139380

[Verification date: 20.03.2011 19:27:55]
[Disc ID: 0018fcfd-01168c0e-c00a460f]
Track [ CRC ] Status
01 [d2596663] (02/02) Accurately ripped as in pressing(s) #1
02 [b4ecc9aa] (02/02) Accurately ripped as in pressing(s) #1
03 [316f9893] (02/02) Accurately ripped as in pressing(s) #1
04 [b2db6df8] (02/02) Accurately ripped as in pressing(s) #1
05 [a5dcb113] (02/02) Accurately ripped as in pressing(s) #1
06 [0a3a5b48] (02/02) Accurately ripped as in pressing(s) #1
07 [cd14f9d8] (02/02) Accurately ripped as in pressing(s) #1
08 [95fde7e6] (02/02) Accurately ripped as in pressing(s) #1
09 [c03fcd11] (02/02) Accurately ripped as in pressing(s) #1
10 [a330e8c8] (02/02) Accurately ripped as in pressing(s) #1
11 [e02d709c] (02/02) Accurately ripped as in pressing(s) #1
12 [e8964303] (02/02) Accurately ripped as in pressing(s) #1
13 [07f72d2d] (02/02) Accurately ripped as in pressing(s) #1
14 [3b4d0234] (02/02) Accurately ripped as in pressing(s) #1
15 [e796b523] (02/02) Accurately ripped as in pressing(s) #1

Track [ CRC32 ] [W/O NULL] [ LOG ]
– [0C53C9C1] [FAB081E9] CRC32
01 [6CE1C275] [B9BFE86D]
02 [9CC406E3] [2918904D]
03 [EC91CF04] [DBAB3E07]
04 [3F9EA31B] [0F0344CD]
05 [DB385AFF] [1B1894F3]
06 [7CC1119C] [CE4AF1C3]
07 [069A3327] [825054FC]
08 [20E2E1DA] [A8C601AE]
09 [4003E892] [915D0B5E]
10 [2F35B0C0] [D75CD8EF]
11 [CCCE7E14] [307E3B74]
12 [A2D77B69] [384FD549]
13 [9B0A30C5] [204624B0]
14 [7D0B5D0F] [480B1701]
15 [929D82FF] [0BA7193F]

Jewlia Eisenberg (Charming Hostess, Red Pocket) - 7 Albums (1998 - 2010) Re-up

––––––––––––––––––––––––––––––––––––––––––––

Jewlia Eisenberg (Charming Hostess, Red Pocket) - 7 Albums (1998 - 2010) Re-up

CD04: Charming Hostess - Bowls Project (2010):
EAC | Flac(Image) + Cue + Log | MP3 CBR 320Kbps
Scans -> 133 Mb | Tzadik, TZ 8152 | ~ 387 + 131 Mb

The Apocalyptic Intimacy of Charming Hostess’s Bowls Project
By WMC_News_Dept.

As Eisenberg noticed from the first moment she idly opened a seemingly fusty dissertation filled with translations of these Aramaic texts from the time and place of the Talmud, these bowls speak-and loudly. They tell of demons, angels, and gods from a half dozen ancient cultures, all entwined with the secret passions and household heartbreaks of women living 1,500 years ago.

"I was instantly mesmerized by the voices in these bowls. In the entire Talmud, you never hear women talk about themselves in the "we" form; in demon bowls you hear it all the time. I chose to set Jewish bowls, but the form is cosmopolitan and deeply porous-a Jewish bowl might define the Divine as a Bird of Rivers, call out to Dlibat, the Babylonian goddess of love, or cast a spell from a sea monster. Demon bowls contain the greatest supernatural powers right next to small domestic scenes; normal household concerns interact with fiery angels and demons," Eisenberg recounts. "If you read one bowl text, you see this dynamic; the apocalyptic intimate. You don’t have to be a scholar or read Aramaic."

Over four years, Eisenberg began putting these texts to music, building on her fascination with the sounds of the female body-breaths, claps, sighs, stomps, and silence. With her fellow members of Charming Hostess, she incorporated elements from the drive and clamor of black metal (the martial exorcism of "Bound and Turned Aside") to American roots music ("Hangman") and the devotional songs embraced by Babylonian (Iraqi) Jews ("Yedidi").

Yet the touchstone remains the bowls. They record a world full of supernatural activity, haunting even the most ho-hum daily grind. Disguised demons afflicted families, and might even trick the unwary into marriage, forcing their unwitting spouses to seek divorces. The Leviathan shakes the earth. Angels march with swords, blocking gossipy neighbors and insuring sexual arousal.

"Demons and angels may seem remote to many of us, but in the world of the bowls, they were experienced as frequent house-guests with supernatural powers. They had rights, too, as members of the community," notes Eisenberg. "You could try to appease them, cajole them, or bully them with bowl incantations, but whatever you do, they are around, participating in everyday life. This is very clear in the bowls, and in the traditional music I chose for the album."

The thought of spirits swarming through the home may sound frightening, but their presence can also bring protection, as Eisenberg suggests in her haunting and unexpected transformation of the American religious song "Dying Bed (Khevra Kadisha)." With a nod to both Blind Willie Johnson and the Jewish rituals of keeping watch over the dead, Eisenberg invokes the intimate connection and peace that flows from encounters with forces beyond.

The bowl texts-written down at women’s request by professional scribes-are filled with hybrid deities and syncretic spells, spiraled incantations for health, fidelity, protection, and love.

Christians and Zoroastrians, Animists and Jews all shared gods, demons, and images as they recorded the secrets of their households-and then hid them, silently, in the earth, to protect their homes.

These women’s voices were forgotten as other texts and teachings from the time moved from the margins to the center. "The great canon of Jewish law, the Babylonian Talmud, is from the same era as these demon bowls," Eisenberg comments, "The Talmud became the shape of post-exilic Judaism. But at the time of its compilation in 200-600 CE, the bowls were the mainstream and the rabbis were at the fringe!"

This absorption of female power into male authority is stated explicitly in some of the texts themselves. "’Smamit‘", Eisenberg explains, "tells how three angels became empowered to protect babies in crib and women in labor. The story unfolds on the body of a woman with her own supernatural powers, which she loses along with her children, but these angels get the power. You rarely get to see the move away from female magic explored so deeply."

Eisenberg began to break the silence, as war raged in Iraq and a new crop of these artifacts turned up on the world market, due to looting, shelling, and theft. The bowls provided an unexpected entry, a chance for connection not only to women living millennia ago, but also to contemporary Iraqis and the ordinary lives of people often lost behind the civilizational myth of Sumer or the tortures of Falujah.

Eisenberg’s arrangements honor the often broken and fragmented nature of the bowls and their voices. Many of the bowls were found in pieces. And to confuse demons, the incantations would often include unpronounceable names or repeated letters. Eisenberg felt the unpronounceability had to stay: "Some of the text will just have a letter over and over again, a kind of a hissing sound to block a demon. Or it will have the letter ‘H’, a name for the Divine. I wanted to take the text and play with the parts that can’t be pronounced and the fragments," as she does in "Malakha."

The heart of the Bowls Project is connection, with a past, with people distant and different, and with a deep aspect of our shared experience. "These bowls are so personal that you can’t not relate to them," Eisenberg muses. "They are similar to our own experience even though they are phrased in their own apocalyptic intimate way. And if you can relate to woman living 1,500 years ago in what’s today Iraq, you can relate to someone living there now. That’s really central."

By WMC_News_Dept

Как говорит Джулия Эйзенберг, этот альбом основан на сексе, магии и Вавилонских амулетах. Звук получился неожиданно тяжёлороковым, но суть осталась прежней - Charming Hostess поют о жизни, пропустив её через себя…
Jewlia Eisenberg (Charming Hostess, Red Pocket) - 7 Albums (1998 - 2010) Re-up

Tracklist:

1. Bird of Rivers (2:14)
2. Bound and Turned Aside (3:20)
3. Dying Bed (3:31)
4. Malakha (2:57)
5. Hangman Devil Man (4:28)
6. Seven Spirits (2:19)
7. Yedidi (3:26)
8. Oh Barren One (4:27)
9. Peace Without Peace (4:15)
10. Yavo Ha-Goel (3:12)
11. Early in the Morning (3:37)
12. Smamit (3:35)
13. Demon Lover (4:22)
14. Merduk Bat Banai (2:55)
15. Da'ima (2:48)
16. Handu Bat Makhlapta (1:36)
17. Too Bad (2:24)

Personnel:

- Jewlia Eisenberg / voice, dulcimer, harmonium
- Marika Hughes / voice, cello
- Cynthia Taylor / voice
- Jason Ditzan / clarinets
- Shahzad Ishmaily / bass, percussion, guitar
- Ches Smith / drums, electronics
- Marc Ribot / guitar
- Jenny Scheinman / violin
- Megan Gould / violin
- Jessica Troy / viola
- Nils Frykdahl / voice
- Dawn McCarthy / voice
- Ganda Suthivarakom / voice
- Boris Martzinovsky / accordion
- Aaron Kierbel / tar
- Nir Waxman / beatnbox

Exact Audio Copy V1.0 beta 1 from 15. November 2010

EAC extraction logfile from 31. December 2010, 1:00

Charming Hostess / The Bowls Project

Used drive : SONY DVD RW DRU-830A Adapter: 1 ID: 0

Read mode : Secure
Utilize accurate stream : Yes
Defeat audio cache : Yes
Make use of C2 pointers : No

Read offset correction : 6
Overread into Lead-In and Lead-Out : No
Fill up missing offset samples with silence : Yes
Delete leading and trailing silent blocks : No
Null samples used in CRC calculations : Yes
Used interface : Native Win32 interface for Win NT & 2000

Used output format : User Defined Encoder
Selected bitrate : 768 kBit/s
Quality : High
Add ID3 tag : No
Command line compressor : C:\foobar2000\encoders\wavpack.exe
Additional command line options : -hlm %s


TOC of the extracted CD

Track | Start | Length | Start sector | End sector
––––––––––––––––––––––––––––-
1 | 0:00.00 | 2:14.26 | 0 | 10075
2 | 2:14.26 | 3:20.17 | 10076 | 25092
3 | 5:34.43 | 3:31.05 | 25093 | 40922
4 | 9:05.48 | 2:56.51 | 40923 | 54173
5 | 12:02.24 | 4:28.65 | 54174 | 74338
6 | 16:31.14 | 2:18.50 | 74339 | 84738
7 | 18:49.64 | 3:26.15 | 84739 | 100203
8 | 22:16.04 | 4:27.21 | 100204 | 120249
9 | 26:43.25 | 4:14.52 | 120250 | 139351
10 | 30:58.02 | 3:12.45 | 139352 | 153796
11 | 34:10.47 | 3:38.06 | 153797 | 170152
12 | 37:48.53 | 3:35.20 | 170153 | 186297
13 | 41:23.73 | 4:22.31 | 186298 | 205978
14 | 45:46.29 | 2:55.38 | 205979 | 219141
15 | 48:41.67 | 2:48.47 | 219142 | 231788
16 | 51:30.39 | 1:35.59 | 231789 | 238972
17 | 53:06.23 | 2:23.65 | 238973 | 249762


Range status and errors

Selected range

Filename C:\_kosta\FLAC\Charming Hostess - The Bowls Project.wav

Peak level 96.6 %
Extraction speed 0.2 X
Range quality 100.0 %
Copy CRC 191F0C26
Copy OK

No errors occurred


AccurateRip summary

Track 1 not present in database
Track 2 not present in database
Track 3 not present in database
Track 4 not present in database
Track 5 not present in database
Track 6 not present in database
Track 7 not present in database
Track 8 not present in database
Track 9 not present in database
Track 10 not present in database
Track 11 not present in database
Track 12 not present in database
Track 13 not present in database
Track 14 not present in database
Track 15 not present in database
Track 16 not present in database
Track 17 not present in database

None of the tracks are present in the AccurateRip database

End of status report

AUDIOCHECKER v2.0 beta (build 457) - by Dester - opdester@freemail.hu
~~~~~~~~~~~~~~~~~~~~~~~~~~~~~~~~~~
-=== DO NOT EDIT THIS FILE! ===-

Path: …\Charming Hostess - The Bowls Project(2010)(Tzadik TZCD8152)

1 -=- Charming Hostess - The Bowls Project.flac -=- CDDA (100%)

222275092

[Verification date: 25.03.2011 20:35:02]
[Disc ID: 00232c14-01c13747-e80d0211]
Disk not present in database.

Track [ CRC32 ] [W/O NULL] [ LOG ]
– [191F0C26] [9E2355BB] CRC32
01 [C4D47843] [C06FE0C5]
02 [7DE8986B] [E06E22C3]
03 [5C21EABE] [ABC3CC38]
04 [1D3DCA59] [98C7BDD1]
05 [9D1F1F0E] [401B1C63]
06 [5A1E4A58] [3113A6F7]
07 [6E872BE0] [E9D756C1]
08 [86024EA9] [F060F7AB]
09 [C1D22507] [52AC6033]
10 [9BB70024] [AB31884D]
11 [F22F27F9] [30B275D6]
12 [037E1DEA] [2B0861DB]
13 [AFA61E2F] [DABE11C1]
14 [69F29A9A] [8BD1BE05]
15 [D4F54B41] [3CCF82FF]
16 [B7166F83] [16879760]
17 [7303B746] [B7076102]


Jewlia Eisenberg (Charming Hostess, Red Pocket) - 7 Albums (1998 - 2010) Re-up

===========================

Red Pocket:

Jewlia Eisenberg (Charming Hostess, Red Pocket) - 7 Albums (1998 - 2010) Re-up

Red Pocket:

Where can you find the dark underbelly of the Supremes? With Red Pocket a bottom-heavy girl group where cello, bass, and drums groove under sassy vocals. Red Pocket’s genre-bending tunes will guarantee a soul-filled hoedown at the release party for their new CD, Thick released on Tzadik!

Jewlia Eisenberg plays bass and sings. Experimental vocal technique meets freak of the week. After years of leading avant-pop girlcore extravaganza Charming Hostess, the songs she writes for Red Pocket are filled with the joy of romance.

Marika Hughes plays cello and sings. Classically trained, she now prefers to rock the low end: Her cello parts incorporate lyrical melodies, funky bass riffs and rhythm guitar punch. Outside of her work with Red Pocket, she plays with Two Foot Yard, Etienne De Rocher, Eric McFadden.

Scott Amendola is an amazing drummer who plays with everyone (Nels Cline Singers, TJ Kirk, Scott Amendola Band) because he is so damn good. Incorporating live electronics and hand percussion with the genius of the great funky drummers, Scott holds the estrogen in Red Pocket together.

~Charming Hostess Homepage
Jewlia Eisenberg (Charming Hostess, Red Pocket) - 7 Albums (1998 - 2010) Re-up

CD05: Red Pocket - Thick (2004):
EAC | Flac(Image) + Cue + Log | MP3 CBR 320Kbps
Scans Included | Tzadik, TZ7710 | ~ 271 + 108 Mb

Sassy, brassy, brilliant and crude, Red Pocket operate in a rare air between The Roches, Meredith Monk and the Ramones, a funky art-punk full of wit and sexual directness. On the liner notes the artists quote Muriel Rukeyser: "What would happen if one woman told the truth about her life? The world would split open." One takes it for the album's intent, and if they sometimes mistake cleverness for truth, frank language for honesty, it is, nonetheless, a compelling opening salvo in what could be a highly significant career.

~ pezhydrox, Amazon customer review

Изменив название и взяв в руки музыкальные инструменты, Джулия и Марика остались верны себе и своему музыкальному стилю, создав ещё один прекрасный диск…
Jewlia Eisenberg (Charming Hostess, Red Pocket) - 7 Albums (1998 - 2010) Re-up

Tracklist:

1. Goodwife Keeping
2. Way It Is, The
3. Ceiling View
4. Muffoletta
5. I Can't Right Now
6. Romance
7. Very Last Muse, The
8. Never Two Weeks
9. Bottom Heavy
10. Stay Away
11. Don't Cry
12. Happy Family
13. No More One More

Personnel:

Marika Hughes (vocals, cello);
Jewlia Eisenberg (vocals, bass);
Scott Amendola (drums, percussion, electronics).

Exact Audio Copy V0.99 prebeta 5 from 4. May 2009

EAC extraction logfile from 9. March 2010, 20:10

Red Pocket / Thick

Used drive : LITE-ON COMBO LTC-48161H Adapter: 0 ID: 0

Read mode : Secure
Utilize accurate stream : Yes
Defeat audio cache : Yes
Make use of C2 pointers : No

Read offset correction : 6
Overread into Lead-In and Lead-Out : No
Fill up missing offset samples with silence : Yes
Delete leading and trailing silent blocks : No
Null samples used in CRC calculations : Yes
Used interface : Native Win32 interface for Win NT & 2000

Used output format : User Defined Encoder
Selected bitrate : 768 kBit/s
Quality : High
Add ID3 tag : No
Command line compressor : C:\Program Files\Exact Audio Copy\FLAC\FLAC.EXE
Additional command line options : -8 -V -T "ARTIST=%a" -T "TITLE=%t" -T "ALBUM=%g" -T "DATE=%y" -T "TRACKNUMBER=%n" -T "GENRE=%m" -T "COMMENT=EAC FLAC -8" %s


TOC of the extracted CD

Track | Start | Length | Start sector | End sector
––––––––––––––––––––––––––––-
1 | 0:00.00 | 2:38.05 | 0 | 11854
2 | 2:38.05 | 2:10.08 | 11855 | 21612
3 | 4:48.13 | 1:39.58 | 21613 | 29095
4 | 6:27.71 | 4:49.23 | 29096 | 50793
5 | 11:17.19 | 3:18.39 | 50794 | 65682
6 | 14:35.58 | 3:29.38 | 65683 | 81395
7 | 18:05.21 | 2:46.71 | 81396 | 93916
8 | 20:52.17 | 3:46.35 | 93917 | 110901
9 | 24:38.52 | 1:01.30 | 110902 | 115506
10 | 25:40.07 | 4:07.63 | 115507 | 134094
11 | 29:47.70 | 2:09.25 | 134095 | 143794
12 | 31:57.20 | 3:21.03 | 143795 | 158872
13 | 35:18.23 | 3:00.00 | 158873 | 172372


Range status and errors

Selected range

Filename C:\EAC\Red Pocket - Thick.wav

Peak level 100.0 %
Range quality 100.0 %
Copy CRC 55511739
Copy OK

No errors occurred


AccurateRip summary

Track 1 accurately ripped (confidence 1) [79D4835A]
Track 2 accurately ripped (confidence 1) [F854AB08]
Track 3 accurately ripped (confidence 1) [F525D9C5]
Track 4 accurately ripped (confidence 1) [8B3216CB]
Track 5 accurately ripped (confidence 1) [5982EC41]
Track 6 accurately ripped (confidence 1) [0EA65611]
Track 7 accurately ripped (confidence 1) [0C789D87]
Track 8 accurately ripped (confidence 1) [B30F170A]
Track 9 accurately ripped (confidence 1) [ADC0921D]
Track 10 accurately ripped (confidence 1) [5271887D]
Track 11 accurately ripped (confidence 1) [D460E2B8]
Track 12 accurately ripped (confidence 1) [C4FBCC9E]
Track 13 accurately ripped (confidence 1) [5249AA79]

All tracks accurately ripped

End of status report

AUDIOCHECKER v2.0 beta (build 457) - by Dester - opdester@freemail.hu
~~~~~~~~~~~~~~~~~~~~~~~~~~~~~~~~~~
-=== DO NOT EDIT THIS FILE! ===-

Path: …\Red Pocket - Thick 2004

1 -=- Red Pocket - Thick.flac -=- CDDA (100%)

114476932

[Verification date: 20.03.2011 19:30:31]
[Disc ID: 0012280b-00b73436-bb08fa0d]
Track [ CRC ] Status
01 [79d4835a] (02/02) Accurately ripped as in pressing(s) #1
02 [f854ab08] (02/02) Accurately ripped as in pressing(s) #1
03 [f525d9c5] (02/02) Accurately ripped as in pressing(s) #1
04 [8b3216cb] (02/02) Accurately ripped as in pressing(s) #1
05 [5982ec41] (02/02) Accurately ripped as in pressing(s) #1
06 [0ea65611] (02/02) Accurately ripped as in pressing(s) #1
07 [0c789d87] (02/02) Accurately ripped as in pressing(s) #1
08 [b30f170a] (02/02) Accurately ripped as in pressing(s) #1
09 [adc0921d] (02/02) Accurately ripped as in pressing(s) #1
10 [5271887d] (02/02) Accurately ripped as in pressing(s) #1
11 [d460e2b8] (02/02) Accurately ripped as in pressing(s) #1
12 [c4fbcc9e] (02/02) Accurately ripped as in pressing(s) #1
13 [5249aa79] (02/02) Accurately ripped as in pressing(s) #1

Track [ CRC32 ] [W/O NULL] [ LOG ]
– [55511739] [F91A1920] CRC32
01 [36353C89] [BA33EDA4]
02 [81C3ECB2] [4BBAE78E]
03 [BFE31EC6] [67630231]
04 [1CA922F5] [B1662BEE]
05 [54A8F169] [B60285F4]
06 [8E4405E4] [C282C907]
07 [64D53728] [19200990]
08 [53F7765B] [C6CDA06D]
09 [5DE6D06F] [DD87E836]
10 [2A3B630A] [595AEA68]
11 [A2E8A446] [AE6BD49E]
12 [A0730C39] [AA781CED]
13 [25570658] [92BC57D5]

Jewlia Eisenberg (Charming Hostess, Red Pocket) - 7 Albums (1998 - 2010) Re-up

===========================

Jewlia Eisenberg:

Jewlia Eisenberg (Charming Hostess, Red Pocket) - 7 Albums (1998 - 2010) Re-up

Jewlia Eisenberg:

Jewlia Eisenberg is an American composer. As founder and bandleader of Charming Hostess she coined the term "Nerdy-Sexy-Commie-Girly" to describe her genre of music which spans an eclectic range of styles.

Originally from New York City, Eisenberg became an integral member of the San Francisco Bay Area and the New York Downtown music scenes in the 1990s.

Her music is both physical, using voices, vocal percussion, handclaps, heartbeats, sex-breath and silence and also intellectual, exploring such topics as Bosnian genocide in Sarajevo Blues (2004) and the political/erotic nexus of Walter Benjamin and his Marxist muse in Trilectic (2002). Both of these works were released on John Zorn's Radical Jewish Series on Tzadik.

She has been commissioned from such sources as by the Sloan Foundation and the Goethe Institut SF and has received numerous awards, including: Trust for Mutual Understanding grant for collaboration with poets in ex-Yugoslavia, the Puffin Foundation grant for her Red Rosa project, a Katzenstein Fellow for collaboration with experimental architects and engineers as an Artist-In-Residence at MIT, a Rockefeller Foundation Multi-Arts Production Fund Grant for 'The Grim Arithmetic of Water, with aerial dance choreographer Jo Kreiter, a Goldman Fund Tikea Fellow for project-based radical film and music work with youth, and a Weisz Fellow for field research and recording among Jewish women in the Gondar region of Ethiopia. Eisenberg enjoyed a retreat as part of the Djerassi Resident Artists Program in October-November 2006

~ wiki
Jewlia Eisenberg (Charming Hostess, Red Pocket) - 7 Albums (1998 - 2010) Re-up

CD06: Jewlia Eisenberg - Trilectic (2001):
EAC | Flac(Image) + Cue + Log | MP3 CBR 320Kbps
Scans Included | Tzadik, TZ7155 | ~ 280 + 120 Mb

Vocal work has allowed itself to be moved deeply into the realm of the personal and the ritual. Whether it be the work of Meredith Monk and her personal, spiritual, and mythical narratives; Laurie Anderson's searching for the heart of her father; or David Moss and Phil Minton's seeking a personal abstraction that transcends the voice and culture altogether, there are many variations. Jewlia Eisenberg's take is different. For instance, the title word "trilectic" refers to the intersection of the texts and personages of three people: the critic and philosopher Walter Benjamin, the work and life of Russian revolutionary art queen Asja Lacis, and the noted Jewish author, translator, and editor Gershom Sholem. But it could also have been called "quartlectic" in that all of these texts and lives are read through her personal impressions, sensibilities, and body, sex, and life. Using primarily Benjamin's Moscow Diary, which sets forth his ideas of opposition as well as his seemingly unrequited love for Lacis, Lacis' own autobiography, and Sholem's introduction to Moscow Diary, Eisenberg, in the group Charming Hostess, uses a vocal and percussive ensemble that explores the dialectics and desires inherent in these texts as they come through her body. To the listener this is startling, raw, and full of stacked vocals and wanton expression; the words in these texts become her own wishing for the Muse to deliver what her desire demands. The music moves along quickly, entwined and enveloped between and within the chosen texts. Her vocal techniques employ everything from doo wop to Tuvan throat singing to bedroom histrionics; this is a provocative examination of a particular period in revolutionary history in which art is looked at in the light of production and reproduction and how it gets remade, recontextualized, and redesired in an age where art is all but forgotten. There is nothing academic about this CD – it breathes, pants, whispers, shouts, and lilts beautifully with everything from grief to joy to loneliness and conviction in every phrase.

~ Thom Jurek

Диск основан на любовных отношениях двух достаточно одиозных личностей начала прошлого века. Это, во-первых, Вальтер Беньямин, немецкий философ и критик эстетики, языковой культуры и истории, и, во-вторых, Ася Лацис, известная нам по школьному курсу истории латышская революционерка, подруга Мейерхольда, Брехта и Горького, одна из основателей пролетарского театра, "марксистская муза" и "королева агитпопа". В основу лирики положен "Московский Дневник" (1926-27) Беньямина, в котором он рассуждал одновременно о политике и эротике, о коммунизме и сионизме, о любви и идеологии масс…
Jewlia Eisenberg (Charming Hostess, Red Pocket) - 7 Albums (1998 - 2010) Re-up

Tracklist:

1. Mi Dimandas
2. Gershom Is Schocked
3. Meister of Culture
4. Fortress Moscow
5. Eskimo Suit
6. Secondary Purpose, The
7. If I Am Holding Out Fairly Well
8. Hebrew Textbook
9. Touch of Her Hands, The
10. Bread and Circuses
11. Moon and Asja, The
12. Dream of Me-Imagined Asja
13. Sicily
14. Guinea Tea
15. Social Contract
16. Bed, The Cafe, The
17. Dame la Mano
18. Durme, Durme
19. Adir Hu

Personnel:

Wes Anderson: Voice, Drums
Jewlia Eisenberg: Voice, Bass
Nils Frykdahl: Voice
Frank Grau: Vocal Percussion
Carla Kihlstedt: Voice, Shaker
Dawn McCarthy: Voice
Freddy Price: Whistle
Dan Rathbun: Voice
Nina Rolle: Voice

Exact Audio Copy V0.99 prebeta 5 from 4. May 2009

EAC extraction logfile from 9. March 2010, 20:01

Jewlia Eisenberg + Charming Hostess / Trilectic

Used drive : LITE-ON COMBO LTC-48161H Adapter: 0 ID: 0

Read mode : Secure
Utilize accurate stream : Yes
Defeat audio cache : Yes
Make use of C2 pointers : No

Read offset correction : 6
Overread into Lead-In and Lead-Out : No
Fill up missing offset samples with silence : Yes
Delete leading and trailing silent blocks : No
Null samples used in CRC calculations : Yes
Used interface : Native Win32 interface for Win NT & 2000

Used output format : User Defined Encoder
Selected bitrate : 768 kBit/s
Quality : High
Add ID3 tag : No
Command line compressor : C:\Program Files\Exact Audio Copy\FLAC\FLAC.EXE
Additional command line options : -8 -V -T "ARTIST=%a" -T "TITLE=%t" -T "ALBUM=%g" -T "DATE=%y" -T "TRACKNUMBER=%n" -T "GENRE=%m" -T "COMMENT=EAC FLAC -8" %s


TOC of the extracted CD

Track | Start | Length | Start sector | End sector
––––––––––––––––––––––––––––-
1 | 0:00.00 | 2:26.50 | 0 | 10999
2 | 2:26.50 | 2:49.45 | 11000 | 23719
3 | 5:16.20 | 1:29.52 | 23720 | 30446
4 | 6:45.72 | 2:57.00 | 30447 | 43721
5 | 9:42.72 | 2:00.40 | 43722 | 52761
6 | 11:43.37 | 1:32.55 | 52762 | 59716
7 | 13:16.17 | 2:01.53 | 59717 | 68844
8 | 15:17.70 | 2:16.70 | 68845 | 79114
9 | 17:34.65 | 2:42.57 | 79115 | 91321
10 | 20:17.47 | 2:34.10 | 91322 | 102881
11 | 22:51.57 | 1:53.13 | 102882 | 111369
12 | 24:44.70 | 3:54.62 | 111370 | 128981
13 | 28:39.57 | 4:22.25 | 128982 | 148656
14 | 33:02.07 | 0:26.63 | 148657 | 150669
15 | 33:28.70 | 1:05.35 | 150670 | 155579
16 | 34:34.30 | 2:01.17 | 155580 | 164671
17 | 36:35.47 | 2:35.18 | 164672 | 176314
18 | 39:10.65 | 2:27.02 | 176315 | 187341
19 | 41:37.67 | 2:35.30 | 187342 | 198996


Range status and errors

Selected range

Filename C:\EAC\Jewlia Eisenberg + Charming Hostess - Trilectic.wav

Peak level 99.8 %
Range quality 100.0 %
Copy CRC DF6DA89F
Copy OK

No errors occurred


AccurateRip summary

Track 1 not present in database
Track 2 not present in database
Track 3 not present in database
Track 4 not present in database
Track 5 not present in database
Track 6 not present in database
Track 7 not present in database
Track 8 not present in database
Track 9 not present in database
Track 10 not present in database
Track 11 not present in database
Track 12 not present in database
Track 13 not present in database
Track 14 not present in database
Track 15 not present in database
Track 16 not present in database
Track 17 not present in database
Track 18 not present in database
Track 19 not present in database

None of the tracks are present in the AccurateRip database

End of status report

AUDIOCHECKER v2.0 beta (build 457) - by Dester - opdester@freemail.hu
~~~~~~~~~~~~~~~~~~~~~~~~~~~~~~~~~~
-=== DO NOT EDIT THIS FILE! ===-

Path: …\Jewlia Eisenberg - Trilectic 2001

1 -=- Jewlia Eisenberg + Charming Hostess - Trilectic.flac -=- CDDA (100%)

117010356

[Verification date: 20.03.2011 19:29:44]
[Disc ID: 001e4e45-01a8af45-130a5d13]
Track [ CRC ] Status
01 [f6ed8ceb] (00/00) No matches
02 [3e08b6d1] (00/00) No matches
03 [d65d37f4] (00/00) No matches
04 [acf357ba] (00/00) No matches
05 [50e3561d] (00/00) No matches
06 [e22c8a6b] (00/00) No matches
07 [57b320eb] (00/00) No matches
08 [d27c2a38] (00/00) No matches
09 [57da6bfe] (00/00) No matches
10 [460fc7ee] (00/00) No matches
11 [52db4040] (00/00) No matches
12 [257808ec] (00/00) No matches
13 [aeecb868] (00/00) No matches
14 [ead14d28] (00/00) No matches
15 [f385a621] (00/00) No matches
16 [fa92af35] (00/00) No matches
17 [d8b2a8db] (00/00) No matches
18 [c02384f0] (00/00) No matches
19 [8749ae54] (00/00) No matches

Track [ CRC32 ] [W/O NULL] [ LOG ]
– [DF6DA89F] [5D77EAE0] CRC32
01 [DAC1AF25] [8344916E]
02 [12B99651] [204D2ED6]
03 [EFE0A49F] [A78CD0FC]
04 [85136813] [351EEA0D]
05 [F82223F7] [88ECF270]
06 [3D7DC2B7] [BC1739CE]
07 [D50958D1] [41AF65DD]
08 [D09F5C7D] [57CA2AEA]
09 [939C177D] [76AD2A79]
10 [AF71FB24] [7F130326]
11 [E15763A4] [7B70D24A]
12 [06DFCD41] [3761B322]
13 [F76E4E69] [15ECD5FE]
14 [27C30E39] [E6D8A856]
15 [8D62532F] [23F86756]
16 [D7D8D321] [4B380057]
17 [D08BA144] [4B8DB55E]
18 [4955B37B] [3401186D]
19 [2FEB570D] [8885D3C2]

Jewlia Eisenberg (Charming Hostess, Red Pocket) - 7 Albums (1998 - 2010) Re-up

––––––––––––––––––––––––––––––––––––––––––––

Jewlia Eisenberg (Charming Hostess, Red Pocket) - 7 Albums (1998 - 2010) Re-up

CD07: Jewlia Eisenberg - The Grim Arithmetic Of Water (2004):
EAC | Flac(Image) + Cue + Log | MP3 CBR 320Kbps
no Scans | Label: ? | ~ 345 + 142 Mb

Эта запись представляет собой музыку к мини-балету с одноимённым названием. Не только музыку, слова тоже кое-где присутствуют. В основном, правда, звуки, а не слова. Оно и понятно - непросто озвучить дегидратацию человеческого тела…
Tracklist:

1 Engineer/ Job 2:33
2 Thirst 5:10
3 Engineer/ Function 1:26
4 Viva Orduenya 5:49
5 The Way It Can Be 4:19
6 Bath 1:00
7 The Way It Is 0:57
8 Last Bath 3:26
9 The Water Carrier 4:32
10 Rajasthan 3:15
11 Avidan 5:21
12 Engineer/ Salination 2:36
13 Possible Flight/ Dry Place/ Scarcity And Love 10:00
14 Isolate 2:46
15 Dehydration Song 4:29
16 The Rising 3:06v

Personnel:

Scott Amendola,
Wesley Anderson,
Jewlia Eisenberg,
Marika Hughes,
Dan Rathbun

Exact Audio Copy V0.99 prebeta 5 from 4. May 2009

EAC extraction logfile from 9. March 2010, 19:51

Unknown Artist / Unknown Title

Used drive : SONY DVD RW DRU-840A Adapter: 1 ID: 0

Read mode : Secure
Utilize accurate stream : Yes
Defeat audio cache : Yes
Make use of C2 pointers : No

Read offset correction : 6
Overread into Lead-In and Lead-Out : No
Fill up missing offset samples with silence : Yes
Delete leading and trailing silent blocks : No
Null samples used in CRC calculations : Yes
Used interface : Native Win32 interface for Win NT & 2000

Used output format : User Defined Encoder
Selected bitrate : 768 kBit/s
Quality : High
Add ID3 tag : No
Command line compressor : C:\Program Files\Exact Audio Copy\FLAC\FLAC.EXE
Additional command line options : -8 -V %s


TOC of the extracted CD

Track | Start | Length | Start sector | End sector
––––––––––––––––––––––––––––-
1 | 0:00.00 | 2:29.51 | 0 | 11225
2 | 2:29.51 | 5:07.28 | 11226 | 34278
3 | 7:37.04 | 1:23.13 | 34279 | 40516
4 | 9:00.17 | 5:45.48 | 40517 | 66439
5 | 14:45.65 | 4:16.17 | 66440 | 85656
6 | 19:02.07 | 0:57.31 | 85657 | 89962
7 | 19:59.38 | 0:54.03 | 89963 | 94015
8 | 20:53.41 | 3:22.51 | 94016 | 109216
9 | 24:16.17 | 4:29.12 | 109217 | 129403
10 | 28:45.29 | 3:12.09 | 129404 | 143812
11 | 31:57.38 | 5:17.68 | 143813 | 167655
12 | 37:15.31 | 2:33.23 | 167656 | 179153
13 | 39:48.54 | 9:57.33 | 179154 | 223961
14 | 49:46.12 | 2:42.51 | 223962 | 236162
15 | 52:28.63 | 4:26.43 | 236163 | 256155
16 | 56:55.31 | 3:03.40 | 256156 | 269920


Range status and errors

Selected range

Filename D:\_music\Jewlia Eisenberg - The Grim Arithmetic Of Water.wav

Peak level 100.0 %
Range quality 100.0 %
Copy CRC AB8D7191
Copy OK

No errors occurred


AccurateRip summary

Track 1 not present in database
Track 2 not present in database
Track 3 not present in database
Track 4 not present in database
Track 5 not present in database
Track 6 not present in database
Track 7 not present in database
Track 8 not present in database
Track 9 not present in database
Track 10 not present in database
Track 11 not present in database
Track 12 not present in database
Track 13 not present in database
Track 14 not present in database
Track 15 not present in database
Track 16 not present in database

None of the tracks are present in the AccurateRip database

End of status report

AUDIOCHECKER v2.0 beta (build 457) - by Dester - opdester@freemail.hu
~~~~~~~~~~~~~~~~~~~~~~~~~~~~~~~~~~
-=== DO NOT EDIT THIS FILE! ===-

Path: …\Jewlia Eisenberg - The Grim Arithmetic Of Water 2004

1 -=- Jewlia Eisenberg - The Grim Arithmetic Of Water.flac -=- MPEG (95%)

225945764

[Verification date: 20.03.2011 19:28:44]
[Disc ID: 00209dc8-018df3f5-de0e0e10]
Track [ CRC ] Status
01 [661f5550] (02/02) Accurately ripped as in pressing(s) #1
02 [8912fc19] (02/02) Accurately ripped as in pressing(s) #1
03 [99ceaf51] (02/02) Accurately ripped as in pressing(s) #1
04 [32f1923a] (02/02) Accurately ripped as in pressing(s) #1
05 [e812ddf8] (02/02) Accurately ripped as in pressing(s) #1
06 [f1faef86] (02/02) Accurately ripped as in pressing(s) #1
07 [6bdc179f] (02/02) Accurately ripped as in pressing(s) #1
08 [c48f73ae] (02/02) Accurately ripped as in pressing(s) #1
09 [6b1d048c] (02/02) Accurately ripped as in pressing(s) #1
10 [ec9dfd67] (02/02) Accurately ripped as in pressing(s) #1
11 [468c56f7] (02/02) Accurately ripped as in pressing(s) #1
12 [0235d0d8] (02/02) Accurately ripped as in pressing(s) #1
13 [f35c1c6a] (02/02) Accurately ripped as in pressing(s) #1
14 [214b149b] (02/02) Accurately ripped as in pressing(s) #1
15 [42c4f683] (02/02) Accurately ripped as in pressing(s) #1
16 [57c3d3f7] (02/02) Accurately ripped as in pressing(s) #1

Track [ CRC32 ] [W/O NULL] [ LOG ]
– [AB8D7191] [920497A5] CRC32
01 [13F49CE1] [A3408A44]
02 [353E0728] [7215D7BD]
03 [C9DE311A] [BD276F9D]
04 [66F8C236] [ABEB913D]
05 [62F10AF3] [1D352ECB]
06 [AEC525D4] [EB20AF28]
07 [70BD18DB] [B1F00375]
08 [93B6A96F] [A188E4C4]
09 [76168294] [5EDF66B7]
10 [B3B71AE1] [8153E547]
11 [61B95B9A] [54114A45]
12 [A3D4A5A7] [FD5C54A6]
13 [FF6C3616] [72A905A9]
14 [03DED5A9] [6D6814D4]
15 [DBD4A584] [6111C5BB]
16 [9D23F985] [D70B17F8]

AuSpec:
Jewlia Eisenberg (Charming Hostess, Red Pocket) - 7 Albums (1998 - 2010) Re-up

Horizontal thick line = 5 khz; thin line = 1 Khz

* * * * *

All thanks go to tatuk

Download Jewlia Eisenberg (Charming Hostess, Red Pocket) - 7 Albums (1998 - 2010):