Tags
Language
Tags
April 2024
Su Mo Tu We Th Fr Sa
31 1 2 3 4 5 6
7 8 9 10 11 12 13
14 15 16 17 18 19 20
21 22 23 24 25 26 27
28 29 30 1 2 3 4

The Jimi Hendrix Experience - Miami Pop Festival (2018) [Vinyl Rip 16/44 & mp3-320 + DVD] Re-up

Posted By: v3122
The Jimi Hendrix Experience - Miami Pop Festival (2018) [Vinyl Rip 16/44 & mp3-320 + DVD] Re-up

The Jimi Hendrix Experience - Miami Pop Festival (2018)
Vinyl Rip 16/44 | Flac(Image + Cue) > 380 Mb
MP3 CBR 320Kbps > 165 Mb | Artwork(jpg) > 27 Mb
DVD-5: NTSC 4:3 (720x480) VBR | LPCM, 2 ch, 24 bit, 96 kHz > 2.14 Gb
Experience Hendrix, 88883769931RE1 | Blues Rock, Hard Rock, Psychedelic Rock

~ 2 × Vinyl, LP, Album, Reissue, Remastered, Gatefold, 180 grams. ~

The Jimi Hendrix Experience - Miami Pop Festival (2018) [Vinyl Rip 16/44 & mp3-320 + DVD] Re-up

In the spring of 1968, the Miami Pop Festival became the first major multi-day rock festival to be held on the East Coast in the wake of 1967's groundbreaking Monterey Pop Festival. The Jimi Hendrix Experience had been the breakthrough act that wowed audiences at Monterey, so promoter Michael Lang (who would help put together the Woodstock Music and Art Fair a year later) persuaded Hendrix to headline the Miami event. Hendrix, who was recording Electric Ladyland at the time, brought along recording engineer Eddie Kramer to tape his gig in Miami, and while Hendrix's set has circulated for years as a bootleg, Miami Pop Festival finally gives this performance an authorized release, with Kramer mixing the 45-year-old tapes. This recording has long been celebrated by Hendrix enthusiasts over the years, and it's not hard to see why; thanks to Kramer, the recording is clean and full of detail (right down to the rattle of the springs in Hendrix's whammy bar), and the Experience sound quite good, with Hendrix and drummer Mitch Mitchell interacting with their usual intuitive skill, while Noel Redding serviceably holds down the bottom end on bass. However, while this is a dynamic and well-preserved performance from Hendrix and the Experience (and you can't have too many of those), it isn't an especially exciting one. There's plenty of nuance but noticeably less fire in Hendrix's guitar work, and he seems most comfortable stretching out on slow blues numbers, while sounding just a bit too relaxed on Are You Experienced? material like "Foxey Lady," "Purple Haze," and "Fire" (though he brings a welcome emotional intensity to "I Don't Live Today"); the group curiously ignores songs from the more recent Axis: Bold as Love. It's worth noting that Hendrix played two sets on the first day of the May 1968 Miamifest; this release features the evening set in full, while just two tunes from the afternoon show are included as a bonus, and "Fire" and "Foxey Lady" sound tougher and more committed in their first run through of the day than their second. Perhaps Kramer and the Hendrix estate should scour the vaults to find the rest of the afternoon set; as it is, Miami Pop Festival is a welcome addition to the authorized Hendrix catalog, but it doesn't cast much new light on his music or his performance style, making for a good but not a great live release.

by Mark Deming, allmusic
The Jimi Hendrix Experience - Miami Pop Festival (2018):

The Jimi Hendrix Experience - Miami Pop Festival (2018) [Vinyl Rip 16/44 & mp3-320 + DVD] Re-up

Tracklist:

A1. Introduction [1:55]
A2. Hey Joe [6:24]
A3. Foxey Lady [4:30]
A4. Tax Free [8:22]
B1. Fire [3:13]
B2. Hear My Train A Comin' [7:16]
B3. I Don't Live Today [4:55]
C1. Red House [12:08]
C2. Purple Haze [4:22]

Bonus Performances:
D1. Fire (Afternoon Show) [3:09]
D2. Foxey Lady (Evening Show) [4:59]

foobar2000 1.4 / Dynamic Range Meter 1.1.1
log date: 2019-01-10 06:43:25

––––––––––––––––––––––––––––––––––––––––
Analyzed: The Jimi Hendrix Experience / Music From Twin Peaks
––––––––––––––––––––––––––––––––––––––––

DR Peak RMS Duration Track
––––––––––––––––––––––––––––––––––––––––
DR17 -0.10 dB -23.61 dB 1:55 01-Introduction
DR12 -0.22 dB -15.00 dB 6:24 02-Hey Joe
DR12 -1.37 dB -15.23 dB 4:30 03-Foxey Lady
DR14 -0.78 dB -17.27 dB 8:22 04-Tax Free
DR13 -1.29 dB -16.85 dB 3:13 05-Fire
DR15 -2.28 dB -19.29 dB 7:16 06-Hear My Train A Comin'
DR13 -3.84 dB -19.08 dB 4:55 07-I Don't Live Today
DR12 -0.95 dB -16.58 dB 12:08 08-Red House
DR12 -0.86 dB -15.85 dB 4:22 09-Purple Haze
DR13 -0.55 dB -15.02 dB 3:09 10-Fire [Afternoon Show]
DR13 -0.58 dB -15.49 dB 4:59 11-Foxey Lady [Evening Show]
––––––––––––––––––––––––––––––––––––––––

Number of tracks: 11
Official DR value: DR13

Samplerate: 96000 Hz
Channels: 2
Bits per sample: 24
Bitrate: 2980 kbps
Codec: FLAC
================================================================================



Title: Jimi Hendrix 2013 - Miami Pop Festival - DVD
Size: 2.03 Gb ( 2 127 964,00 KBytes ) - DVD-5
Enabled regions: 1, 2, 3, 4, 5, 6, 7, 8

VTS_01 :
Play Length: 01:01:09
Video: NTSC 4:3 (720x480) VBR
Audio:
Not specified (LinearPCM, 2 ch)



Original ripper: Farscape2008
Original format: 24/96
Vinyl Condition: Mint
Cleaning:
Direct Drive Turntable: Micro Seiki DD7
Cartridge: Denon-103 (MC)
Amplifier: Sander'Z tube / схема А.Торреса
ADC: Tascam US-122mkII
Postprocessing:

Downsampled to 16/44

The Jimi Hendrix Experience - Miami Pop Festival (2018) [Vinyl Rip 16/44 & mp3-320 + DVD] Re-up

The Jimi Hendrix Experience - Miami Pop Festival (2018) [Vinyl Rip 16/44 & mp3-320 + DVD] Re-up

Jimi Hendrix in my Blog

Download The Jimi Hendrix Experience - Miami Pop Festival (2018):