Subcategories

Johannes Strobl, Les Cornets Noirs, Capella Murensis - Polychoral Splendour: Giovanni Gabrieli, Heinrich Schütz (2012)

Posted By: ArlegZ
Johannes Strobl, Les Cornets Noirs, Capella Murensis - Polychoral Splendour: Giovanni Gabrieli, Heinrich Schütz (2012)

Johannes Strobl, Les Cornets Noirs, Capella Murensis - Polychoral Splendour: Giovanni Gabrieli, Heinrich Schütz (2012)
EAC | FLAC | Image (Cue & Log) ~ 363 Mb | Total time: 73:07 | Scans included
Classical | Label: Audite | 92.652 | Recorded: 2011

To visit the great Venetian cathedrals in the 17th century was to bow deeply to the polychoral or “cori spezzati” style that reigned there, pioneered by Giovanni Gabrieli. The young Heinrich Schutz was no exception. Unable to resist the sparkling sounds arising from polychoral writing and antiphonal placement, Schutz carried the style back to his native Germany. Capella Murensis and Les Cornets Noirs here present with absolute fidelity works by Schutz and Gabrieli that epitomize the high Ventian style.

Performer:
Capella Murensis
Les Cornets Noirs
Johannes Strobl, conductor

Track List:
01. Heinrich Schütz: Warum toben die Heiden SWV 23 (Psalmen Davids … Dresden 1619)
02. Giovanni Gabrieli: Canzon primi toni a 8, C 170 (Sacrae Symphoniae … Venedig 1597)
03. Heinrich Schütz: Saul, Saul, was verfolgst du mich? SWV 415 (Symphoniarum sacrarum tertia pars … Dresden 1650)
04. Giovanni Gabrieli: Canzon quarti toni a 15 C 185 (Sacrae Symphoniae … Venedig 1597)
05. Heinrich Schütz: Komm, Heiliger Geist, Herre Gott SWV 417 (Symphoniarum sacrarum tertia pars … Dresden 1650)
06. Giovanni Gabrieli: Canzon VIII a 8 C 202 (Canzoni et Sonate … Venedig 1615)
07. Heinrich Schütz: Ich danke dem Herrn von ganzem Herzen SVW 34 (Psalmen Davids … Dresden 1619)
08. Giovanni Gabrieli: Sonata XVIII a 14 C 211 (Canzoni et Sonate … Venedig 1615)
09. Heinrich Schütz: Vater unser, der du bist im Himmel SWV 411 (Symphoniarum sacrarum tertia pars … Dresden 1650)
10. Giovanni Gabrieli: Canzon in echo duodecimi toni a 10 C 180 (Sacrae Symphoniae … Venedig 1597)
11. Heinrich Schütz: Zion spricht꞉ Der Herr hat mich verlassen SWV 46 (Psalmen Davids … Dresden 1619)
12. Giovanni Gabrieli: Canzon septimi toni a 8 C 171 (Sacrae Symphoniae … Venedig 1597)
13. Heinrich Schütz: Alleluja! Lobet den Herrn SWV 38 (Symphoniarum sacrarum tertia pars … Dresden 1650)


Exact Audio Copy V1.2 from 12. August 2016

EAC extraction logfile from 10. February 2020, 2:45

Johannes Strobl, Les Cornets Noirs / Polychoral Splendour

Used drive : MATSHITADVD-RAM UJ8G6 Adapter: 1 ID: 0

Read mode : Secure
Utilize accurate stream : Yes
Defeat audio cache : Yes
Make use of C2 pointers : No

Read offset correction : 103
Overread into Lead-In and Lead-Out : No
Fill up missing offset samples with silence : Yes
Delete leading and trailing silent blocks : No
Null samples used in CRC calculations : Yes
Used interface : Native Win32 interface for Win NT & 2000

Used output format : User Defined Encoder
Selected bitrate : 768 kBit/s
Quality : High
Add ID3 tag : No
Command line compressor : C:\Program Files (x86)\Exact Audio Copy\Flac\flac.exe
Additional command line options : -6 -V -T "ARTIST=%artist%" -T "TITLE=%title%" -T "ALBUM=%albumtitle%" -T "DATE=%year%" -T "TRACKNUMBER=%tracknr%" -T "GENRE=%genre%" -T "COMMENT=%comment%" -T "BAND=%albuminterpret%" -T "ALBUMARTIST=%albuminterpret%" -T "DISCNUMBER=%cdnumber%" -T "TOTALDISCS=%totalcds%" -T "TOTALTRACKS=%numtracks%" %hascover%–picture="%coverfile%"%hascover% %source% -o %dest% -T "RIPPER=Roy@Susato"


TOC of the extracted CD

Track | Start | Length | Start sector | End sector
––––––––––––––––––––––––––––-
1 | 0:00.00 | 4:36.32 | 0 | 20731
2 | 4:36.32 | 3:50.51 | 20732 | 38032
3 | 8:27.08 | 2:38.60 | 38033 | 49942
4 | 11:05.68 | 4:36.33 | 49943 | 70675
5 | 15:42.26 | 6:50.47 | 70676 | 101472
6 | 22:32.73 | 6:02.08 | 101473 | 128630
7 | 28:35.06 | 6:13.36 | 128631 | 156641
8 | 34:48.42 | 6:39.26 | 156642 | 186592
9 | 41:27.68 | 6:12.26 | 186593 | 214518
10 | 47:40.19 | 4:36.69 | 214519 | 235287
11 | 52:17.13 | 5:50.13 | 235288 | 261550
12 | 58:07.26 | 4:35.60 | 261551 | 282235
13 | 62:43.11 | 10:23.66 | 282236 | 329026


Range status and errors

Selected range

Filename C:\Users\Roy\Music\POLYCHORAL SPLENDOUR (2011) [Strobl; Audite]\CD (FLAC + CUE)\Polychoral Splendour.wav

Peak level 96.6 %
Extraction speed 4.4 X
Range quality 99.9 %
Test CRC F6A97A92
Copy CRC F6A97A92
Copy OK

No errors occurred


AccurateRip summary

Track 1 accurately ripped (confidence 7) [A2BDCD6C] (AR v2)
Track 2 accurately ripped (confidence 7) [6ADD177C] (AR v2)
Track 3 accurately ripped (confidence 7) [5AFEE9EE] (AR v2)
Track 4 accurately ripped (confidence 7) [25F362C6] (AR v2)
Track 5 accurately ripped (confidence 7) [0C35CFE7] (AR v2)
Track 6 accurately ripped (confidence 7) [44770C59] (AR v2)
Track 7 accurately ripped (confidence 7) [16BD1506] (AR v2)
Track 8 accurately ripped (confidence 7) [8D7B94AF] (AR v2)
Track 9 accurately ripped (confidence 8) [49CDE7FA] (AR v2)
Track 10 accurately ripped (confidence 8) [44CE73B7] (AR v2)
Track 11 accurately ripped (confidence 8) [7B5263D4] (AR v2)
Track 12 accurately ripped (confidence 8) [77766A99] (AR v2)
Track 13 accurately ripped (confidence 8) [C1BF30F2] (AR v2)

All tracks accurately ripped

End of status report

–– CUETools DB Plugin V2.1.6

[CTDB TOCID: QpNvyFM_bxfeyGtJSNUKga4BkIc-] found
Submit result: QpNvyFM_bxfeyGtJSNUKga4BkIc- has been confirmed
Track | CTDB Status
1 | (15/15) Accurately ripped
2 | (15/15) Accurately ripped
3 | (15/15) Accurately ripped
4 | (15/15) Accurately ripped
5 | (15/15) Accurately ripped
6 | (15/15) Accurately ripped
7 | (15/15) Accurately ripped
8 | (15/15) Accurately ripped
9 | (15/15) Accurately ripped
10 | (15/15) Accurately ripped
11 | (15/15) Accurately ripped
12 | (15/15) Accurately ripped
13 | (14/15) Accurately ripped


==== Log checksum B608A7426D8C128CBB0824DD6C67DE5B9867971038FCB88306FFA7115D6FCCE2 ====

Johannes Strobl, Les Cornets Noirs, Capella Murensis - Polychoral Splendour: Giovanni Gabrieli, Heinrich Schütz (2012)

Thanks to the original releaser