Subcategories

John Barry - The Knack ...And How to Get It: Original MGM Motion Picture Score (1965) Limited Edition Reissue 2011

Posted By: Efgrapha
John Barry - The Knack ...And How to Get It: Original MGM Motion Picture Score (1965) Limited Edition Reissue 2011

John Barry - The Knack …And How to Get It: Original MGM Motion Picture Score (1965)
EAC | FLAC (Image) + cue.+log ~ 206 Mb | Mp3, CBR320 kbps ~ 77 Mb | Scans ~ 57 Mb
Soundtrack, Score, Easy Listening, Jazz | Label: Quartet | # QRSCE024 | 00:33:15

A superbly atmospheric John Barry score effectively conveyed the mood of swinging London for this 1965 film by Richard Lester. Usually playing around with variations of the haunting main theme, Barry used vivacious horns, melancholic strings, and above all a groovy jazz organ (played by Alan Haven). A couple of the tracks don't work well in isolation: the vaudevillian "Something's Up!," and the vocal version of the main theme (not used in the film) by mediocre singer Johnny De Little. But overall, it's got a consistently captivating groove, rating as one of Barry's best scores.

Review by Richie Unterberger, Allmusic.com

~ John Barry at Allmusic
~ John Barry at Wiki

~ Film at IMDB
~ Film at Wiki

Tracklist:

01. Main Theme (03:09)
02. Here Comes Nancy Now! (02:54)
03. Photo Strip (02:37)
04. Three On A Bed (05:28)
05. Blues And Out (02:49)
06. The Knack (02:45) - Vocal by Johnny De Little
07. And How To Get It! (03:06)
08. Something's Up! (02:13)
09. Doors & Bikes And Things (02:40)
10. Ecstasy! (02:33)
11. End Title (02:36)


Exact Audio Copy V1.0 beta 3 from 29. August 2011

EAC extraction logfile from 3. November 2012, 12:03

John Barry / The Knack… And How To Get It

Used drive : TSSTcorpCDDVDW SH-S202H Adapter: 0 ID: 0

Read mode : Secure
Utilize accurate stream : Yes
Defeat audio cache : Yes
Make use of C2 pointers : No

Read offset correction : 6
Overread into Lead-In and Lead-Out : No
Fill up missing offset samples with silence : Yes
Delete leading and trailing silent blocks : No
Null samples used in CRC calculations : Yes
Used interface : Native Win32 interface for Win NT & 2000

Used output format : Internal WAV Routines
Sample format : 44.100 Hz; 16 Bit; Stereo


TOC of the extracted CD

Track | Start | Length | Start sector | End sector
––––––––––––––––––––––––––––-
1 | 0:00.00 | 3:12.04 | 0 | 14403
2 | 3:12.04 | 2:55.74 | 14404 | 27602
3 | 6:08.03 | 2:39.53 | 27603 | 39580
4 | 8:47.56 | 5:30.29 | 39581 | 64359
5 | 14:18.10 | 2:51.12 | 64360 | 77196
6 | 17:09.22 | 2:47.40 | 77197 | 89761
7 | 19:56.62 | 3:08.73 | 89762 | 103934
8 | 23:05.60 | 2:14.73 | 103935 | 114057
9 | 25:20.58 | 2:42.37 | 114058 | 126244
10 | 28:03.20 | 2:35.07 | 126245 | 137876
11 | 30:38.27 | 2:36.52 | 137877 | 149628


Range status and errors

Selected range

Filename D:\Torrent\Мои раздачи\The Knack… And How To Get It\John Barry - The Knack… And How To Get It.wav

Peak level 99.7 %
Extraction speed 2.7 X
Range quality 100.0 %
Test CRC D9BDC949
Copy CRC D9BDC949
Copy OK

No errors occurred


AccurateRip summary

Track 1 not present in database
Track 2 not present in database
Track 3 not present in database
Track 4 not present in database
Track 5 not present in database
Track 6 not present in database
Track 7 not present in database
Track 8 not present in database
Track 9 not present in database
Track 10 not present in database
Track 11 not present in database

None of the tracks are present in the AccurateRip database

End of status report

==== Log checksum 3BA2991D61A17ACFCD40C7294B2A79D44634B9FBE3C39817BEC05EE200A7F16B ====

[CUETools log; Date: 23.04.2017 2:09:32; Version: 2.1.4]
[CTDB TOCID: lyRJbAWWtTLSHwD5Nns2tsOyBmE-] found.
Track | CTDB Status
1 | (6/6) Accurately ripped
2 | (6/6) Accurately ripped
3 | (6/6) Accurately ripped
4 | (6/6) Accurately ripped
5 | (6/6) Accurately ripped
6 | (6/6) Accurately ripped
7 | (6/6) Accurately ripped
8 | (6/6) Accurately ripped
9 | (6/6) Accurately ripped
10 | (6/6) Accurately ripped
11 | (6/6) Accurately ripped
[AccurateRip ID: 000e6a0b-007bd6c1-8e07cb0b] found.
Track [ CRC | V2 ] Status
01 [6fb17792|482a1955] (0+8/8) Accurately ripped
02 [8df63d2c|af43d74a] (0+8/8) Accurately ripped
03 [8a235c86|3cae9b4a] (0+8/8) Accurately ripped
04 [9eff7575|9f2d2aeb] (0+8/8) Accurately ripped
05 [a2d7f00f|3e7b3bed] (0+8/8) Accurately ripped
06 [26e02e58|0f19b940] (0+8/8) Accurately ripped
07 [2bb3eae8|54e3a9d4] (0+8/8) Accurately ripped
08 [e0b87315|52241e9f] (0+8/8) Accurately ripped
09 [9172ecf9|195b3dcc] (0+8/8) Accurately ripped
10 [76bea3c0|7b68afa0] (0+8/8) Accurately ripped
11 [2e2e2f1d|962c0656] (0+8/8) Accurately ripped

Track Peak [ CRC32 ] [W/O NULL] [ LOG ]
– 99,7 [D9BDC949] [6712D94F] CRC32
01 99,7 [F76B29D1] [61A279A9]
02 99,7 [5862DAD8] [54710AB9]
03 99,7 [5E8CA78E] [8479A90C]
04 99,7 [50F2FB63] [77777F30]
05 99,7 [DF889FF5] [7A630E31]
06 99,7 [979A0317] [26A828B8]
07 99,7 [EAE5D315] [3A4FA76C]
08 99,7 [F0748630] [A5D8E070]
09 99,7 [D4FF2D87] [E6C233BC]
10 99,7 [560FA24F] [8AB65B75]
11 99,7 [0D4D4D03] [A0E3855B]

foobar2000 1.2 / Dynamic Range Meter 1.1.1
log date: 2017-04-23 01:56:54

––––––––––––––––––––––––––––––––––––––––
Analyzed: John Barry / The Knack… And How To Get It
––––––––––––––––––––––––––––––––––––––––

DR Peak RMS Duration Track
––––––––––––––––––––––––––––––––––––––––
DR7 -0.02 dB -12.21 dB 3:12 01-Main Theme
DR10 -0.02 dB -12.38 dB 2:56 02-Here Comes Nancy Now!
DR10 -0.02 dB -12.67 dB 2:40 03-Photo Strip
DR11 -0.02 dB -13.99 dB 5:30 04-Three On A Bed
DR10 -0.02 dB -14.04 dB 2:51 05-Blues And Out
DR9 -0.02 dB -11.83 dB 3:09 07-And How To Get It!
DR8 -0.02 dB -11.14 dB 2:15 08-Something's Up!
DR11 -0.02 dB -13.26 dB 2:42 09-Doors & Bikes And Things
DR10 -0.02 dB -12.72 dB 2:35 10-Ecstasy!
DR9 -0.02 dB -11.49 dB 2:37 11-End Title
––––––––––––––––––––––––––––––––––––––––

Number of tracks: 10
Official DR value: DR9

Samplerate: 44100 Hz
Channels: 2
Bits per sample: 16
Bitrate: 863 kbps
Codec: FLAC
================================================================================

––––––––––––––––––––––––––––––––––––––––
Statistics for: 06-The Knack
Number of samples: 7388220
Duration: 2:48
––––––––––––––––––––––––––––––––––––––––

Left Right

Peak Value: -0.02 dB –- -0.02 dB
Avg RMS: -10.82 dB –- -10.18 dB
DR channel: 8.70 dB –- 8.28 dB
––––––––––––––––––––––––––––––––––––––––

Official DR Value: DR8

Samplerate: 44100 Hz
Channels: 2
Bits per sample: 16
Bitrate: 863 kbps
Codec: FLAC
================================================================================

John Barry - The Knack ...And How to Get It: Original MGM Motion Picture Score (1965) Limited Edition Reissue 2011

John Barry - The Knack ...And How to Get It: Original MGM Motion Picture Score (1965) Limited Edition Reissue 2011

All thanks to original releaser - Composer's fan

More Movies & Soundtracks in Efgrapha Blog