Tags
Language
Tags
June 2024
Su Mo Tu We Th Fr Sa
26 27 28 29 30 31 1
2 3 4 5 6 7 8
9 10 11 12 13 14 15
16 17 18 19 20 21 22
23 24 25 26 27 28 29
30 1 2 3 4 5 6

John Di Martino's Romantic Jazz Trio - The Sweetest Sound (2004) {2010, Japanese Reissue, Remastered}

Posted By: popsakov
John Di Martino's Romantic Jazz Trio - The Sweetest Sound (2004) {2010, Japanese Reissue, Remastered}

John Di Martino's Romantic Jazz Trio - The Sweetest Sound (2004) {2010, Japanese Reissue, Remastered}
EAC Rip | FLAC (Img) + Cue + Log ~ 421 Mb | MP3 CBR320 ~ 197 Mb
Full Scans | 01:05:38 | RAR 5% Recovery
Jazz | Venus Records #VHCD-78096

John di Martino, Pianist/ Composer/ Arranger, is a Venus recording artist. Noted for his versatility, John has performed and recorded with such notables as Kenny Burrell, James Moody, Joe Lovano, David 'Fat Head' Newman, Pat Martino and Paquito D'Rivera. Mr. Di Martino is a sought after musical director and has accompanied Jon Hendricks, Sylvia Symms, Diane Schurr and the late Billy Eckstine. John's talents as arranger and pianist can be heard on recordings with Freddy Cole, Gloria Lynn and Grady Tate. John was a long time member of the late Ray Barretto s 'New World Spirit', he is a featured pianist and arranger on several recordings including the grammy nominated CD 'Contact'. Mr. Di Martino enjoyed a long association with percussionist/ musicologist Bobby Sanabria. Their joint efforts include the grammy nominated CD 'Live And In Clave'. John was born in Philadelphia in 1959. Since his student days with Lennie Tristano and Don Sebesky, John has performed everywhere from Carnegie Hall to the Peoples Republic of China.

***************

Track List:

01. La Comparsa [3:55]
02. My Melancholy Baby [6:44]
03. And I Love Her [7:15]
04. The Gentle Rain [6:44]
05. The Sweetest Sound [5:03]
06. Drum Negrita [5:02]
07. In My Solitude [5:19]
08. The Lamp Is Low [4:45]
09. The Things I Love [6:23]
10. You Must Believe In Spring [9:18]
11. Historia De Un Amor [5:15]

Exact Audio Copy V1.3 from 2. September 2016

Отчёт EAC об извлечении, выполненном 20. ноября 2021, 14:32

Romantic Jazz Trio / The Sweetest Sound

Дисковод: PLEXTOR DVDR PX-755A Adapter: 1 ID: 0

Режим чтения : Достоверность
Использование точного потока : Да
Отключение кэша аудио : Да
Использование указателей C2 : Нет

Коррекция смещения при чтении : 30
Способность читать области Lead-in и Lead-out : Нет
Заполнение пропущенных сэмплов тишиной : Да
Удаление блоков с тишиной в начале и конце : Нет
При вычислениях CRC использовались нулевые сэмплы : Да
Интерфейс : Встроенный Win32-интерфейс для Win NT/2000

Выходной формат : Пользовательский кодировщик
Выбранный битрейт : 128 kBit/s
Качество : Высокий
Добавление ID3-тега : Нет
Утилита сжатия : C:\Program Files (x86)\Exact Audio Copy\Flac\flac.exe
Дополнительные параметры : -V -8 -T "Date=%year%" -T "Genre=%genre%" %source%


TOC извлечённого CD

Трек | Старт | Длительность | Начальный сектор | Конечный сектор
––––––––––––––––––––––––––––––––––-
1 | 0:00.00 | 3:55.00 | 0 | 17624
2 | 3:55.00 | 6:43.61 | 17625 | 47910
3 | 10:38.61 | 7:14.16 | 47911 | 80476
4 | 17:53.02 | 6:43.61 | 80477 | 110762
5 | 24:36.63 | 5:02.15 | 110763 | 133427
6 | 29:39.03 | 5:01.01 | 133428 | 156003
7 | 34:40.04 | 5:18.61 | 156004 | 179914
8 | 39:58.65 | 4:44.15 | 179915 | 201229
9 | 44:43.05 | 6:22.61 | 201230 | 229940
10 | 51:05.66 | 9:17.17 | 229941 | 271732
11 | 60:23.08 | 5:14.17 | 271733 | 295299


Характеристики диапазона извлечения и сообщения об ошибках

Выбранный диапазон

Имя файла D:\РАЗДАЧА\Romantic Jazz Trio - The Sweetest Sound - 2004 [Japan]\Romantic Jazz Trio - The Sweetest Sound.wav

Пиковый уровень 100.0 %
Скорость извлечения 2.5 X
Качество диапазона 100.0 %
CRC теста A7EAC91F
CRC копии A7EAC91F
Копирование… OK

Ошибок не произошло


AccurateRip: сводка

Трек 1 точность не определена (достоверность 8) [808D160F], AccurateRip вернул [657C8583] (AR v2)
Трек 2 точность не определена (достоверность 8) [15180DAA], AccurateRip вернул [F2F6DFD7] (AR v2)
Трек 3 точность не определена (достоверность 8) [04AA0207], AccurateRip вернул [1F823EC9] (AR v2)
Трек 4 точность не определена (достоверность 8) [56F1DF73], AccurateRip вернул [AECD814B] (AR v2)
Трек 5 точность не определена (достоверность 8) [D11F8634], AccurateRip вернул [2C7EC050] (AR v2)
Трек 6 точность не определена (достоверность 8) [328011B8], AccurateRip вернул [22B0B359] (AR v2)
Трек 7 точность не определена (достоверность 8) [F8AA2B6F], AccurateRip вернул [43E5BA7F] (AR v2)
Трек 8 точность не определена (достоверность 8) [4E2B5B17], AccurateRip вернул [611B7B99] (AR v2)
Трек 9 точность не определена (достоверность 8) [83869302], AccurateRip вернул [EE783FFE] (AR v2)
Трек 10 точность не определена (достоверность 8) [81179282], AccurateRip вернул [BDC450F2] (AR v2)
Трек 11 точность не определена (достоверность 8) [FFFD5BA8], AccurateRip вернул [12134900] (AR v2)

Ни один трек не прошёл проверки на точность
В вашей базе может быть иной вариант штамповки диска

Конец отчёта

–– CUETools DB Plugin V2.1.6

[CTDB TOCID: dOPJrLDKFezGIE3EnH4JuNBdcIc-] found
Submit result: dOPJrLDKFezGIE3EnH4JuNBdcIc- has been confirmed
Track | CTDB Status
1 | (28/29) Accurately ripped
2 | (29/29) Accurately ripped
3 | (29/29) Accurately ripped
4 | (29/29) Accurately ripped
5 | (29/29) Accurately ripped
6 | (29/29) Accurately ripped
7 | (28/29) Accurately ripped
8 | (29/29) Accurately ripped
9 | (27/29) Accurately ripped
10 | (29/29) Accurately ripped
11 | (27/29) Accurately ripped


==== Контрольная сумма отчёта B44B377ECDC94F6D635FE7A11395788FBCFC85788E5FCEABAA5EA1A8DE7352AB ====

[CUETools log; Date: 21.11.2021 11:41:50; Version: 2.1.6]
[CTDB TOCID: dOPJrLDKFezGIE3EnH4JuNBdcIc-] found.
Track | CTDB Status
1 | (29/30) Accurately ripped
2 | (30/30) Accurately ripped
3 | (30/30) Accurately ripped
4 | (30/30) Accurately ripped
5 | (30/30) Accurately ripped
6 | (30/30) Accurately ripped
7 | (29/30) Accurately ripped
8 | (30/30) Accurately ripped
9 | (28/30) Accurately ripped
10 | (30/30) Accurately ripped
11 | (28/30) Accurately ripped
[AccurateRip ID: 001a4fa7-00e55606-910f610b] found.
Track [ CRC | V2 ] Status
01 [40e56957|808d160f] (00+00/10) No match
02 [9574b53e|15180daa] (00+00/10) No match
03 [c9d1678d|04aa0207] (00+00/10) No match
04 [6c786081|56f1df73] (00+00/10) No match
05 [4dcac076|d11f8634] (00+00/10) No match
06 [b419044f|328011b8] (00+00/10) No match
07 [203eb739|f8aa2b6f] (00+00/10) No match
08 [3db5f80d|4e2b5b17] (00+00/10) No match
09 [a494681b|83869302] (00+00/10) No match
10 [d85899f6|81179282] (00+00/10) No match
11 [36b28ee2|fffd5ba8] (00+00/10) No match
Offsetted by -6:
01 [2405345d] (02/10) Accurately ripped
02 [702cb2f6] (02/10) Accurately ripped
03 [e143653d] (02/10) Accurately ripped
04 [c12c4817] (02/10) Accurately ripped
05 [a6d24912] (02/10) Accurately ripped
06 [a1f15da7] (02/10) Accurately ripped
07 [6900cfc9] (02/10) Accurately ripped
08 [4e6d644f] (02/10) Accurately ripped
09 [0c83f005] (02/10) Accurately ripped
10 [10aa97fc] (02/10) Accurately ripped
11 [464f9f12] (02/10) Accurately ripped

Track Peak [ CRC32 ] [W/O NULL] [ LOG ]
– 100,0 [A7EAC91F] [EA9B0B80] CRC32
01 100,0 [4EAF395A] [6261C6A0]
02 100,0 [CE113BB4] [C06A4C59]
03 100,0 [58472BE9] [76761DF9]
04 100,0 [3941C389] [88EA254F]
05 100,0 [2122005A] [0543F1FA]
06 100,0 [BCE1673F] [15145539]
07 100,0 [44DE3549] [AB486B50]
08 100,0 [96082A6B] [2661A361]
09 100,0 [4F65F6AA] [160C72F0]
10 100,0 [3D566AB9] [06408398]
11 100,0 [EB7D5617] [3030F48E]

All thanks go to pishin

>>> My Blog <<<

DOWNLOAD: