Subcategories
Tags
Language
Tags

John Lee Hooker - Endless Boogie (1971)

Posted By: Designol
John Lee Hooker - Endless Boogie (1971)

John Lee Hooker - Endless Boogie (1971)
EAC | FLAC | Image (Cue&Log) ~ 374 Mb | Mp3 (CBR320) ~ 192 Mb | Scans included | 01:12:40
Delta Blues, Detroit Blues, Electric Blues | Label: MCA | # MCAD-10413, MCAD 10413

Endless Boogie is a studio album by John Lee Hooker, released in 1971 through ABC Records. Produced by Bill Szymczyk and Ed Michel, the double album was recorded at Wally Heider Recording with session musicians such as Jesse Ed Davis, Carl Radle, Steve Miller, Gino Skaggs and Mark Naftalin.

The black blues legends playing with the white up-and-comers. I guess Sonny Boy Williamson II started it all about six years ago with his Live With the Yardbirds album. Successive years have seen a record-rack full of similar efforts … from Muddy Waters, Lowell Fulsom, Furry Lewis and Otis Spann .. all resulting in quasi-successful albums that at times effectively blended the old urban, Texas/Chicago post-war Fifties sounds with the post-wah-wah generation. The best of them allowed the old bluesmen a lot of up-front playing and singing space (the Sonny Boy and the Spann) while the rest suffered from a distasteful updating attempt — Muddy Waters and Fulsom got drowned out and psychedelized upon.

This album falls distinctly into the former class John Lee Hooker, a 54-year-old blues legend in his own right, is sympathetically accompanied by the likes of Jesse Davis, Carl Radle, Steve Miller, Gino Scaggs and Mark Naftalin and the end product is a double-album set of unadulterated Hooker portraits in blues.

I use the word "portraits" without hesitation. Hooker has long been a master at the extended built — around — a — foot — stomping-beat kind of blues as well as the quick, boogie-based instrumental. He nearly outdoes himself here on "Pots On. Gas On High." "A Sheep Out On the Foam" as well as the tersely effective "Kick Hit 4 Hit Kix U (Blues for Jimi and Janis)," all solid, rambling tunes. Examples of the more mainstream "Boogie Chillun" Hooker approach include the title song, the harp-studded "House Rent Boogie" and the blues gospel shortie "Doin' the Shout." Throughout, it's Hooker all the way he makes it his brand of blues with the case and dexterity of the genius he is all the textures and highlights paced with his ever-churning, heavy-bassed clectric guitar and his rough down-and-out voice.

Hooker is at present in residence in Oakland, California, playing an endless variety of gigs both in the local Berkeley coffeehouses and Oakland ghetto-clubs as well as appearing with regularity at Pepperland up in Marin County. I'm sure he would agree that times are better for him these days, certainly a far cry from his Detroit-based early years, and this album, along with his also current Canned Heat effort, can do nothing but enhance him all the more with blues fans everywhere. He has gone through all the changes, from Jim Crow to the Blues Revival, recorded over the years for more than a dozen companies and remains the Crawhn' King Snake, the Boom Boom master.

Review by By Gary Von Tersch, RollingStone April 29, 1971

John Lee Hooker - Endless Boogie (1971)



Tracklist:

01. (I Got) A Good 'Un (05:14)
02. House Rent Boogie (06:23)
03. Kick Hit 4 Hit Kix U (Blues For Jimi And Janis) (06:43)
04. Standin' At The Crossroads (06:07)
05. Pots On, Gas On High (11:23)
06. We Might As Well Call It Through (I Didn't Get Married To Your Two-Timing Mother) (08:04)
07. Doin' The Shout (03:31)
08. A Sheep Out On The Foam (06:30)
09. I Don't Need No Steam Heat (04:18)
10. Sittin' In My Dark Room (05:38)
11. Endless Boogie, Parts 27 and 28 (08:44)


Exact Audio Copy V1.0 beta 4 from 7. December 2014

Отчёт EAC об извлечении, выполненном 14. марта 2015, 15:52

John Lee Hooker / Endless Boogie

Дисковод: SONY CD-RW CRX230ED Adapter: 1 ID: 0

Режим чтения : Достоверность
Использование точного потока : Да
Отключение кэша аудио : Да
Использование указателей C2 : Нет

Коррекция смещения при чтении : 6
Способность читать области Lead-in и Lead-out : Нет
Заполнение пропущенных сэмплов тишиной : Да
Удаление блоков с тишиной в начале и конце : Нет
При вычислениях CRC использовались нулевые сэмплы : Да
Интерфейс : Встроенный Win32-интерфейс для Win NT/2000

Выходной формат : Внутренние WAV-операции
Формат сэмплов : 44.100 Гц; 16 бит; стерео


TOC извлечённого CD

Трек | Старт | Длительность | Начальный сектор | Конечный сектор
––––––––––––––––––––––––––––––––––-
1 | 0:00.00 | 5:14.20 | 0 | 23569
2 | 5:14.20 | 6:23.58 | 23570 | 52352
3 | 11:38.03 | 6:43.20 | 52353 | 82597
4 | 18:21.23 | 6:07.47 | 82598 | 110169
5 | 24:28.70 | 11:23.73 | 110170 | 161467
6 | 35:52.68 | 8:04.55 | 161468 | 197822
7 | 43:57.48 | 3:31.37 | 197823 | 213684
8 | 47:29.10 | 6:30.40 | 213685 | 242974
9 | 53:59.50 | 4:18.03 | 242975 | 262327
10 | 58:17.53 | 5:38.37 | 262328 | 287714
11 | 63:56.15 | 8:44.15 | 287715 | 327029


Характеристики диапазона извлечения и сообщения об ошибках

Выбранный диапазон

Имя файла F:\MusicCD\Torrent\John Lee Hooker - Endless Boogie\John Lee Hooker - Endless Boogie.wav

Пиковый уровень 80.4 %
Скорость извлечения 8.6 X
Качество диапазона 100.0 %
CRC теста ED632B93
CRC копии ED632B93
Копирование… OK

Ошибок не произошло


AccurateRip: сводка

Трек 1 : извлечено точно (доверие 5) [5689F991] (AR v2)
Трек 2 : извлечено точно (доверие 5) [792B3061] (AR v2)
Трек 3 : извлечено точно (доверие 5) [A3556487] (AR v2)
Трек 4 : извлечено точно (доверие 5) [471084C0] (AR v2)
Трек 5 : извлечено точно (доверие 5) [A77EDCA6] (AR v2)
Трек 6 : извлечено точно (доверие 5) [CC976744] (AR v2)
Трек 7 : извлечено точно (доверие 5) [3E141025] (AR v2)
Трек 8 : извлечено точно (доверие 5) [327DC6B7] (AR v2)
Трек 9 : извлечено точно (доверие 5) [D66460E6] (AR v2)
Трек 10 : извлечено точно (доверие 5) [DA153CBD] (AR v2)
Трек 11 : извлечено точно (доверие 5) [AD0E69CB] (AR v2)

Все треки извлечены точно

Конец отчёта

–– CUETools DB Plugin V2.1.4

[CTDB TOCID: rYU9s19N8uZ79YaNbawfwiPuCOQ-] found
Submit result: rYU9s19N8uZ79YaNbawfwiPuCOQ- has been confirmed
Track | CTDB Status
1 | (5/5) Accurately ripped
2 | (3/5) Accurately ripped
3 | (5/5) Accurately ripped
4 | (5/5) Accurately ripped
5 | (5/5) Accurately ripped
6 | (5/5) Accurately ripped
7 | (5/5) Accurately ripped
8 | (5/5) Accurately ripped
9 | (5/5) Accurately ripped
10 | (4/5) Accurately ripped, or (1/5) differs in 6 samples @00:50:19
11 | (5/5) Accurately ripped


==== Контрольная сумма отчёта 368CBF7A0E3D03C6387B0B31DE5F2E2944D047654716A18682E9B57AA3D26AD2 ====

foobar2000 1.2 / Dynamic Range Meter 1.1.1
log date: 2017-03-06 04:28:53

––––––––––––––––––––––––––––––––––––––––
Analyzed: John Lee Hooker / Endless Boogie
––––––––––––––––––––––––––––––––––––––––

DR Peak RMS Duration Track
––––––––––––––––––––––––––––––––––––––––
DR10 -2.80 dB -14.83 dB 5:14 01-(I Got) A Good 'Un
DR12 -4.81 dB -19.30 dB 6:24 02-House Rent Boogie
DR12 -3.92 dB -18.64 dB 6:43 03-Kick Hit 4 Hit Kix U (Blues For Jimi And Janis)
DR11 -4.29 dB -17.88 dB 6:08 04-Standin' At The Crossroads
DR12 -3.36 dB -17.28 dB 11:24 05-Pots On, Gas On High
DR12 -3.09 dB -17.68 dB 8:05 06-We Might As Well Call It Through (I Didn't Get Married To Your Two-Timing Mot…
DR12 -3.66 dB -19.04 dB 3:31 07-Doin' The Shout
DR12 -2.97 dB -18.13 dB 6:31 08-A Sheep Out On The Foam
DR12 -1.89 dB -16.34 dB 4:18 09-I Don't Need No Steam Heat
DR12 -4.02 dB -18.65 dB 5:38 10-Sittin' In My Dark Room
DR11 -2.95 dB -16.33 dB 8:44 11-Endless Boogie, Parts 27 and 28
––––––––––––––––––––––––––––––––––––––––

Number of tracks: 11
Official DR value: DR12

Samplerate: 44100 Hz
Channels: 2
Bits per sample: 16
Bitrate: 670 kbps
Codec: FLAC
================================================================================

John Lee Hooker - Endless Boogie (1971)

John Lee Hooker - Endless Boogie (1971)

All thanks to original releaser - squirr

More interesting music in My Blog