Subcategories
Tags
Language
Tags

John Lee Hooker - Get Back Home (1969) Reissue 1999 [Re-Up]

Posted By: Designol
John Lee Hooker - Get Back Home (1969) Reissue 1999 [Re-Up]

John Lee Hooker - Get Back Home (1969) Reissue 1999
EAC | FLAC | Image (Cue&Log) ~ 350 Mb | Mp3 (CBR320) ~ 186 Mb | Scans included
Genre: Delta Blues | Label: Black & Blue | # BB 423.2 | Time: 01:13:24

John Lee Hooker's greatness lies in his ability to perform the same songs the same way yet somehow sound different and memorable in the process. He operates at maximum efficiency in minimal surroundings with little production or assistance. That was the case on a 1969 session for Black and Blue; it was just Hooker and his guitar moaning, wailing, and narrating on 10 tracks which included familiar ditties "Boogie Chillen," "Love Affair," "Big Boss Lady," and "Cold Chills." Evidence has now not only reissued these 10 but has added another six bonus cuts, bringing the CD total to 16. If you have ever heard any Hooker, you will not be surprised or stunned by these renditions; you will simply enjoy hearing him rework them one more time, finding a new word, phrase, line, or riff to inject.

Review by Ron Wynn, Allmusic

John Lee Hooker - Get Back Home (1969) Reissue 1999 [Re-Up]



Tracklist:

01. Get Back Home In The USA (3:33)
02. I Had A Dream Last Night (4:39)
03. Boogie Chillen (2:44)
04. T.B. Is Killing Me (5:06)
05. Cold Chills (4:39)
06. Love Affair (3:50)
07. Little Rain (4:54)
08. When My First Wife Left Me (5:26)
09. Big Boos Lady (3:44)
10. Back To Your Mother (5:14)
11. I Wanna Ramble (2:41)
12. Sittin' Here Thinkin' (4:47)
13. Hi-Heel Sneakers (3:06)
14. I'm So Worried Baby (5:42)
15. I'm Going Upstairs (4:02)
16. Crazy 'Bout You (5:31)
17. Boom Boom (3:46)


Exact Audio Copy V0.99 prebeta 4 from 23. January 2008

Отчёт EAC об извлечении, выполненном 12. января 2009, 23:07

John Lee Hooker / Get Back Home

Дисковод: HL-DT-STRW/DVD GCC-4522B Adapter: 1 ID: 1

Режим чтения : Достоверность
Использование точного потока : Да
Отключение кэша аудио : Да
Использование указателей C2 : Нет

Коррекция смещения при чтении : 6
Способность читать области Lead-in и Lead-out : Нет
Заполнение пропущенных сэмплов тишиной : Да
Удаление блоков с тишиной в начале и конце : Нет
При вычислениях CRC использовались нулевые сэмплы : Да
Интерфейс : Установленный внешний ASPI-интерфейс

Выходной формат : Пользовательский кодировщик
Выбранный битрейт : 1024 kBit/s
Качество : Высокий
Добавление ID3-тэга : Нет
Утилита сжатия : C:\Downloads\Программы\flac-1.1.1-win\bin\flac.exe
Дополнительные параметры : -V -8 -T "artist=%a" -T "title=%t" -T "album=%g" -T "date=%y" -T "tracknumber=%n" -T "genre=%m" %s


TOC извлечённого CD

Трек | Старт | Длительность | Начальный сектор | Конечный сектор
––––––––––––––––––––––––––––––––––-
1 | 0:00.00 | 3:32.57 | 0 | 15956
2 | 3:32.57 | 4:38.63 | 15957 | 36869
3 | 8:11.45 | 2:44.22 | 36870 | 49191
4 | 10:55.67 | 5:05.40 | 49192 | 72106
5 | 16:01.32 | 4:39.30 | 72107 | 93061
6 | 20:40.62 | 3:49.40 | 93062 | 110276
7 | 24:30.27 | 4:54.03 | 110277 | 132329
8 | 29:24.30 | 5:26.30 | 132330 | 156809
9 | 34:50.60 | 3:44.20 | 156810 | 173629
10 | 38:35.05 | 5:14.12 | 173630 | 197191
11 | 43:49.17 | 2:40.45 | 197192 | 209236
12 | 46:29.62 | 4:47.08 | 209237 | 230769
13 | 51:16.70 | 3:05.55 | 230770 | 244699
14 | 54:22.50 | 5:42.32 | 244700 | 270381
15 | 60:05.07 | 4:02.23 | 270382 | 288554
16 | 64:07.30 | 5:30.50 | 288555 | 313354
17 | 69:38.05 | 3:45.62 | 313355 | 330291


Характеристики диапазона извлечения и сообщения об ошибках

Выбранный диапазон

Имя файла J:\Новая папка\Rip\John Lee Hooker - Get Back Home.wav

Пиковый уровень 99.9 %
Качество диапазона 100.0 %
CRC теста 51E9D8BE
CRC копии 51E9D8BE
Копирование… OK

Ошибок не произошло


AccurateRip: сводка

Трек 1 нет в базе данных
Трек 2 нет в базе данных
Трек 3 нет в базе данных
Трек 4 нет в базе данных
Трек 5 нет в базе данных
Трек 6 нет в базе данных
Трек 7 нет в базе данных
Трек 8 нет в базе данных
Трек 9 нет в базе данных
Трек 10 нет в базе данных
Трек 11 нет в базе данных
Трек 12 нет в базе данных
Трек 13 нет в базе данных
Трек 14 нет в базе данных
Трек 15 нет в базе данных
Трек 16 нет в базе данных
Трек 17 нет в базе данных

Ни одного трека нет в базе AccurateRip

Конец отчёта

foobar2000 1.2.1 / Dynamic Range Meter 1.1.1
log date: 2013-01-20 14:40:49

––––––––––––––––––––––––––––––––––––––––
Analyzed: John Lee Hooker / Get Back Home
––––––––––––––––––––––––––––––––––––––––

DR Peak RMS Duration Track
––––––––––––––––––––––––––––––––––––––––
DR12 -1.62 dB -17.52 dB 3:33 01-Get Back Home In The USA
DR14 -3.61 dB -22.50 dB 4:39 02-I Had A Dream Last Night
DR12 -2.27 dB -19.19 dB 2:44 03-Boogie Chillen
DR12 -2.95 dB -19.15 dB 5:06 04-T.B. Is Killing Me
DR12 -5.08 dB -20.64 dB 4:39 05-Cold Chills
DR11 -1.47 dB -17.26 dB 3:50 06-Love Affair
DR12 -2.26 dB -19.01 dB 4:54 07-Little Rain
DR14 -2.99 dB -23.10 dB 5:26 08-When My First Wife Left Me
DR11 -1.56 dB -16.39 dB 3:44 09-Big Boos Lady
DR14 -3.07 dB -22.08 dB 5:14 10-Back To Your Mother
DR11 -1.32 dB -16.00 dB 2:41 11-I Wanna Ramble
DR17 -1.95 dB -24.60 dB 4:47 12-Sittin' Here Thinkin'
DR12 -1.49 dB -17.24 dB 3:06 13-Hi-Heel Sneakers
DR11 0.00 dB -16.30 dB 5:42 14-I'm So Worried Baby
DR15 -3.57 dB -23.23 dB 4:02 15-I'm Going Upstairs
DR15 -0.62 dB -21.96 dB 5:31 16-Crazy 'Bout You
DR10 0.00 dB -11.83 dB 3:46 17-Boom Boom
––––––––––––––––––––––––––––––––––––––––

Number of tracks: 17
Official DR value: DR13

Samplerate: 44100 Hz
Channels: 2
Bits per sample: 16
Bitrate: 631 kbps
Codec: FLAC
================================================================================

John Lee Hooker - Get Back Home (1969) Reissue 1999 [Re-Up]

John Lee Hooker - Get Back Home (1969) Reissue 1999 [Re-Up]

All thanks to original releaser - рмх222

More interesting music in My Blog