Tags
Language
Tags

John Lennon & Yoko Ono - Milk And Honey (1984) [2008, EMI TOCP-70400, Japan]

Posted By: v3122
John Lennon & Yoko Ono - Milk And Honey (1984) [2008, EMI TOCP-70400, Japan]

John Lennon & Yoko Ono - Milk And Honey (1984)
EAC | Flac(Image) + Cue + Log & MP3 CBR 320Kbps
EMI TOCP-70400 | ~ 407 or 160 Mb | Scans(jpg) -> 36 Mb
Classic Rock / Pop Rock | Remastered

The sessions for 1980's Double Fantasy were supposed to yield two albums, the second to be released at a future time, but Lennon's assassination tragically halted the project in its tracks. A bit over three years later, Yoko Ono issued tapes of many of the songs planned for that album under the title Milk and Honey, laid out in the same John-Yoko-John-Yoko dialogue fashion as its predecessor. Not unexpectedly, it's a rougher, less polished product, lacking the finishing touches and additional takes that Lennon most likely would have called for. Nevertheless, Lennon's songs at this point in their development were often quite strong, tougher than those on Double Fantasy in general, and the ad libs and studio chatter that might not have made the final cut give us more of a glimpse of Lennon's delightfully quirky personality. "Nobody Told Me," the advance single off the album, is a rollicking, quizzical piece of work, maybe the best thing to come out of John's 1980 sessions, despite the unfinished-sounding transition to the chorus. "Borrowed Time," another single, is a thoughtful, sparely worded meditation on growing older attached to a Caribbean beat. Yoko's contributions, while not as strong as John's, are surprisingly listenable – the reggae-based "Don't Be Scared," in particular – and more current in texture, and her lyrics do tend to answer John's songs. As the album comes toward the close, the tone turns sentimental, culminating with one of John's loveliest tunes, "Grow Old With Me," as presented on a home-recorded cassette in lieu of a studio recording. The ironies of this song and some of the other Lennon material are obviously poignant in the light of the cruel events of December 8, 1980; that and the fact that these songs haven't been as exposed as much as those on Double Fantasy lead some to prefer this sequel.

by Richard S. Ginell, allmusic
John Lennon & Yoko Ono - Milk And Honey (1984):

John Lennon & Yoko Ono - Milk And Honey (1984) [2008, EMI TOCP-70400, Japan]

Tracklist:

01. I'm Stepping Out 4:07
02. Sleepless Night 2:34
03. I Don't Wanna Face It 3:22
04. Don't Be Scared 2:45
05. Nobody Told Me 3:34
06. O' Sanity 1:06
07. Borrowed Time 4:29
08. Your Hands 3:04
09. (Forgive Me) My Little Flower Princess 2:28
10. Let Me Count The Ways 2:17
11. Glow Old With Me 3:09
12. You're The One 3:56
13. Every Man Has A Woman Who Loves Him 3:19
14. Stepping Out (Home Version) 2:58
15. I'm Moving On (Home Demo) 1:20
16. Interview With J & Y, December 8th, 1980 21:55

Exact Audio Copy V1.1 from 23. June 2015

Отчёт EAC об извлечении, выполненном 9. декабря 2015, 18:45

John Lennon & Yoko Ono / Double Fantasy

Дисковод: HL-DT-STDVDRAM GT32N Adapter: 1 ID: 0

Режим чтения : Достоверность
Использование точного потока : Да
Отключение кэша аудио : Да
Использование указателей C2 : Нет

Коррекция смещения при чтении : 103
Способность читать области Lead-in и Lead-out : Нет
Заполнение пропущенных сэмплов тишиной : Да
Удаление блоков с тишиной в начале и конце : Нет
При вычислениях CRC использовались нулевые сэмплы : Да
Интерфейс : Встроенный Win32-интерфейс для Win NT/2000

Выходной формат : Пользовательский кодировщик
Выбранный битрейт : 1024 kBit/s
Качество : Высокий
Добавление ID3-тега : Нет
Утилита сжатия : C:\Program Files\Exact Audio Copy\Flac\flac.exe
Дополнительные параметры : -V -8 -T "Date=%year%" -T "Genre=%genre%" %source%


TOC извлечённого CD

Трек | Старт | Длительность | Начальный сектор | Конечный сектор
––––––––––––––––––––––––––––––––––-
1 | 0:00.00 | 3:56.15 | 0 | 17714
2 | 3:56.15 | 2:41.50 | 17715 | 29839
3 | 6:37.65 | 2:58.33 | 29840 | 43222
4 | 9:36.23 | 1:34.65 | 43223 | 50337
5 | 11:11.13 | 3:57.42 | 50338 | 68154
6 | 15:08.55 | 2:21.28 | 68155 | 78757
7 | 17:30.08 | 4:04.55 | 78758 | 97112
8 | 21:34.63 | 3:59.32 | 97113 | 115069
9 | 25:34.20 | 3:09.45 | 115070 | 129289
10 | 28:43.65 | 3:32.60 | 129290 | 145249
11 | 32:16.50 | 2:55.10 | 145250 | 158384
12 | 35:11.60 | 2:34.33 | 158385 | 169967
13 | 37:46.18 | 4:02.52 | 169968 | 188169
14 | 41:48.70 | 3:19.30 | 188170 | 203124


Характеристики диапазона извлечения и сообщения об ошибках

Выбранный диапазон

Имя файла D:\John Lennon & Yoko Ono 1980 Double Fantasy\John Lennon & Yoko Ono - Double Fantasy.wav

Пиковый уровень 98.4 %
Скорость извлечения 1.9 X
Качество диапазона 100.0 %
CRC теста F196AB65
CRC копии F196AB65
Копирование… OK

Ошибок не произошло


AccurateRip: сводка

Трек 1 : извлечено точно (доверие 6) [C9CFC564] (AR v2)
Трек 2 : извлечено точно (доверие 6) [86B65E38] (AR v2)
Трек 3 : извлечено точно (доверие 6) [B1CC4D76] (AR v2)
Трек 4 : извлечено точно (доверие 6) [8ECE610E] (AR v2)
Трек 5 : извлечено точно (доверие 6) [3A30DC7F] (AR v2)
Трек 6 : извлечено точно (доверие 6) [CDB6FAEE] (AR v2)
Трек 7 : извлечено точно (доверие 6) [B5835593] (AR v2)
Трек 8 : извлечено точно (доверие 6) [0E3F1077] (AR v2)
Трек 9 : извлечено точно (доверие 6) [82DC67B4] (AR v2)
Трек 10 : извлечено точно (доверие 6) [9CE14AD9] (AR v2)
Трек 11 : извлечено точно (доверие 6) [15C3786B] (AR v2)
Трек 12 : извлечено точно (доверие 6) [CD9BC26E] (AR v2)
Трек 13 : извлечено точно (доверие 5) [126D6C1A] (AR v2)
Трек 14 : извлечено точно (доверие 5) [C681DA88] (AR v2)

Все треки извлечены точно

Конец отчёта

–– CUETools DB Plugin V2.1.6

[CTDB TOCID: pQP4ge34MIV26RuoLlr8O5ULhkw-] found
Submit result: pQP4ge34MIV26RuoLlr8O5ULhkw- has been confirmed
Track | CTDB Status
1 | (16/16) Accurately ripped
2 | (16/16) Accurately ripped
3 | (16/16) Accurately ripped
4 | (16/16) Accurately ripped
5 | (16/16) Accurately ripped
6 | (16/16) Accurately ripped
7 | (16/16) Accurately ripped
8 | (16/16) Accurately ripped
9 | (16/16) Accurately ripped
10 | (16/16) Accurately ripped
11 | (16/16) Accurately ripped
12 | (16/16) Accurately ripped
13 | (16/16) Accurately ripped
14 | (16/16) Accurately ripped


==== Контрольная сумма отчёта EDDDFB7FBF81C402CBFD9597A027E0CBFDA36A7BD48307F904AB8FE3C70DC8B6 ====


[CUETools log; Date: 28.05.2018 9:14:01; Version: 2.1.5]
[AccurateRip ID: 001de5da-016a6056-e20f8e10] found.
Track [ CRC | V2 ] Status
01 [ec518c0b|044e6cd9] (05+08/30) Accurately ripped
02 [ab2eceac|1426d480] (05+08/30) Accurately ripped
03 [5572e2a0|3731dafe] (05+08/30) Accurately ripped
04 [45f6175c|79d8b8b5] (05+08/30) Accurately ripped
05 [d1e80526|e5e73b77] (05+08/30) Accurately ripped
06 [04abfeed|6effa4ee] (05+08/30) Accurately ripped
07 [a7ab700a|8d1b4ce2] (05+08/30) Accurately ripped
08 [03b1adaf|7293bb12] (05+08/30) Accurately ripped
09 [58cb86e0|c286736d] (05+08/30) Accurately ripped
10 [8cad8a14|e258ca7e] (05+08/30) Accurately ripped
11 [656857d8|87e27651] (05+08/30) Accurately ripped
12 [dd3971b4|3bbdfe49] (05+08/30) Accurately ripped
13 [5bc53a58|64575d44] (05+08/30) Accurately ripped
14 [1d91ea5e|ba05fa8e] (05+08/30) Accurately ripped
15 [742f0cf6|a847d614] (05+08/30) Accurately ripped
16 [9c957904|100e27ec] (04+08/28) Accurately ripped
Offsetted by 794:
01 [132902e2] (04/30) Accurately ripped
02 [a6019c87] (04/30) Accurately ripped
03 [2e3e67c0] (04/30) Accurately ripped
04 [6ce30262] (04/30) Accurately ripped
05 [cf499984] (04/30) Accurately ripped
06 [63fd0037] (04/30) Accurately ripped
07 [85c8d42b] (04/30) Accurately ripped
08 [7c31dbf4] (04/30) Accurately ripped
09 [33942dfa] (04/30) Accurately ripped
10 [e00aa0fe] (04/30) Accurately ripped
11 [9371e934] (04/30) Accurately ripped
12 [06e071e0] (04/30) Accurately ripped
13 [74393fea] (04/30) Accurately ripped
14 [f1e58294] (04/30) Accurately ripped
15 [94c58c06] (04/30) Accurately ripped
16 [df401644] (04/28) Accurately ripped
Offsetted by 6:
01 [855bddfd] (00/30) No match (V2 was not tested)
02 [9f8c62e6] (00/30) No match (V2 was not tested)
03 [55e406d6] (00/30) No match (V2 was not tested)
04 [9df40336] (00/30) No match (V2 was not tested)
05 [15982728] (00/30) No match (V2 was not tested)
06 [cd4a97c3] (00/30) No match (V2 was not tested)
07 [ee491275] (00/30) No match (V2 was not tested)
08 [53588c47] (00/30) No match (V2 was not tested)
09 [84ac01a1] (00/30) No match (V2 was not tested)
10 [b5248d44] (00/30) No match (V2 was not tested)
11 [c4602582] (00/30) No match (V2 was not tested)
12 [e357b948] (00/30) No match (V2 was not tested)
13 [1cc2e166] (00/30) No match (V2 was not tested)
14 [6afe9849] (00/30) No match (V2 was not tested)
15 [d90a1add] (00/30) No match (V2 was not tested)
16 [ce185fc4] (00/28) No match (V2 was not tested)

Track Peak [ CRC32 ] [W/O NULL] [ LOG ]
– 99,9 [34A619C2] [E5BC9F9F] CRC32
01 99,9 [E94A4511] [2C3EF55F]
02 99,9 [7A23E078] [8809219B]
03 99,9 [25F847A0] [8D5B6CDC]
04 99,9 [C0A80FC8] [A729DDD7]
05 99,9 [54DEE8D2] [FDBA5652]
06 99,9 [A6F9DCA0] [649B152B]
07 99,9 [C0DDB2B4] [867F8E30]
08 99,9 [6F696278] [21D688C1]
09 99,9 [533C5D53] [023AD053]
10 99,9 [EF140AAE] [694930CC]
11 99,9 [1E967703] [033E2E7F]
12 99,9 [37A78C53] [FD046FF8]
13 99,9 [D65376E2] [D996B01F]
14 78,8 [DE5D4E78] [5A610785]
15 91,1 [9CDE2D51] [B4B5CA87]
16 80,3 [DCB64FED] [51E0731C]


John Lennon & Yoko Ono - Milk And Honey (1984) [2008, EMI TOCP-70400, Japan]

All thanks go to dafnaplus

John Lennon in my Blog

Download John Lennon & Yoko Ono - Milk And Honey (1984):