Tags
Language
Tags

John Lennon & Yoko Ono - Double Fantasy/Stripped Down (2010)

Posted By: v3122
John Lennon & Yoko Ono - Double Fantasy/Stripped Down (2010)

John Lennon & Yoko Ono - Double Fantasy/Stripped Down (2010)
EAC | Flac(Image) + Cue + Log & MP3 CBR 320Kbps
2CD | Capitol, 5099990599026 | ~ 600 or 220 Mb | Scans(jpg) -> 127 Mb
Pop Rock / Claasic Rock

The one unreleased item among Apple/EMI's exhaustive 2010 John Lennon reissue campaign was Double Fantasy Stripped Down, a revision of the original 1980 album supervised by Yoko Ono and producer Jack Douglas. The intent of this new mix is to give the recording a greater sense of intimacy, but Double Fantasy isn’t Let It Be: it doesn’t have a heavily bootlegged original early incarnation, it only exists in its final form; it’s not an album that was designed as a raw back-to-basics record, it was constructed as a slick studio affair. Stripped Down attempts to take only one coat of varnish off of Double Fantasy, stripping away reverb and backing vocals, dampening some of the brighter colors and adding some studio chatter to give the illusion of eavesdropping on the studio, trimming the length of some tracks slightly, lengthening a couple other imperceptibly, boosting John’s voice to the front of the mix. Apart from “(Just Like) Starting Over,” where the removal of the doo wop backing vocals undercuts the loving oldies homage of the song, the changes are so subtle that they’re felt more than heard, cumulatively not affecting the impact of the album all that much. Ultimately, Stripped Down sounds like a rough mix waiting for all the polish that made Double Fantasy feel like a full, complete album.

by Stephen Thomas Erlewine, allmusic
John Lennon & Yoko Ono - Double Fantasy/Stripped Down (2010)


John Lennon & Yoko Ono - Double Fantasy/Stripped Down (2010):

John Lennon & Yoko Ono - Double Fantasy/Stripped Down (2010)

Tracklist CD1:

01. (Just Like) Starting Over 4:24
02. Kiss Kiss Kiss 2:45
03. Cleanup Time 3:56
04. Give Me Something 1:31
05. I'm Losing You 4:26
06. I'm Moving On 2:29
07. Beautiful Boy (Darling Boy) 3:50
08. Watching the Wheels 3:32
09. Yes, I'm Your Angel 2:53
10. Woman 3:45
11. Beautiful Boys 3:16
12. Dear Yoko 3:03
13. Every Man Has A Woman Who Loves Him 4:46
14. Hard Times Are Over 3:38

Exact Audio Copy V1.2 from 12. August 2016

EAC extraction logfile from 16. November 2016, 21:07

John Lennon & Yoko Ono / Double Fantasy - Stripped Down (Disc 1) (5099990599026)

Used drive : PLEXTOR DVDR PX-891SA Adapter: 1 ID: 0

Read mode : Secure
Utilize accurate stream : Yes
Defeat audio cache : Yes
Make use of C2 pointers : No

Read offset correction : 6
Overread into Lead-In and Lead-Out : No
Fill up missing offset samples with silence : Yes
Delete leading and trailing silent blocks : No
Null samples used in CRC calculations : Yes
Used interface : Native Win32 interface for Win NT & 2000

Used output format : User Defined Encoder
Selected bitrate : 128 kBit/s
Quality : High
Add ID3 tag : No
Command line compressor : C:\Program Files (x86)\Exact Audio Copy\Flac\flac.exe
Additional command line options : -V -8 -T "Genre=%genre%" -T "Artist=%artist%" -T "Title=%title%" -T "Album=%albumtitle%" -T "Date=%year%" -T "Tracknumber=%tracknr%" -T "Comment=%comment%" %source%


TOC of the extracted CD

Track | Start | Length | Start sector | End sector
––––––––––––––––––––––––––––-
1 | 0:00.00 | 4:24.35 | 0 | 19834
2 | 4:24.35 | 2:44.47 | 19835 | 32181
3 | 7:09.07 | 3:56.01 | 32182 | 49882
4 | 11:05.08 | 1:31.10 | 49883 | 56717
5 | 12:36.18 | 4:25.50 | 56718 | 76642
6 | 17:01.68 | 2:28.40 | 76643 | 87782
7 | 19:30.33 | 3:50.10 | 87783 | 105042
8 | 23:20.43 | 3:32.22 | 105043 | 120964
9 | 26:52.65 | 2:53.33 | 120965 | 133972
10 | 29:46.23 | 3:45.17 | 133973 | 150864
11 | 33:31.40 | 3:15.60 | 150865 | 165549
12 | 36:47.25 | 3:03.04 | 165550 | 179278
13 | 39:50.29 | 4:45.53 | 179279 | 200706
14 | 44:36.07 | 3:37.53 | 200707 | 217034


Range status and errors

Selected range

Filename H:\dafnaplus\John Lennon & Yoko Ono - Double Fantasy-Stripped Down\Disc 1\John Lennon & Yoko Ono - Double Fantasy - Stripped Down (Disc 1) (5099990599026).wav

Peak level 98.8 %
Extraction speed 7.8 X
Range quality 100.0 %
Test CRC EB443742
Copy CRC EB443742
Copy OK

No errors occurred


AccurateRip summary

Track 1 accurately ripped (confidence 99) [9DCA0726] (AR v2)
Track 2 accurately ripped (confidence 97) [D6779E1F] (AR v2)
Track 3 accurately ripped (confidence 99) [FA4D7B93] (AR v2)
Track 4 accurately ripped (confidence 97) [F2ACA6F4] (AR v2)
Track 5 accurately ripped (confidence 99) [5DE569AB] (AR v2)
Track 6 accurately ripped (confidence 97) [0603CA7F] (AR v2)
Track 7 accurately ripped (confidence 99) [3661A811] (AR v2)
Track 8 accurately ripped (confidence 99) [AC0C867A] (AR v2)
Track 9 accurately ripped (confidence 96) [1AE016AD] (AR v2)
Track 10 accurately ripped (confidence 99) [88D44D55] (AR v2)
Track 11 accurately ripped (confidence 97) [79BE46F7] (AR v2)
Track 12 accurately ripped (confidence 99) [552FCE9A] (AR v2)
Track 13 accurately ripped (confidence 97) [A3E9A017] (AR v2)
Track 14 accurately ripped (confidence 98) [A72518B0] (AR v2)

All tracks accurately ripped

End of status report

–– CUETools DB Plugin V2.1.6

[CTDB TOCID: HPCMGVdLSVohl7Vjzmw3kpRR1Cs-] found
Submit result: already submitted
Track | CTDB Status
1 | (146/146) Accurately ripped
2 | (146/146) Accurately ripped
3 | (146/146) Accurately ripped
4 | (146/146) Accurately ripped
5 | (146/146) Accurately ripped
6 | (145/146) Accurately ripped
7 | (145/146) Accurately ripped
8 | (145/146) Accurately ripped
9 | (146/146) Accurately ripped
10 | (146/146) Accurately ripped
11 | (145/146) Accurately ripped
12 | (146/146) Accurately ripped
13 | (146/146) Accurately ripped
14 | (146/146) Accurately ripped


==== Log checksum A038E53E220B7FED34349D521985FE1CA61479596F076812709BE83D57542864 ====

foobar2000 1.2.9 / Dynamic Range Meter 1.1.1
log date: 2016-12-11 16:39:25

––––––––––––––––––––––––––––––––––––––––
Analyzed: John Lennon & Yoko Ono / Double Fantasy - Stripped Down (Disc 1) (5099990599026)
––––––––––––––––––––––––––––––––––––––––

DR Peak RMS Duration Track
––––––––––––––––––––––––––––––––––––––––
DR9 -0.10 dB -10.87 dB 4:24 01-(Just Like) Starting Over
DR9 -0.10 dB -11.05 dB 2:45 02-Kiss Kiss Kiss
DR9 -0.10 dB -10.92 dB 3:56 03-Cleanup Time
DR9 -0.10 dB -10.41 dB 1:31 04-Give Me Something
DR8 -0.10 dB -9.84 dB 4:26 05-I'm Losing You
DR7 -0.10 dB -9.52 dB 2:29 06-I'm Moving On
DR10 -0.10 dB -12.53 dB 3:50 07-Beautiful Boy (Darling Boy)
DR10 -0.15 dB -12.19 dB 3:32 08-Watching the Wheels
DR10 -0.10 dB -12.52 dB 2:53 09-Yes, I'm Your Angel
DR10 -0.10 dB -11.86 dB 3:45 10-Woman
DR10 -0.10 dB -11.86 dB 3:16 11-Beautiful Boys
DR10 -0.10 dB -11.86 dB 3:03 12-Dear Yoko
DR10 -0.10 dB -12.83 dB 4:46 13-Every Man Has A Woman Who Loves Him
DR8 -0.10 dB -10.78 dB 3:38 14-Hard Times Are Over
––––––––––––––––––––––––––––––––––––––––

Number of tracks: 14
Official DR value: DR9

Samplerate: 44100 Hz
Channels: 2
Bits per sample: 16
Bitrate: 883 kbps
Codec: FLAC

[CUETools log; Date: 11.12.2016 13:36:40; Version: 2.1.5]
[CTDB TOCID: HPCMGVdLSVohl7Vjzmw3kpRR1Cs-] found.
Track | CTDB Status
1 | (149/149) Accurately ripped
2 | (149/149) Accurately ripped
3 | (149/149) Accurately ripped
4 | (149/149) Accurately ripped
5 | (149/149) Accurately ripped
6 | (148/149) Accurately ripped
7 | (148/149) Accurately ripped
8 | (148/149) Accurately ripped
9 | (149/149) Accurately ripped
10 | (149/149) Accurately ripped
11 | (148/149) Accurately ripped
12 | (149/149) Accurately ripped
13 | (149/149) Accurately ripped
14 | (149/149) Accurately ripped
[AccurateRip ID: 00185c2d-0103783a-b50b4d0e] found.
Track [ CRC | V2 ] Status
01 [bf702a31|9dca0726] (037+101/236) Accurately ripped
02 [2ba78e81|d6779e1f] (035+099/231) Accurately ripped
03 [37a7743d|fa4d7b93] (037+101/237) Accurately ripped
04 [f3ae8deb|f2aca6f4] (035+099/231) Accurately ripped
05 [9b8b9178|5de569ab] (037+101/238) Accurately ripped
06 [27bf2b41|0603ca7f] (035+099/231) Accurately ripped
07 [45fdc56d|3661a811] (037+101/238) Accurately ripped
08 [13b46b6b|ac0c867a] (037+101/238) Accurately ripped
09 [a5650c0c|1ae016ad] (035+098/230) Accurately ripped
10 [89f01982|88d44d55] (037+101/238) Accurately ripped
11 [21a3b284|79be46f7] (035+099/231) Accurately ripped
12 [409b0ba1|552fce9a] (037+101/237) Accurately ripped
13 [0f88e05c|a3e9a017] (035+099/230) Accurately ripped
14 [fa37293b|a72518b0] (036+100/234) Accurately ripped
Offsetted by -676:
01 [06d6bb6f] (002/236) Accurately ripped
02 [7796eb11] (002/231) Accurately ripped
03 [a6776d2b] (002/237) Accurately ripped
04 [4e38e58d] (002/231) Accurately ripped
05 [9bf8803b] (002/238) Accurately ripped
06 [909feae1] (002/231) Accurately ripped
07 [17badb25] (002/238) Accurately ripped
08 [0aa88fb6] (002/238) Accurately ripped
09 [b12296d8] (002/230) Accurately ripped
10 [5a376c22] (002/238) Accurately ripped
11 [50504842] (002/231) Accurately ripped
12 [9cbe19da] (002/237) Accurately ripped
13 [8220dff8] (002/230) Accurately ripped
14 [0dd6e70c] (002/234) Accurately ripped
Offsetted by -12:
01 [11c838e9] (038/236) Accurately ripped
02 [2f4a60a9] (037/231) Accurately ripped
03 [bce52645] (038/237) Accurately ripped
04 [6b748a08] (037/231) Accurately ripped
05 [ccbef190] (038/238) Accurately ripped
06 [68fd569e] (037/231) Accurately ripped
07 [0f20a97c] (038/238) Accurately ripped
08 [890723bc] (038/238) Accurately ripped
09 [83e5d812] (037/230) Accurately ripped
10 [872ea9ef] (038/238) Accurately ripped
11 [0f9cbe0e] (037/231) Accurately ripped
12 [d3b2eca5] (038/237) Accurately ripped
13 [cac795c1] (037/230) Accurately ripped
14 [80acc147] (037/234) Accurately ripped
Offsetted by -48:
01 [210f1b2b] (000/236) No match (V2 was not tested)
02 [3a087889] (000/231) No match (V2 was not tested)
03 [97af4312] (000/237) No match (V2 was not tested)
04 [95a2341f] (000/231) No match (V2 was not tested)
05 [d32383bd] (000/238) No match (V2 was not tested)
06 [3f979b74] (000/231) No match (V2 was not tested)
07 [8ce8de9c] (000/238) No match (V2 was not tested)
08 [89ed4cc2] (000/238) No match (V2 was not tested)
09 [b4d729e1] (000/230) No match (V2 was not tested)
10 [72c73880] (000/238) No match (V2 was not tested)
11 [a7ca745f] (000/231) No match (V2 was not tested)
12 [f449aa48] (000/237) No match (V2 was not tested)
13 [db1c4a81] (000/230) No match (V2 was not tested)
14 [156c7744] (000/234) No match (V2 was not tested)

Track Peak [ CRC32 ] [W/O NULL] [ LOG ]
– 98,8 [EB443742] [F887F62B] CRC32
01 98,8 [2DC623F5] [20041F3D]
02 98,8 [9BF74BF1] [9C8872DC]
03 98,8 [50D3A29E] [9FA2F81C]
04 98,8 [DF6645F2] [2FB01B92]
05 98,8 [A41899C8] [5DF902BE]
06 98,8 [2E98617F] [9B8293D7]
07 98,8 [FD82A1A0] [509BC3CB]
08 98,2 [F4638A74] [AC8BFA6F]
09 98,8 [B6A11A30] [41126591]
10 98,8 [E2D35B8E] [A6260D7D]
11 98,8 [CAF411A5] [F964D89C]
12 98,8 [B5CBE12A] [4CF203F3]
13 98,8 [A905E127] [EDFA4FFA]
14 98,8 [49D6F211] [BF1A2B5E]

John Lennon & Yoko Ono - Double Fantasy/Stripped Down (2010)

Tracklist CD2:

01. (Just Like) Starting Over 3:57
02. Kiss Kiss Kiss 2:42
03. Cleanup Time 2:59
04. Give Me Something 1:35
05. I'm Losing You 3:57
06. I'm Moving On 2:22
07. Beautiful Boy (Darling Boy) 4:06
08. Watching The Wheels 4:00
09. Yes, I'm Your Angel 3:09
10. Woman 3:33
11. Beautiful Boys 2:55
12. Dear Yoko 2:35
13. Every Man Has A Woman Who Loves Him 4:03
14. Hard Times Are Over 3:19

Exact Audio Copy V1.2 from 12. August 2016

EAC extraction logfile from 16. November 2016, 20:35

John Lennon & Yoko Ono / Double Fantasy - Original Album (Disc 2) (5099990599026)

Used drive : PLEXTOR DVDR PX-891SA Adapter: 1 ID: 0

Read mode : Secure
Utilize accurate stream : Yes
Defeat audio cache : Yes
Make use of C2 pointers : No

Read offset correction : 6
Overread into Lead-In and Lead-Out : No
Fill up missing offset samples with silence : Yes
Delete leading and trailing silent blocks : No
Null samples used in CRC calculations : Yes
Used interface : Native Win32 interface for Win NT & 2000

Used output format : User Defined Encoder
Selected bitrate : 128 kBit/s
Quality : High
Add ID3 tag : No
Command line compressor : C:\Program Files (x86)\Exact Audio Copy\Flac\flac.exe
Additional command line options : -V -8 -T "Genre=%genre%" -T "Artist=%artist%" -T "Title=%title%" -T "Album=%albumtitle%" -T "Date=%year%" -T "Tracknumber=%tracknr%" -T "Comment=%comment%" %source%


TOC of the extracted CD

Track | Start | Length | Start sector | End sector
––––––––––––––––––––––––––––-
1 | 0:00.00 | 3:56.41 | 0 | 17740
2 | 3:56.41 | 2:41.74 | 17741 | 29889
3 | 6:38.40 | 2:58.44 | 29890 | 43283
4 | 9:37.09 | 1:34.70 | 43284 | 50403
5 | 11:12.04 | 3:57.12 | 50404 | 68190
6 | 15:09.16 | 2:21.73 | 68191 | 78838
7 | 17:31.14 | 4:05.52 | 78839 | 97265
8 | 21:36.66 | 3:59.70 | 97266 | 115260
9 | 25:36.61 | 3:09.33 | 115261 | 129468
10 | 28:46.19 | 3:32.70 | 129469 | 145438
11 | 32:19.14 | 2:55.33 | 145439 | 158596
12 | 35:14.47 | 2:34.45 | 158597 | 170191
13 | 37:49.17 | 4:03.01 | 170192 | 188417
14 | 41:52.18 | 3:19.31 | 188418 | 203373


Range status and errors

Selected range

Filename H:\dafnaplus\John Lennon & Yoko Ono - Double Fantasy-Stripped Down\Disc 2\John Lennon & Yoko Ono - Double Fantasy - Original Album (Disc 2) (5099990599026).wav

Peak level 97.7 %
Extraction speed 7.7 X
Range quality 100.0 %
Test CRC B0E37F65
Copy CRC B0E37F65
Copy OK

No errors occurred


AccurateRip summary

Track 1 accurately ripped (confidence 126) [EC93564A] (AR v2)
Track 2 accurately ripped (confidence 123) [18E5254D] (AR v2)
Track 3 accurately ripped (confidence 126) [9822C4EF] (AR v2)
Track 4 accurately ripped (confidence 124) [2849D6F4] (AR v2)
Track 5 accurately ripped (confidence 127) [7C49AD05] (AR v2)
Track 6 accurately ripped (confidence 122) [EA280D52] (AR v2)
Track 7 accurately ripped (confidence 126) [165077E8] (AR v2)
Track 8 accurately ripped (confidence 125) [602A6A2D] (AR v2)
Track 9 accurately ripped (confidence 122) [94B70D21] (AR v2)
Track 10 accurately ripped (confidence 126) [8E7A82E1] (AR v2)
Track 11 accurately ripped (confidence 122) [F4A5A635] (AR v2)
Track 12 accurately ripped (confidence 124) [C67984EE] (AR v2)
Track 13 accurately ripped (confidence 122) [9DA5A484] (AR v2)
Track 14 accurately ripped (confidence 121) [B8DD41CD] (AR v2)

All tracks accurately ripped

End of status report

–– CUETools DB Plugin V2.1.6

[CTDB TOCID: k75NhBMhTGpQ07YcGSKTKUlgPTw-] found
Submit result: already submitted
Track | CTDB Status
1 | (210/212) Accurately ripped
2 | (210/212) Accurately ripped
3 | (210/212) Accurately ripped
4 | (210/212) Accurately ripped
5 | (208/212) Accurately ripped
6 | (210/212) Accurately ripped
7 | (210/212) Accurately ripped
8 | (209/212) Accurately ripped
9 | (207/212) Accurately ripped
10 | (208/212) Accurately ripped
11 | (210/212) Accurately ripped
12 | (210/212) Accurately ripped
13 | (210/212) Accurately ripped
14 | (209/212) Accurately ripped


==== Log checksum 37202685E2D21DC8FAC5E6708908B2969CBE7A49047E794E629EE994A19D751F ====

foobar2000 1.2.9 / Dynamic Range Meter 1.1.1
log date: 2016-12-11 16:39:08

––––––––––––––––––––––––––––––––––––––––
Analyzed: John Lennon & Yoko Ono / Double Fantasy - Original Album (Disc 2) (5099990599026)
––––––––––––––––––––––––––––––––––––––––

DR Peak RMS Duration Track
––––––––––––––––––––––––––––––––––––––––
DR9 -1.21 dB -12.38 dB 3:57 01-(Just Like) Starting Over
DR12 -0.20 dB -14.36 dB 2:42 02-Kiss Kiss Kiss
DR10 -0.20 dB -12.17 dB 2:59 03-Cleanup Time
DR9 -0.20 dB -11.01 dB 1:35 04-Give Me Something
DR9 -0.20 dB -11.60 dB 3:57 05-I'm Losing You
DR10 -0.21 dB -12.10 dB 2:22 06-I'm Moving On
DR11 -0.20 dB -14.43 dB 4:06 07-Beautiful Boy (Darling Boy)
DR10 -0.20 dB -12.62 dB 4:00 08-Watching The Wheels
DR13 -0.20 dB -16.07 dB 3:09 09-Yes, I'm Your Angel
DR8 -0.20 dB -10.65 dB 3:33 10-Woman
DR10 -0.20 dB -12.56 dB 2:55 11-Beautiful Boys
DR9 -0.20 dB -10.88 dB 2:35 12-Dear Yoko
DR10 -0.20 dB -11.96 dB 4:03 13-Every Man Has A Woman Who Loves Him
DR9 -0.20 dB -11.80 dB 3:19 14-Hard Times Are Over
––––––––––––––––––––––––––––––––––––––––

Number of tracks: 14
Official DR value: DR10

Samplerate: 44100 Hz
Channels: 2
Bits per sample: 16
Bitrate: 860 kbps
Codec: FLAC

[CUETools log; Date: 11.12.2016 13:38:20; Version: 2.1.5]
[CTDB TOCID: k75NhBMhTGpQ07YcGSKTKUlgPTw-] found.
Track | CTDB Status
1 | (216/218) Accurately ripped
2 | (216/218) Accurately ripped
3 | (216/218) Accurately ripped
4 | (216/218) Accurately ripped
5 | (214/218) Accurately ripped
6 | (216/218) Accurately ripped
7 | (216/218) Accurately ripped
8 | (215/218) Accurately ripped
9 | (213/218) Accurately ripped
10 | (214/218) Accurately ripped
11 | (216/218) Accurately ripped
12 | (216/218) Accurately ripped
13 | (216/218) Accurately ripped
14 | (215/218) Accurately ripped
[AccurateRip ID: 0016d52d-00f48766-b50a970e] found.
Track [ CRC | V2 ] Status
01 [7abe69cc|ec93564a] (048+128/333) Accurately ripped
02 [1a8e88de|18e5254d] (046+125/325) Accurately ripped
03 [34a9874e|9822c4ef] (048+128/332) Accurately ripped
04 [d32ceff3|2849d6f4] (046+126/325) Accurately ripped
05 [414577c3|7c49ad05] (049+129/334) Accurately ripped
06 [dde31972|ea280d52] (046+124/324) Accurately ripped
07 [1c52137d|165077e8] (049+128/333) Accurately ripped
08 [d90513bc|602a6a2d] (049+127/333) Accurately ripped
09 [d9a2a787|94b70d21] (046+124/325) Accurately ripped
10 [ce0d91f4|8e7a82e1] (049+128/335) Accurately ripped
11 [0e2cf3ab|f4a5a635] (045+124/324) Accurately ripped
12 [38c186f2|c67984ee] (048+126/331) Accurately ripped
13 [70a83cfb|9da5a484] (045+124/325) Accurately ripped
14 [5fd61576|b8dd41cd] (047+123/323) Accurately ripped
Offsetted by -676:
01 [81476ebb] (002/333) Accurately ripped
02 [b900e4be] (002/325) Accurately ripped
03 [680db12d] (002/332) Accurately ripped
04 [fee0ab40] (002/325) Accurately ripped
05 [6dd0b987] (002/334) Accurately ripped
06 [772c64f1] (002/324) Accurately ripped
07 [4df1b06f] (002/333) Accurately ripped
08 [c7e1dcca] (002/333) Accurately ripped
09 [e71f3b05] (002/325) Accurately ripped
10 [0c72fe31] (002/335) Accurately ripped
11 [e2f957ee] (002/324) Accurately ripped
12 [555ffd0a] (002/331) Accurately ripped
13 [6344226f] (002/325) Accurately ripped
14 [2d5ade8f] (002/323) Accurately ripped
Offsetted by -12:
01 [eef98edd] (057/333) Accurately ripped
02 [8df4c306] (056/325) Accurately ripped
03 [cd70af49] (057/332) Accurately ripped
04 [ed5c9b71] (056/325) Accurately ripped
05 [311b55ab] (057/334) Accurately ripped
06 [d581c892] (056/324) Accurately ripped
07 [5c157aef] (057/333) Accurately ripped
08 [7a7a3a82] (058/333) Accurately ripped
09 [6d37e071] (057/325) Accurately ripped
10 [fdeac7ef] (058/335) Accurately ripped
11 [4c7bad72] (057/324) Accurately ripped
12 [2a69e365] (058/331) Accurately ripped
13 [3ac4a9d4] (057/325) Accurately ripped
14 [b7cffa98] (055/323) Accurately ripped
Offsetted by 123:
01 [c26a8f3f] (002/333) Accurately ripped
02 [a99678bb] (002/325) Accurately ripped
03 [ebfd5256] (002/332) Accurately ripped
04 [88d5750a] (002/325) Accurately ripped
05 [fa05cd22] (002/334) Accurately ripped
06 [179e15b0] (002/324) Accurately ripped
07 [56cda8af] (002/333) Accurately ripped
08 [8bee91ad] (002/333) Accurately ripped
09 [85a18367] (002/325) Accurately ripped
10 [318a170e] (002/335) Accurately ripped
11 [55f9670e] (002/324) Accurately ripped
12 [45f35fbe] (002/331) Accurately ripped
13 [3f3b63c2] (002/325) Accurately ripped
14 [cc9e67b2] (002/323) Accurately ripped
Offsetted by -6:
01 [cb4e7c51] (000/333) No match (V2 was not tested)
02 [57f42885] (000/325) No match (V2 was not tested)
03 [efad851d] (000/332) No match (V2 was not tested)
04 [ede47b30] (000/325) No match (V2 was not tested)
05 [fb238191] (000/334) No match (V2 was not tested)
06 [8f604562] (000/324) No match (V2 was not tested)
07 [bc30c73b] (000/333) No match (V2 was not tested)
08 [86154d46] (000/333) No match (V2 was not tested)
09 [3ae6c2b9] (000/325) No match (V2 was not tested)
10 [634ee405] (000/335) No match (V2 was not tested)
11 [420dbb26] (000/324) No match (V2 was not tested)
12 [b5b8b52a] (000/331) No match (V2 was not tested)
13 [e5afebd7] (000/325) No match (V2 was not tested)
14 [8d83f67d] (000/323) No match (V2 was not tested)

Track Peak [ CRC32 ] [W/O NULL] [ LOG ]
– 97,7 [B0E37F65] [F9E21268] CRC32
01 87,0 [09B1DB9D] [5D60772B]
02 97,7 [5B969E87] [B008A6E4]
03 97,7 [FEF86606] [2E024190]
04 97,7 [B9B2DA6B] [172EB47A]
05 97,6 [564983AF] [A2AAABD3]
06 97,6 [8D1A0E57] [AC388281]
07 97,7 [A0C54374] [241681E0]
08 97,7 [C152CE74] [47695F33]
09 97,7 [CAA12186] [EB16EBC3]
10 97,7 [D3BE537C] [3295188D]
11 97,7 [F44AA7F6] [1D5B6D7D]
12 97,7 [66678990] [559DFCAB]
13 97,7 [F1523A50] [F15FBC5E]
14 97,7 [7954A4D3] [D16247A3]

John Lennon & Yoko Ono - Double Fantasy/Stripped Down (2010)

All thanks go to dafnaplus

John Lennon in my Blog

Download John Lennon & Yoko Ono - Double Fantasy/Stripped Down (2010):