Tags
Language
Tags

John Mayall - Looking Back (1969) Remastered 1990 [Re-Up]

Posted By: Designol
John Mayall - Looking Back (1969) Remastered 1990 [Re-Up]

John Mayall - Looking Back (1969) Remastered 1990
EAC | FLAC | Tracks (Cue&Log) ~ 236 Mb | Mp3 (CBR320) ~ 116 Mb | Scans included
British Blues, Blues-Rock | Label: Deram/Universal | # 820 331-2 | Time: 00:38:49

Reasonably interesting collection of non-LP singles from 1964 to 1968, featuring almost all of the notable musicians that passed through the Bluesbreakers throughout the decade. "Sitting in the Rain" (with Peter Green) showcases fine fingerpicking, the haunting "Jenny" is one of Mayall's best originals, and "Stormy Monday" is one of the few cuts from 1966 that briefly featured both Eric Clapton and Jack Bruce. The rest is largely passably pleasant…

Review by Richie Unterberger, Allmusic.com

John Mayall - Looking Back (1969) Remastered 1990 [Re-Up]



Tracklist:

01. Mr James (02:52)
02. Blues City Shake Down (02:21)
03. They Call It Stormy Monday (04:34)
04. So Many Roads (04:44)
05. Looking Back (02:35)
06. Sitting In The Rain (02:57)
07. It Hurts Me Too (02:55)
08. Double Trouble (03:20)
09. Suspicions (Part 2) (05:27)
10. Jenny (04:36)
11. Picture On The Wall (03:02)


Exact Audio Copy V1.0 beta 3 from 29. August 2011

EAC extraction logfile from 26. August 2013, 1:39

John Mayall / Looking Back [1990, 820 331-2]

Used drive : ASUS DRW-22B3S Adapter: 3 ID: 1

Read mode : Secure
Utilize accurate stream : Yes
Defeat audio cache : Yes
Make use of C2 pointers : No

Read offset correction : 6
Overread into Lead-In and Lead-Out : No
Fill up missing offset samples with silence : Yes
Delete leading and trailing silent blocks : No
Null samples used in CRC calculations : Yes
Used interface : Installed external ASPI interface
Gap handling : Appended to previous track

Used output format : User Defined Encoder
Selected bitrate : 768 kBit/s
Quality : High
Add ID3 tag : No
Command line compressor : C:\Program Files\Exact Audio Copy\FLAC\FLAC.EXE
Additional command line options : -V -8 -T "Genre=%genre%" -T "Artist=%artist%" -T "Title=%title%" -T "Album=%albumtitle%" -T "Date=%year%" -T "Tracknumber=%tracknr%" -T "Comment=%comment%" %source%


TOC of the extracted CD

Track | Start | Length | Start sector | End sector
––––––––––––––––––––––––––––-
1 | 0:00.33 | 2:55.17 | 33 | 13174
2 | 2:55.50 | 2:23.18 | 13175 | 23917
3 | 5:18.68 | 4:36.22 | 23918 | 44639
4 | 9:55.15 | 4:46.63 | 44640 | 66152
5 | 14:42.03 | 2:37.10 | 66153 | 77937
6 | 17:19.13 | 2:59.37 | 77938 | 91399
7 | 20:18.50 | 2:57.50 | 91400 | 104724
8 | 23:16.25 | 3:22.08 | 104725 | 119882
9 | 26:38.33 | 5:30.00 | 119883 | 144632
10 | 32:08.33 | 4:38.45 | 144633 | 165527
11 | 36:47.03 | 3:02.10 | 165528 | 179187


Track 1

Filename H:\gym1974\John Mayall\1969 - Looking Back [1990, 820 331-2]\01. Mr James.wav

Pre-gap length 0:00:02.33

Peak level 87.4 %
Extraction speed 1.7 X
Track quality 100.0 %
Test CRC 22575D83
Copy CRC 22575D83
Accurately ripped (confidence 5) [77D043D7] (AR v2)
Copy OK

Track 2

Filename H:\gym1974\John Mayall\1969 - Looking Back [1990, 820 331-2]\02. Blues City Shake Down.wav

Pre-gap length 0:00:02.55

Peak level 87.6 %
Extraction speed 1.8 X
Track quality 100.0 %
Test CRC 0AF04CDB
Copy CRC 0AF04CDB
Accurately ripped (confidence 5) [E31CDDB3] (AR v2)
Copy OK

Track 3

Filename H:\gym1974\John Mayall\1969 - Looking Back [1990, 820 331-2]\03. They Call It Stormy Monday.wav

Pre-gap length 0:00:01.55

Peak level 96.9 %
Extraction speed 2.2 X
Track quality 100.0 %
Test CRC 43961CBD
Copy CRC 43961CBD
Accurately ripped (confidence 5) [340D1140] (AR v2)
Copy OK

Track 4

Filename H:\gym1974\John Mayall\1969 - Looking Back [1990, 820 331-2]\04. So Many Roads.wav

Pre-gap length 0:00:02.07

Peak level 67.9 %
Extraction speed 1.8 X
Track quality 99.9 %
Test CRC 45D57241
Copy CRC 45D57241
Accurately ripped (confidence 5) [CDA19F99] (AR v2)
Copy OK

Track 5

Filename H:\gym1974\John Mayall\1969 - Looking Back [1990, 820 331-2]\05. Looking Back.wav

Pre-gap length 0:00:01.68

Peak level 75.9 %
Extraction speed 2.3 X
Track quality 100.0 %
Test CRC 039D5815
Copy CRC 039D5815
Accurately ripped (confidence 5) [6B404E60] (AR v2)
Copy OK

Track 6

Filename H:\gym1974\John Mayall\1969 - Looking Back [1990, 820 331-2]\06. Sitting In The Rain.wav

Pre-gap length 0:00:01.60

Peak level 100.0 %
Extraction speed 2.5 X
Track quality 100.0 %
Test CRC 327101A9
Copy CRC 327101A9
Accurately ripped (confidence 5) [9593C94B] (AR v2)
Copy OK

Track 7

Filename H:\gym1974\John Mayall\1969 - Looking Back [1990, 820 331-2]\07. It Hurts Me Too.wav

Pre-gap length 0:00:02.05

Peak level 85.4 %
Extraction speed 2.6 X
Track quality 100.0 %
Test CRC F68E18E3
Copy CRC F68E18E3
Accurately ripped (confidence 5) [92CC59C2] (AR v2)
Copy OK

Track 8

Filename H:\gym1974\John Mayall\1969 - Looking Back [1990, 820 331-2]\08. Double Trouble.wav

Pre-gap length 0:00:02.12

Peak level 66.5 %
Extraction speed 2.7 X
Track quality 100.0 %
Test CRC 2A98E7ED
Copy CRC 2A98E7ED
Accurately ripped (confidence 5) [9418B8F9] (AR v2)
Copy OK

Track 9

Filename H:\gym1974\John Mayall\1969 - Looking Back [1990, 820 331-2]\09. Suspicions (Part 2).wav

Pre-gap length 0:00:01.63

Peak level 94.9 %
Extraction speed 2.4 X
Track quality 99.9 %
Test CRC 88410FCB
Copy CRC 88410FCB
Accurately ripped (confidence 4) [D8C6D533] (AR v2)
Copy OK

Track 10

Filename H:\gym1974\John Mayall\1969 - Looking Back [1990, 820 331-2]\10. Jenny.wav

Pre-gap length 0:00:02.13

Peak level 61.0 %
Extraction speed 3.2 X
Track quality 100.0 %
Test CRC 621D42F6
Copy CRC 621D42F6
Accurately ripped (confidence 5) [8363FB72] (AR v2)
Copy OK

Track 11

Filename H:\gym1974\John Mayall\1969 - Looking Back [1990, 820 331-2]\11. Picture On The Wall.wav

Pre-gap length 0:00:02.03

Peak level 60.1 %
Extraction speed 3.1 X
Track quality 100.0 %
Test CRC 8D741265
Copy CRC 8D741265
Accurately ripped (confidence 5) [67AD6AB8] (AR v2)
Copy OK


All tracks accurately ripped

No errors occurred

End of status report

==== Log checksum 6FDEB03471651A6DE80AD130B48360EAA90949A503EE4D742CEFBE1634FAAA52 ====

foobar2000 1.2 / Dynamic Range Meter 1.1.1
log date: 2016-10-17 22:38:26

––––––––––––––––––––––––––––––––––––––––
Analyzed: John Mayall / Looking Back [1990, 820 331-2]
––––––––––––––––––––––––––––––––––––––––

DR Peak RMS Duration Track
––––––––––––––––––––––––––––––––––––––––
DR9 -1.16 dB -11.82 dB 2:55 01-Mr James
DR10 -1.14 dB -13.80 dB 2:23 02-Blues City Shake Down
DR10 -0.27 dB -13.36 dB 4:36 03-They Call It Stormy Monday
DR10 -3.36 dB -16.57 dB 4:47 04-So Many Roads
DR10 -2.39 dB -15.09 dB 2:37 05-Looking Back
DR13 0.00 dB -16.50 dB 2:59 06-Sitting In The Rain
DR11 -1.37 dB -13.54 dB 2:58 07-It Hurts Me Too
DR10 -3.54 dB -15.76 dB 3:22 08-Double Trouble
DR11 -0.45 dB -14.17 dB 5:30 09-Suspicions (Part 2)
DR9 -4.29 dB -17.00 dB 4:39 10-Jenny
DR11 -4.41 dB -18.01 dB 3:02 11-Picture On The Wall
––––––––––––––––––––––––––––––––––––––––

Number of tracks: 11
Official DR value: DR10

Samplerate: 44100 Hz
Channels: 2
Bits per sample: 16
Bitrate: 728 kbps
Codec: FLAC
================================================================================

John Mayall - Looking Back (1969) Remastered 1990 [Re-Up]

John Mayall - Looking Back (1969) Remastered 1990 [Re-Up]