Tags
Language
Tags

John Mayall - Wake Up Call (1993) [Re-Up]

Posted By: Designol
John Mayall - Wake Up Call (1993) [Re-Up]

John Mayall - Wake Up Call (1993)
EAC | FLAC | Image (Cue&Log) ~ 396 Mb | Mp3 (CBR320) ~ 165 Mb | Scans included
British Blues, Blues Rock | Label: Silvertone | # ORE CD 527 | Time: 00:53:13

Fuelled by Coco Montoya's searing but economical string-slashing, drummer Joe Yuele, and bassist Rick Cortes, John Mayall has managed to keep a stable core of Bluesbreakers together in recent years. Mayall rarely does the same album twice, and Wake Up Call finds him returning to a basic, physical sound after 1990's more progressive/highly produced A Sense of Place. The harp whiz has rarely flirted with the pop charts over the decades, a track record that will likely handicap the title track - a potential hit featuring guest vocalist Mavis Staples and some take-charge riffing from former mate Mick Taylor. For pure guitar joy though, Montoya turns the trick all on his own with barnburners "Loaded Dice" and "Nature's Disappearing".

Review by Roch Parisien, Allmusic.com

John Mayall - Wake Up Call (1993) [Re-Up]



Tracklist:

01. Mail Order Mystics (4:42)
02. Maydell (3:58)
03. I Could Cry (5:08)
04. Wake Up Call (4:14)
05. Loaded Dice (4:28)
06. Undercover Agent For The Blues (5:22)
07. Light The Fuse (4:15)
08. Anything I Can Say (3:43)
09. Nature's Disappearing (4:53)
10. I'm A Sucker For Love (4:07)
11. Not At Home (4:09)
12. Ain't That Lovin' You Baby (4:13)


Exact Audio Copy V1.0 beta 6 from 9. April 2015

Отчёт EAC об извлечении, выполненном 22. октября 2016, 16:12

John Mayall / Wake Up Call [ORE CD 527]

Дисковод: hp CDDVDW TS-H653R Adapter: 1 ID: 0

Режим чтения : Достоверность
Использование точного потока : Да
Отключение кэша аудио : Да
Использование указателей C2 : Нет

Коррекция смещения при чтении : 6
Способность читать области Lead-in и Lead-out : Нет
Заполнение пропущенных сэмплов тишиной : Да
Удаление блоков с тишиной в начале и конце : Нет
При вычислениях CRC использовались нулевые сэмплы : Да
Интерфейс : Встроенный Win32-интерфейс для Win NT/2000

Выходной формат : Пользовательский кодировщик
Выбранный битрейт : 1024 kBit/s
Качество : Высокий
Добавление ID3-тега : Нет
Утилита сжатия : C:\Program Files (x86)\Exact Audio Copy\FLAC\FLAC.EXE
Дополнительные параметры : -8 -V -T "ARTIST=%artist%" -T "ALBUM=%albumtitle%" -T "DATE=%year%" -T "GENRE=%genre%" -T "COMMENT=ripped by pmx222" %source%


TOC извлечённого CD

Трек | Старт | Длительность | Начальный сектор | Конечный сектор
––––––––––––––––––––––––––––––––––-
1 | 0:00.50 | 4:41.42 | 50 | 21166
2 | 4:42.17 | 3:58.03 | 21167 | 39019
3 | 8:40.20 | 5:08.32 | 39020 | 62151
4 | 13:48.52 | 4:14.13 | 62152 | 81214
5 | 18:02.65 | 4:27.65 | 81215 | 101304
6 | 22:30.55 | 5:21.55 | 101305 | 125434
7 | 27:52.35 | 4:15.15 | 125435 | 144574
8 | 32:07.50 | 3:43.32 | 144575 | 161331
9 | 35:51.07 | 4:52.70 | 161332 | 183301
10 | 40:44.02 | 4:07.15 | 183302 | 201841
11 | 44:51.17 | 4:08.70 | 201842 | 220511
12 | 49:00.12 | 4:13.28 | 220512 | 239514


Характеристики диапазона извлечения и сообщения об ошибках

Выбранный диапазон

Имя файла D:\pmx222\John Mayall - Wake Up Call [ORE CD 527].wav

Пиковый уровень 93.4 %
Скорость извлечения 2.3 X
Качество диапазона 99.9 %
CRC теста 3C5A2D21
CRC копии 3C5A2D21
Копирование… OK

Ошибок не произошло


AccurateRip: сводка

Трек 1 : извлечено точно (доверие 15) [9EAA5B23] (AR v2)
Трек 2 : извлечено точно (доверие 15) [6F349F8C] (AR v2)
Трек 3 : извлечено точно (доверие 15) [A973D6A6] (AR v2)
Трек 4 : извлечено точно (доверие 15) [EFEEE6A1] (AR v2)
Трек 5 : извлечено точно (доверие 15) [0571B9A8] (AR v2)
Трек 6 : извлечено точно (доверие 15) [AA128A8A] (AR v2)
Трек 7 : извлечено точно (доверие 15) [DDA45A49] (AR v2)
Трек 8 : извлечено точно (доверие 15) [45B5F56D] (AR v2)
Трек 9 : извлечено точно (доверие 15) [0B9B7C08] (AR v2)
Трек 10 : извлечено точно (доверие 15) [202A360E] (AR v2)
Трек 11 : извлечено точно (доверие 15) [E770C67C] (AR v2)
Трек 12 : извлечено точно (доверие 15) [69AA8D50] (AR v2)

Все треки извлечены точно

Конец отчёта

–– CUETools DB Plugin V2.1.6

[CTDB TOCID: mLYYRZ8jftOSICyvdHLKnBbn6MQ-] found
Submit result: already submitted
Track | CTDB Status
1 | (19/19) Accurately ripped
2 | (19/19) Accurately ripped
3 | (18/19) Accurately ripped, or (1/19) differs in 38 samples @00:25:47,00:38:39-00:38:40,00:39:32,00:40:05,00:42:70,00:53:10,00:55:17,00:55:47,00:56:05,01:23:32
4 | (18/19) Accurately ripped, or (1/19) differs in 2 samples @01:18:45
5 | (18/19) Accurately ripped
6 | (19/19) Accurately ripped
7 | (19/19) Accurately ripped
8 | (19/19) Accurately ripped
9 | (19/19) Accurately ripped
10 | (19/19) Accurately ripped
11 | (19/19) Accurately ripped
12 | (19/19) Accurately ripped


==== Контрольная сумма отчёта E198CAAACEAB00A55979B029E1945B436A460836E948B1ED5DD78DE94F5F51F2 ====

foobar2000 1.2 / Dynamic Range Meter 1.1.1
log date: 2017-06-25 16:35:53

––––––––––––––––––––––––––––––––––––––––
Analyzed: John Mayall / Wake Up Call [ORE CD 527]
––––––––––––––––––––––––––––––––––––––––

DR Peak RMS Duration Track
––––––––––––––––––––––––––––––––––––––––
DR11 -0.93 dB -13.00 dB 4:42 01-Mail Order Mystics
DR10 -0.59 dB -11.46 dB 3:58 02-Maydell
DR11 -0.78 dB -13.44 dB 5:08 03-I Could Cry
DR10 -0.65 dB -12.23 dB 4:14 04-Wake Up Call
DR11 -0.90 dB -13.55 dB 4:28 05-Loaded Dice
DR12 -0.96 dB -14.87 dB 5:22 06-Undercover Agent For The Blues
DR10 -1.08 dB -12.69 dB 4:15 07-Light The Fuse
DR11 -1.15 dB -13.82 dB 3:43 08-Anything I Can Say
DR13 -1.06 dB -14.99 dB 4:53 09-Nature's Disappearing
DR11 -0.98 dB -12.91 dB 4:07 10-I'm A Sucker For Love
DR12 -1.10 dB -14.88 dB 4:09 11-Not At Home
DR12 -0.88 dB -14.20 dB 4:13 12-Ain't That Lovin' You Baby
––––––––––––––––––––––––––––––––––––––––

Number of tracks: 12
Official DR value: DR11

Samplerate: 44100 Hz
Channels: 2
Bits per sample: 16
Bitrate: 925 kbps
Codec: FLAC
================================================================================

John Mayall - Wake Up Call (1993) [Re-Up]

John Mayall - Wake Up Call (1993) [Re-Up]

All thanks to original releaser - pmx222

More interesting music in My Blog