Subcategories

John Eliot Gardiner, Orchestre Revolutionnaire et Romantique - Berlioz: Les Troyens (2010/2003) [Blu-Ray]

Posted By: Vilboa
John Eliot Gardiner, Orchestre Revolutionnaire et Romantique - Berlioz: Les Troyens (2010/2003) [Blu-Ray]

John Eliot Gardiner, Orchestre Révolutionnaire et Romantique - Berlioz: Les Troyens (2010/2003) [Blu-Ray]
2xBluRay | BDMV | MPEG-4 AVC Video / 1080i / 29,970 fps | 314 min | 38,5 Gb+39,5 Gb
Audio1: Français / LPCM Audio / 2.0 / 24-bit | Audio2: DTS-HD Master Audio / 5.0 / 48 kHz / 24-bit
––––––
BluRay-rip | AVC | MKV 1920x1080 / 6215 kbps / 29,97 fps | 245 min | 13,2 Gb
Audio: Français / DTS / 5ch / 48.0 KHz / 24 bits
Classical | Opus Arte | Sub: English, French, German, Spanish

Sir John Eliot Gardiner conducts the Monteverdi Choir, Choeur du Théâtre du Châtelet and Orchestre Revolutionnaire et Romantique in a landmark recording of Berlioz's towering opera. A tragic tale of love and fate, war and peace and the intertwined destinies of two cities, the opera is based on Virgil's imperial vision of the founding myth of Rome. The American tenor Gregory Kunde as Aeneas and the Italian soprano Anna Caterina Antonacci lead an international cast in this stunning production.

Cast:
Didon - Susan Graham
Cassandra - Anna Caterina Antonacci
Énée - Gregory Kunde
Chorèbe - Ludovic Tézier
Anna - Renata Pokupic
Panthée - Nicolas Testé
Narbal - Laurent Naouri
Iopas - Mark Padmore
Priam/Mercure - René Schirrer
Hylas - Topi Lehtipuu
Chorus of the Théâtre du Châtelet
Monteverdi Choir
Orchestre Révolutionnaire et Romantique
Conductor - John Eliot Gardiner


Disc Title: LES TROYENS
Disc Size: 41 356 106 126 bytes
Protection: AACS
BD-Java: No
Playlist: 00002.MPLS
Size: 24 994 381 824 bytes
Length: 1:27:43.291
Total Bitrate: 37,99 Mbps
Video: MPEG-4 AVC Video / 29963 kbps / 1080i / 29,970 fps / 16:9 / High Profile 4.1
Audio: French / DTS-HD Master Audio / 5.0 / 48 kHz / 3689 kbps / 24-bit (DTS Core: 5.0 / 48 kHz / 1509 kbps / 24-bit)
Audio: French / LPCM Audio / 2.0 / 48 kHz / 2304 kbps / 24-bit
Subtitle: English / 16,774 kbps
Subtitle: French / 16,866 kbps
Subtitle: German / 19,363 kbps
Subtitle: Spanish / 17,487 kbps
––––––
Disc Title: LES TROYENS D2
Disc Size: 42 516 262 545 bytes
Protection: AACS
BD-Java: No
Playlist: 00002.MPLS
Size: 42 333 874 176 bytes
Length: 2:37:52.496
Total Bitrate: 35,75 Mbps
Video: MPEG-4 AVC Video / 27967 kbps / 1080i / 29,970 fps / 16:9 / High Profile 4.1
Audio: French / DTS-HD Master Audio / 5.0 / 48 kHz / 3549 kbps / 24-bit (DTS Core: 5.0 / 48 kHz / 1509 kbps / 24-bit)
Audio: French / LPCM Audio / 2.0 / 48 kHz / 2304 kbps / 24-bit
Subtitle: English / 15,000 kbps
Subtitle: French / 14,996 kbps
Subtitle: German / 17,574 kbps
Subtitle: Spanish / 15,343 kbps


General
Unique ID : 203934623866295812308041053601881030059 (0x996C613FD33DDDF7AE3912E72BAE7DAB)
Complete name : C:\Les Troyens 01.mkv
Format : Matroska
Format version : Version 2
File size : 4.75 GiB
Duration : 1h 27mn
Overall bit rate : 7 747 Kbps
Movie name : Les Troyens 01
Encoded date : UTC 2019-08-12 09:36:56
Writing application : DVDFab 9.1.6.8
Writing library : libebml v0.7.8 + libmatroska v0.8.1

Video
ID : 1
Format : AVC
Format/Info : Advanced Video Codec
Format profile : High@L4.1
Format settings, CABAC : Yes
Format settings, ReFrames : 2 frames
Codec ID : V_MPEG4/ISO/AVC
Duration : 1h 27mn
Bit rate : 6 215 Kbps
Width : 1 920 pixels
Height : 1 080 pixels
Display aspect ratio : 16:9
Frame rate mode : Constant
Frame rate : 29.970 fps
Color space : YUV
Chroma subsampling : 4:2:0
Bit depth : 8 bits
Scan type : Progressive
Bits/(Pixel*Frame) : 0.100
Stream size : 3.73 GiB (79%)
Writing library : x264 core 142
Encoding settings : cabac=1 / ref=1 / deblock=1:-1:-1 / analyse=0x3:0 / me=hex / subme=5 / psy=0 / mixed_ref=0 / me_range=16 / chroma_me=1 / trellis=0 / 8x8dct=1 / cqm=0 / deadzone=21,11 / fast_pskip=1 / chroma_qp_offset=0 / threads=8 / lookahead_threads=2 / sliced_threads=0 / nr=0 / decimate=1 / interlaced=0 / bluray_compat=0 / constrained_intra=0 / bframes=2 / b_pyramid=0 / b_adapt=1 / b_bias=0 / direct=1 / weightb=1 / open_gop=0 / weightp=0 / keyint=24 / keyint_min=13 / scenecut=40 / intra_refresh=0 / rc=abr / mbtree=0 / bitrate=6215 / ratetol=1.0 / qcomp=0.60 / qpmin=0 / qpmax=69 / qpstep=4 / ip_ratio=1.40 / pb_ratio=1.30 / aq=1:1.00
Default : Yes
Forced : No
Color primaries : BT.709
Transfer characteristics : BT.709
Matrix coefficients : BT.709
Color range : Limited

Audio
ID : 2
Format : DTS
Format/Info : Digital Theater Systems
Mode : 16
Format settings, Endianness : Big
Codec ID : A_DTS
Duration : 1h 27mn
Bit rate mode : Constant
Bit rate : 1 509 Kbps
Channel(s) : 5 channels
Channel positions : Front: L C R, Side: L R
Sampling rate : 48.0 KHz
Bit depth : 24 bits
Compression mode : Lossy
Stream size : 947 MiB (19%)
Language : French
Default : Yes
Forced : No

Text #1
ID : 3
Format : VobSub
Codec ID : S_VOBSUB
Codec ID/Info : The same subtitle format used on DVDs
Language : English
Default : Yes
Forced : No

Text #2
ID : 4
Format : VobSub
Codec ID : S_VOBSUB
Codec ID/Info : The same subtitle format used on DVDs
Language : French
Default : No
Forced : No

Text #3
ID : 5
Format : VobSub
Codec ID : S_VOBSUB
Codec ID/Info : The same subtitle format used on DVDs
Language : German
Default : No
Forced : No

Text #4
ID : 6
Format : VobSub
Codec ID : S_VOBSUB
Codec ID/Info : The same subtitle format used on DVDs
Language : Spanish
Default : No
Forced : No

Menu
00:00:00.000 : en:Chapter 01
00:01:11.071 : en:Chapter 02
00:05:31.397 : en:Chapter 03
00:08:46.325 : en:Chapter 04
00:13:41.887 : en:Chapter 05
00:18:38.917 : en:Chapter 06
00:28:34.546 : en:Chapter 07
00:33:48.059 : en:Chapter 08
00:35:32.830 : en:Chapter 09
00:43:04.515 : en:Chapter 10
00:44:15.619 : en:Chapter 11
00:50:34.998 : en:Chapter 12
00:52:10.393 : en:Chapter 13
00:54:22.058 : en:Chapter 14
01:02:21.637 : en:Chapter 15
01:10:20.549 : en:Chapter 16
01:13:08.384 : en:Chapter 17
01:16:15.837 : en:Chapter 18
01:20:20.715 : en:Chapter 19

All screenshots taken from BDRip

John Eliot Gardiner, Orchestre Revolutionnaire et Romantique - Berlioz: Les Troyens (2010/2003) [Blu-Ray]
John Eliot Gardiner, Orchestre Revolutionnaire et Romantique - Berlioz: Les Troyens (2010/2003) [Blu-Ray]