Tags
Language
Tags
July 2024
Su Mo Tu We Th Fr Sa
30 1 2 3 4 5 6
7 8 9 10 11 12 13
14 15 16 17 18 19 20
21 22 23 24 25 26 27
28 29 30 31 1 2 3

Johnny Winter - Rockpalast: Blues Rock Legends Vol. 3 (2011) 2 CDs + DVD9

Posted By: Designol
Johnny Winter - Rockpalast: Blues Rock Legends Vol. 3 (2011) 2 CDs + DVD9

Johnny Winter - Rockpalast: Blues Rock Legends Vol. 3 (2011) 2 CDs + DVD9
EAC | FLAC | Tracks (Cue&Log) ~ 909 Mb | Mp3 (CBR320) ~ 284 Mb | Scans included
Blues-Rock, Electric Blues | Label: MIG | # MIG 90362 CD | Time: 01:58:20

DVD9 | VIDEO_TS | NTSC (720:480) | LPCM, 2.0 | Time: 02:02:47 | 7.3 Gb

Rockpalast: Blues Rock Legends Vol. 3 is a two-CD live album by guitarist and singer Johnny Winter. It was recorded on April 21, 1979, at the Grugahalle in Essen, Germany. It was released in Germany by MIG Records on February 25, 2011. This performance was originally broadcast live on the television show Rockpalast. The concert that night was by the J. Geils Band, followed by Patti Smith, and then Johnny Winter.

12-track, two-disc set. The definitive breakthrough for the Rockpalast came on the fourth night, from 21st to 22nd April: The Grugahalle in Essen - the traditional staging location at this point, and it remained so for the next ten years -was completely sold out for the first time (an audience of 10,000) - which also remained the case: The subsequent Rockpalast Nights were sold out even before the programme was announced. The expectation that it would be good, regardless of the performers, was confirmed by the line-up in this fourth night. At prime time (News, Weather, Word for Sunday, Rockpalast) it was shown live again on the first TV channel and Europe-wide - from Italy to the North Cape - via Eurovision; the programme only ended when the last note was played. No time limit was set; one could only guess when it would end. An "American Night". It began with the J. Geils Band rhythm and blues; they wanted a "marching band" as introduction, and got it. They were followed by the Pattie Smith Group, who transported US to higher levels, and the concert culminated in blues music, which has influenced American music as no other has. In this night Johnny Winter, who had played at Woodstock, irrevocably established his name in Europe. He gave one of the most important concerts in the total 17 Rockpalast Nights (till 1986). He continued the blues trend of the Rockpalast, including the Johnnie Wells classic "Messin' with the Kid", which Rory Gallagher had opened the first Rockpalast Night with. Johnny Winter arrived in Düsseldorf and immediately wanted to watch our Muddy Waters concert (1978) tape on the video recorder in my room. He was very short-sighted, due to his albinism, and sat about ten centimeters from the screen and watched the show from beginning to end in this position. He was fascinated by Muddy Waters and obviously very pleased with our recording. Johnny said, "If you managed so well with a seven-man band, then I don't think we need to rehearse. We are only three men!" But this was not what the producer, Christian Wagner, had in mind, of course. We had allowed a whole day's rehearsals each for Johnny and the other groups. We had agreed that Johnny would play for 80 minutes. But when he went on stage long after midnight, his tour manager asked me, "Can he play for two hours, too?" "O.K., let him", I answered. We and the WDR were very flexible when it came to live programmes on the first channel (ARD) at that time. We experienced all the power and flair of Johnny's guitar playing in long solos. He concentrated solely on the blues. But later, when the audience needed more movement and wanted some rock'n'roll, he gave them what they wanted, e.g. "Johnny B. Goode" and "Jumping Jack Flash". Patti Smith, who considered it an honour to be on a stage with Johnny Winter, stood in front of the stage with her clarinet in her hand. She wanted to jam. But Johnny was so absorbed in his own music and emotions that he did not notice.

Johnny Winter - Rockpalast: Blues Rock Legends Vol. 3 (2011) 2 CDs + DVD9



Tracklist:

CD1:

01. Albrecht Metzger / Intro (0:14)
02. Hideaway (11:02)
03. Messin' With The Kid (7:47)
04. Walking By Myself (8:27)
05. Mississippi Blues (18:13)
06. Divin' Duck (6:34)
07. Johnny B. Goode (6:53)

CD2:

01. Suzie Q (13:15)
02. Drum Solo (10:44)
03. I'm Ready (5:48)
04. Rockabilly Boogie (6:06)
05. Medley (15:26)
06. Jumpin' Jack Flash (7:51)


Exact Audio Copy V1.0 beta 1 from 15. November 2010

EAC extraction logfile from 29. October 2012, 3:45

Johnny Winter / Rockpalast: Blues Rock Legends Vol. 3 [CD 1]

Used drive : SONY DVD RW AD-7260S Adapter: 4 ID: 0

Read mode : Secure
Utilize accurate stream : Yes
Defeat audio cache : Yes
Make use of C2 pointers : No

Read offset correction : 48
Overread into Lead-In and Lead-Out : No
Fill up missing offset samples with silence : Yes
Delete leading and trailing silent blocks : No
Null samples used in CRC calculations : Yes
Used interface : Native Win32 interface for Win NT & 2000
Gap handling : Appended to previous track

Used output format : User Defined Encoder
Selected bitrate : 32 kBit/s
Quality : High
Add ID3 tag : No
Command line compressor : C:\Program Files\Exact Audio Copy\Flac\flac.exe
Additional command line options : -V -0 -T "artist=%a" -T "title=%t" -T "album=%g" -T "date=%y" -T "tracknumber=%n" -T "genre=%m" -T "COMMENT=Released by: AVLossless Főnixek Rendje" %s


TOC of the extracted CD

Track | Start | Length | Start sector | End sector
––––––––––––––––––––––––––––-
1 | 0:00.00 | 0:14.03 | 0 | 1052
2 | 0:14.03 | 11:02.06 | 1053 | 50708
3 | 11:16.09 | 7:47.31 | 50709 | 85764
4 | 19:03.40 | 8:27.27 | 85765 | 123816
5 | 27:30.67 | 18:12.49 | 123817 | 205765
6 | 45:43.41 | 6:33.68 | 205766 | 235308
7 | 52:17.34 | 6:53.22 | 235309 | 266305


Track 1

Filename C:\EACRips\Johnny Winter - Rockpalast - Blues Rock Legends Vol. 3 (2011)[FLAC]-AFR\CD 1\01 - Albrecht Metzger , Intro.wav

Pre-gap length 0:00:02.00

Peak level 98.9 %
Extraction speed 0.7 X
Track quality 100.0 %
Test CRC 0512D66C
Copy CRC 0512D66C
Cannot be verified as accurate (confidence 2) [70A1C2D1], AccurateRip returned [A47324C8]
Copy OK

Track 2

Filename C:\EACRips\Johnny Winter - Rockpalast - Blues Rock Legends Vol. 3 (2011)[FLAC]-AFR\CD 1\02 - Hideaway.wav

Peak level 99.9 %
Extraction speed 2.9 X
Track quality 100.0 %
Test CRC 3BF5E431
Copy CRC 3BF5E431
Cannot be verified as accurate (confidence 2) [6E2EAD32], AccurateRip returned [F9ACA66D]
Copy OK

Track 3

Filename C:\EACRips\Johnny Winter - Rockpalast - Blues Rock Legends Vol. 3 (2011)[FLAC]-AFR\CD 1\03 - Messin' With The Kid.wav

Peak level 99.9 %
Extraction speed 3.4 X
Track quality 100.0 %
Test CRC 96E6AB96
Copy CRC 96E6AB96
Cannot be verified as accurate (confidence 2) [8A0650C0], AccurateRip returned [25ADEA59]
Copy OK

Track 4

Filename C:\EACRips\Johnny Winter - Rockpalast - Blues Rock Legends Vol. 3 (2011)[FLAC]-AFR\CD 1\04 - Walking By Myself.wav

Peak level 100.0 %
Extraction speed 3.8 X
Track quality 100.0 %
Test CRC 780CD27E
Copy CRC 780CD27E
Cannot be verified as accurate (confidence 2) [943B65E2], AccurateRip returned [E0B0560D]
Copy OK

Track 5

Filename C:\EACRips\Johnny Winter - Rockpalast - Blues Rock Legends Vol. 3 (2011)[FLAC]-AFR\CD 1\05 - Mississippi Blues.wav

Peak level 100.0 %
Extraction speed 4.6 X
Track quality 100.0 %
Test CRC 166E17FD
Copy CRC 166E17FD
Cannot be verified as accurate (confidence 2) [802DF702], AccurateRip returned [D410032D]
Copy OK

Track 6

Filename C:\EACRips\Johnny Winter - Rockpalast - Blues Rock Legends Vol. 3 (2011)[FLAC]-AFR\CD 1\06 - Divin' Duck.wav

Peak level 100.0 %
Extraction speed 4.8 X
Track quality 100.0 %
Test CRC 94158A5A
Copy CRC 94158A5A
Cannot be verified as accurate (confidence 2) [FDC77C54], AccurateRip returned [F03C6914]
Copy OK

Track 7

Filename C:\EACRips\Johnny Winter - Rockpalast - Blues Rock Legends Vol. 3 (2011)[FLAC]-AFR\CD 1\07 - Johnny B. Goode.wav

Peak level 100.0 %
Extraction speed 5.1 X
Track quality 100.0 %
Test CRC DA3199FC
Copy CRC DA3199FC
Cannot be verified as accurate (confidence 2) [59971B39], AccurateRip returned [813DB3BC]
Copy OK


No tracks could be verified as accurate
You may have a different pressing from the one(s) in the database

No errors occurred

End of status report

==== Log checksum 319715CFAFBE5973E1BE6FF19B3085FF4DC5FE65BBFB50507CC393BAF1DF13B3 ====

[CUETools log; Date: 26.10.2017 0:54:46; Version: 2.1.4]
[CTDB TOCID: 0Y_Hn8tyTu7WDHsWMtQSMX_kOeY-] found.
Track | CTDB Status
1 | (28/28) Accurately ripped
2 | (28/28) Accurately ripped
3 | (28/28) Accurately ripped
4 | (28/28) Accurately ripped
5 | (27/28) Accurately ripped
6 | (27/28) Accurately ripped
7 | (25/28) Accurately ripped
[AccurateRip ID: 000ec815-005d83ca-590dde07] found.
Track [ CRC | V2 ] Status
01 [70a1c2d1|530bdb39] (00+09/24) Accurately ripped
02 [6e2ead32|a745d2bd] (00+09/24) Accurately ripped
03 [8a0650c0|1b4361ba] (00+09/24) Accurately ripped
04 [943b65e2|3f5cb11d] (00+09/24) Accurately ripped
05 [802df702|797972b5] (00+06/21) Accurately ripped
06 [fdc77c54|25184fdf] (00+07/22) Accurately ripped
07 [59971b39|2792bb6f] (00+04/19) Accurately ripped
Offsetted by -6:
01 [c208677c] (00/24) No match (V2 was not tested)
02 [c5b03268] (00/24) No match (V2 was not tested)
03 [97e80537] (00/24) No match (V2 was not tested)
04 [36cb5bbc] (00/24) No match (V2 was not tested)
05 [d809431e] (00/21) No match (V2 was not tested)
06 [c8ecff87] (00/22) No match (V2 was not tested)
07 [b5c15204] (00/19) No match (V2 was not tested)

Track Peak [ CRC32 ] [W/O NULL] [ LOG ]
– 100,0 [B8BF1436] [768C80D8]
01 98,9 [0512D66C] [5DDF4565] CRC32
02 99,9 [3BF5E431] [CBE77C5F] CRC32
03 99,9 [96E6AB96] [01366278] CRC32
04 100,0 [780CD27E] [A3B7B08E] CRC32
05 100,0 [166E17FD] [33615EFE] CRC32
06 100,0 [94158A5A] [A55D1DD4] CRC32
07 100,0 [DA3199FC] [3F8C4902] CRC32

foobar2000 1.2 / Dynamic Range Meter 1.1.1
log date: 2017-10-26 01:05:38

––––––––––––––––––––––––––––––––––––––––
Analyzed: Johnny Winter / Rockpalast: Blues Rock Legends Vol. 3 [CD 1]
––––––––––––––––––––––––––––––––––––––––

DR Peak RMS Duration Track
––––––––––––––––––––––––––––––––––––––––
DR12 -0.09 dB -14.33 dB 0:14 01-Albrecht Metzger / Intro
DR6 -0.01 dB -6.97 dB 11:02 02-Hideaway
DR6 -0.01 dB -6.98 dB 7:47 03-Messin' With The Kid
DR5 0.00 dB -6.42 dB 8:27 04-Walking By Myself
DR5 0.00 dB -7.26 dB 18:13 05-Mississippi Blues
DR6 0.00 dB -7.03 dB 6:34 06-Divin' Duck
DR4 0.00 dB -4.82 dB 6:53 07-Johnny B. Goode
––––––––––––––––––––––––––––––––––––––––

Number of tracks: 7
Official DR value: DR6

Samplerate: 44100 Hz
Channels: 2
Bits per sample: 16
Bitrate: 1187 kbps
Codec: FLAC
================================================================================


Exact Audio Copy V1.0 beta 1 from 15. November 2010

EAC extraction logfile from 29. October 2012, 1:09

Johnny Winter / Rockpalast: Blues Rock Legends Vol. 3 [CD 2]

Used drive : SONY DVD RW AD-7260S Adapter: 4 ID: 0

Read mode : Secure
Utilize accurate stream : Yes
Defeat audio cache : Yes
Make use of C2 pointers : No

Read offset correction : 48
Overread into Lead-In and Lead-Out : No
Fill up missing offset samples with silence : Yes
Delete leading and trailing silent blocks : No
Null samples used in CRC calculations : Yes
Used interface : Native Win32 interface for Win NT & 2000
Gap handling : Appended to previous track

Used output format : User Defined Encoder
Selected bitrate : 32 kBit/s
Quality : High
Add ID3 tag : No
Command line compressor : C:\Program Files\Exact Audio Copy\Flac\flac.exe
Additional command line options : -V -0 -T "artist=%a" -T "title=%t" -T "album=%g" -T "date=%y" -T "tracknumber=%n" -T "genre=%m" -T "COMMENT=Released by: AVLossless Főnixek Rendje" %s


TOC of the extracted CD

Track | Start | Length | Start sector | End sector
––––––––––––––––––––––––––––-
1 | 0:00.00 | 13:14.62 | 0 | 59611
2 | 13:14.62 | 10:43.66 | 59612 | 107902
3 | 23:58.53 | 5:48.27 | 107903 | 134029
4 | 29:47.05 | 6:06.01 | 134030 | 161480
5 | 35:53.06 | 15:26.07 | 161481 | 230937
6 | 51:19.13 | 7:50.49 | 230938 | 266236


Track 1

Filename C:\EACRips\Johnny Winter - Rockpalast - Blues Rock Legends Vol. 3 (2011)[FLAC]-AFR\CD 2\01 - Suzie Q.wav

Pre-gap length 0:00:02.00

Peak level 100.0 %
Extraction speed 3.0 X
Track quality 100.0 %
Test CRC 192EA674
Copy CRC 192EA674
Track not present in AccurateRip database
Copy OK

Track 2

Filename C:\EACRips\Johnny Winter - Rockpalast - Blues Rock Legends Vol. 3 (2011)[FLAC]-AFR\CD 2\02 - Drum Solo.wav

Peak level 99.4 %
Extraction speed 3.5 X
Track quality 99.9 %
Test CRC F517D92D
Copy CRC F517D92D
Track not present in AccurateRip database
Copy OK

Track 3

Filename C:\EACRips\Johnny Winter - Rockpalast - Blues Rock Legends Vol. 3 (2011)[FLAC]-AFR\CD 2\03 - I'm Ready.wav

Peak level 99.4 %
Extraction speed 3.5 X
Track quality 99.9 %
Test CRC 7351B8AD
Copy CRC 7351B8AD
Track not present in AccurateRip database
Copy OK

Track 4

Filename C:\EACRips\Johnny Winter - Rockpalast - Blues Rock Legends Vol. 3 (2011)[FLAC]-AFR\CD 2\04 - Rockabilly Boogie.wav

Peak level 100.0 %
Extraction speed 4.2 X
Track quality 100.0 %
Test CRC AD8A4B95
Copy CRC AD8A4B95
Track not present in AccurateRip database
Copy OK

Track 5

Filename C:\EACRips\Johnny Winter - Rockpalast - Blues Rock Legends Vol. 3 (2011)[FLAC]-AFR\CD 2\05 - Medley.wav

Peak level 100.0 %
Extraction speed 4.9 X
Track quality 100.0 %
Test CRC 7046A316
Copy CRC 7046A316
Track not present in AccurateRip database
Copy OK

Track 6

Filename C:\EACRips\Johnny Winter - Rockpalast - Blues Rock Legends Vol. 3 (2011)[FLAC]-AFR\CD 2\06 - Jumpin' Jack Flash.wav

Peak level 100.0 %
Extraction speed 5.1 X
Track quality 100.0 %
Test CRC E5F37BA1
Copy CRC E5F37BA1
Track not present in AccurateRip database
Copy OK


None of the tracks are present in the AccurateRip database

No errors occurred

End of status report

==== Log checksum 644207D78ED7685EE27DD9EB5D10F822516673E0093B1D62C1116E7B0AC56B2C ====

[CUETools log; Date: 26.10.2017 0:55:01; Version: 2.1.4]
[CTDB TOCID: sm1Zp5tYXoftysoJa0UGTjenLoY-] found.
Track | CTDB Status
1 | (26/26) Accurately ripped
2 | (26/26) Accurately ripped
3 | (26/26) Accurately ripped
4 | (26/26) Accurately ripped
5 | (26/26) Accurately ripped
6 | (26/26) Accurately ripped
[AccurateRip ID: 000ea6c9-004cd6e2-530ddd06] found.
Track [ CRC | V2 ] Status
01 [21932283|c281d5c7] (00+09/23) Accurately ripped
02 [f34324cc|4a05467a] (00+09/22) Accurately ripped
03 [66ab57c9|584bd1de] (00+09/21) Accurately ripped
04 [d1fec8d5|f2d4be7b] (00+09/21) Accurately ripped
05 [a7375917|9f9014a7] (00+09/22) Accurately ripped
06 [a8ee1ed2|ee5d8fd8] (00+09/21) Accurately ripped
Offsetted by -6:
01 [f454858e] (00/23) No match (V2 was not tested)
02 [877be32b] (00/22) No match (V2 was not tested)
03 [f9fe26e5] (00/21) No match (V2 was not tested)
04 [371f9815] (00/21) No match (V2 was not tested)
05 [0550d6d9] (00/22) No match (V2 was not tested)
06 [dcefbf2b] (00/21) No match (V2 was not tested)

Track Peak [ CRC32 ] [W/O NULL] [ LOG ]
– 100,0 [008FADAE] [89296C67]
01 100,0 [192EA674] [8620D369] CRC32
02 99,4 [F517D92D] [1369F90A] CRC32
03 99,4 [7351B8AD] [DE297805] CRC32
04 100,0 [AD8A4B95] [5924692A] CRC32
05 100,0 [7046A316] [F14AA466] CRC32
06 100,0 [E5F37BA1] [9500E4C5] CRC32

foobar2000 1.2 / Dynamic Range Meter 1.1.1
log date: 2017-10-26 01:06:21

––––––––––––––––––––––––––––––––––––––––
Analyzed: Johnny Winter / Rockpalast: Blues Rock Legends Vol. 3 [CD 2]
––––––––––––––––––––––––––––––––––––––––

DR Peak RMS Duration Track
––––––––––––––––––––––––––––––––––––––––
DR4 0.00 dB -5.63 dB 13:15 01-Suzie Q
DR4 -0.05 dB -6.37 dB 10:44 02-Drum Solo
DR5 -0.05 dB -6.06 dB 5:48 03-I'm Ready
DR5 0.00 dB -6.05 dB 6:06 04-Rockabilly Boogie
DR4 0.00 dB -6.17 dB 15:26 05-Medley
DR4 0.00 dB -5.06 dB 7:51 06-Jumpin' Jack Flash
––––––––––––––––––––––––––––––––––––––––

Number of tracks: 6
Official DR value: DR4

Samplerate: 44100 Hz
Channels: 2
Bits per sample: 16
Bitrate: 1149 kbps
Codec: FLAC
================================================================================




Johnny Winter - Rockpalast: Blues Rock Legends Vol. 3 (2011) 2 CDs + DVD9

Johnny Winter - Rockpalast: Blues Rock Legends Vol. 3 (2011) 2 CDs + DVD9

Johnny Winter - Rockpalast: Blues Rock Legends Vol. 3 (2011) 2 CDs + DVD9

Johnny Winter - Rockpalast: Blues Rock Legends Vol. 3 (2011) 2 CDs + DVD9

Johnny Winter - Rockpalast: Blues Rock Legends Vol. 3 (2011) 2 CDs + DVD9


DVD Content:

01. Hideaway - 11:38
02. Messin' With The Kid - 08:11
03. Walking By Myself - 09:06
04. Mississippi Blues - 17:39
05. Divin' Duck - 07:30
06. Johnny B.Goode - 06:50
07. Suzie Q - 13:36
08. Drum Solo - 10:10
09. I'm Ready - 05:48
10. Rockabilly Boogie - 07:44
11. Medley - 16:19
12. Jumpin' Jack Flash - 07:40


Johnny Winter - Rockpalast: Blues Rock Legends Vol. 3 (2011) 2 CDs + DVD9

All thanks to original releaser

More interesting music in My Blog