Tags
Language
Tags

Jr. Walker & The All-Stars - Nothin' But Soul: The Singles 1962-1983 (Remastered) (1994)

Posted By: Rtax
Jr. Walker & The All-Stars - Nothin' But Soul: The Singles 1962-1983 (Remastered) (1994)

Jr. Walker & The All-Stars - Nothin' But Soul: The Singles 1962-1983 (Remastered) (1994)
XLD Rip | FLAC (tracks, cue, log, scans) - 720 MB
2:07:42 | Soul, Funk, Rhythm & Blues | Label: Motown

This 40-song double CD includes virtually every Walker track of significance, and then some. Walker is a great player and hits a great groove, but that groove can get tiring over the course of several dozen tracks, especially the similar-sounding early instrumental cuts. Also, the post-'60s selections that take up much of disc two are hampered by material that is inferior to the best output of his '60s heyday. Excellent package and liner notes, but most listeners should be satisfied with the single-disc Greatest Hits, leaving this one for the collectors and specialists.

Tracklist
1-1 Twist Lackawanna 2:14
1-2 Brainwasher 2:56
1-3 Cleo's Mood 2:40
1-4 Good Rockin' 3:07
1-5 Satan's Blues 2:55
1-6 Monkey Jump 2:08
1-7 Shotgun 2:58
1-8 Hot Cha 3:03
1-9 Do The Boomerang 2:23
1-10 Shake And Fingerpop 2:41
1-11 Cleo's Back 2:30
1-12 (I'm A) Roadrunner 2:49
1-13 Baby You Know You Ain't Right 2:32
1-14 How Sweet It Is (To Be Loved By You) 3:01
1-15 Nothing But Soul 3:07
1-16 Money (That's What I Want) (Part 1) 2:06
1-17 Pucker Up Buttercup 3:14
1-18 Shoot Your Shot 3:00
1-19 Come See About Me 3:05
1-20 Sweet Soul 2:59
1-21 Hip City (Part 2) 3:12
1-22 Home Cookin' 2:58

2-1 What Does It Take (To Win Your Love) 2:28
2-2 These Eyes 3:38
2-3 Gotta Hold On To This Feeling 3:35
2-4 Do You See My Love (For You Growing) 3:30
2-5 Holly Holy 3:14
2-6 Carry Your Own Load 3:15
2-7 Take Me Girl I'm Ready 3:15
2-8 Right On Brothers And Sisters 3:09
2-9 Way Back Home 3:11
2-10 Walk In The Night 4:10
2-11 Groove Thing 2:33
2-12 Gimme That Beat (Part 1) 3:27
2-13 I Don't Need No Reason 2:44
2-14 Peace And Understanding (Is Hard To Find) 3:04
2-15 Dancin' Like They Do On Soul Train 3:23
2-16 I'm So Glad 3:22
2-17 You Ain't No Ordinary Woman 3:42
2-18 Hard Love 4:05
2-19 Blow The House Down 4:00
X Lossless Decoder version 20140504 (147.0)

XLD extraction logfile from 2017-05-08 16:02:18 -0700

Jr. Walker & the All Stars / Nothin' But Soul: The Singles 1962-1983 [Disc 1]

Used drive : HL-DT-ST BD-RE WH16NS40 (revision 1.00)
Media type : Pressed CD

Ripper mode : XLD Secure Ripper
Disable audio cache : OK for the drive with a cache less than 1375KiB
Make use of C2 pointers : NO
Read offset correction : 6
Max retry count : 100
Gap status : Analyzed, Appended (except HTOA)

TOC of the extracted CD
Track | Start | Length | Start sector | End sector
––––––––––––––––––––––––––––-
1 | 00:00:32 | 02:18:50 | 32 | 10431
2 | 02:19:07 | 02:58:35 | 10432 | 23816
3 | 05:17:42 | 02:44:15 | 23817 | 36131
4 | 08:01:57 | 03:10:65 | 36132 | 50446
5 | 11:12:47 | 02:58:40 | 50447 | 63836
6 | 14:11:12 | 02:11:05 | 63837 | 73666
7 | 16:22:17 | 03:02:08 | 73667 | 87324
8 | 19:24:25 | 03:06:27 | 87325 | 101301
9 | 22:30:52 | 02:25:60 | 101302 | 112236
10 | 24:56:37 | 02:47:03 | 112237 | 124764
11 | 27:43:40 | 02:33:32 | 124765 | 136271
12 | 30:16:72 | 02:51:58 | 136272 | 149154
13 | 33:08:55 | 02:35:32 | 149155 | 160811
14 | 35:44:12 | 03:04:63 | 160812 | 174674
15 | 38:49:00 | 03:09:57 | 174675 | 188906
16 | 41:58:57 | 02:09:25 | 188907 | 198606
17 | 44:08:07 | 03:17:33 | 198607 | 213414
18 | 47:25:40 | 03:03:35 | 213415 | 227174
19 | 50:29:00 | 03:08:00 | 227175 | 241274
20 | 53:37:00 | 03:02:00 | 241275 | 254924
21 | 56:39:00 | 03:14:62 | 254925 | 269536
22 | 59:53:62 | 02:58:33 | 269537 | 282919

AccurateRip Summary (DiscID: 00308c64-030be521-360ebc16)
Track 01 : OK (v1+v2, confidence 11/11)
Track 02 : OK (v1+v2, confidence 12/12)
Track 03 : OK (v1+v2, confidence 13/13)
Track 04 : OK (v1+v2, confidence 12/12)
Track 05 : OK (v1+v2, confidence 11/11)
Track 06 : OK (v1+v2, confidence 13/13)
Track 07 : OK (v1+v2, confidence 12/12)
Track 08 : OK (v1+v2, confidence 12/12)
Track 09 : OK (v1+v2, confidence 11/11)
Track 10 : OK (v1+v2, confidence 12/12)
Track 11 : OK (v1+v2, confidence 13/13)
Track 12 : OK (v1+v2, confidence 13/13)
Track 13 : OK (v1+v2, confidence 12/12)
Track 14 : OK (v1+v2, confidence 12/12)
Track 15 : OK (v1+v2, confidence 12/12)
Track 16 : OK (v1+v2, confidence 12/12)
Track 17 : OK (v1+v2, confidence 12/12)
Track 18 : OK (v1+v2, confidence 13/13)
Track 19 : OK (v1+v2, confidence 12/12)
Track 20 : OK (v1+v2, confidence 12/12)
Track 21 : OK (v1+v2, confidence 11/11)
Track 22 : OK (v1+v2, confidence 11/11)
->All tracks accurately ripped.

All Tracks
Album gain : -5.90 dB
Peak : 1.000000
Statistics
Read error : 0
Jitter error (maybe fixed) : 0
Retry sector count : 0
Damaged sector count : 0

Track 01
Filename : /Users/Maledeo/Desktop/aaaaa/XLD new files/01 - Twist Lackawanna.flac
/Users/Maledeo/Desktop/aaaaa/XLD new files/01 - Twist Lackawanna.mp3
Pre-gap length : 00:02:32

Track gain : -6.18 dB
Peak : 0.999969
CRC32 hash (test run) : 20E9625D
CRC32 hash : 20E9625D
CRC32 hash (skip zero) : E7E0F2ED
AccurateRip v1 signature : 2831A71B
AccurateRip v2 signature : 82CC5C5D
->Accurately ripped (v1+v2, confidence 5+6/11)
Statistics
Read error : 0
Jitter error (maybe fixed) : 0
Retry sector count : 0
Damaged sector count : 0

Track 02
Filename : /Users/Maledeo/Desktop/aaaaa/XLD new files/02 - Brainwasher.flac
/Users/Maledeo/Desktop/aaaaa/XLD new files/02 - Brainwasher.mp3
Pre-gap length : 00:03:40

Track gain : -6.08 dB
Peak : 1.000000
CRC32 hash (test run) : A5908605
CRC32 hash : A5908605
CRC32 hash (skip zero) : CB450654
AccurateRip v1 signature : 46D73292
AccurateRip v2 signature : 140A7D62
->Accurately ripped (v1+v2, confidence 6+6/12)
Statistics
Read error : 0
Jitter error (maybe fixed) : 0
Retry sector count : 0
Damaged sector count : 0

Track 03
Filename : /Users/Maledeo/Desktop/aaaaa/XLD new files/03 - Cleo's Mood.flac
/Users/Maledeo/Desktop/aaaaa/XLD new files/03 - Cleo's Mood.mp3
Pre-gap length : 00:02:72

Track gain : -4.61 dB
Peak : 0.786865
CRC32 hash (test run) : 42DF041F
CRC32 hash : 42DF041F
CRC32 hash (skip zero) : A1BC4A7E
AccurateRip v1 signature : FDE3C79B
AccurateRip v2 signature : 72EC845F
->Accurately ripped (v1+v2, confidence 6+7/13)
Statistics
Read error : 0
Jitter error (maybe fixed) : 0
Retry sector count : 0
Damaged sector count : 0

Track 04
Filename : /Users/Maledeo/Desktop/aaaaa/XLD new files/04 - Good Rockin'.flac
/Users/Maledeo/Desktop/aaaaa/XLD new files/04 - Good Rockin'.mp3
Pre-gap length : 00:03:10

Track gain : -6.41 dB
Peak : 0.999969
CRC32 hash (test run) : 7CB69604
CRC32 hash : 7CB69604
CRC32 hash (skip zero) : 6E408377
AccurateRip v1 signature : 66BE2800
AccurateRip v2 signature : DB21D594
->Accurately ripped (v1+v2, confidence 6+6/12)
Statistics
Read error : 0
Jitter error (maybe fixed) : 0
Retry sector count : 0
Damaged sector count : 0

Track 05
Filename : /Users/Maledeo/Desktop/aaaaa/XLD new files/05 - Satan's Blues.flac
/Users/Maledeo/Desktop/aaaaa/XLD new files/05 - Satan's Blues.mp3
Pre-gap length : 00:03:02

Track gain : -6.22 dB
Peak : 0.957001
CRC32 hash (test run) : DF229F2A
CRC32 hash : DF229F2A
CRC32 hash (skip zero) : B9F2A740
AccurateRip v1 signature : 70E6C67C
AccurateRip v2 signature : 40021F8A
->Accurately ripped (v1+v2, confidence 5+6/11)
Statistics
Read error : 0
Jitter error (maybe fixed) : 0
Retry sector count : 0
Damaged sector count : 0

Track 06
Filename : /Users/Maledeo/Desktop/aaaaa/XLD new files/06 - Monkey Jump.flac
/Users/Maledeo/Desktop/aaaaa/XLD new files/06 - Monkey Jump.mp3
Pre-gap length : 00:02:55

Track gain : -5.78 dB
Peak : 0.963318
CRC32 hash (test run) : 65D2CB4B
CRC32 hash : 65D2CB4B
CRC32 hash (skip zero) : 10E049CF
AccurateRip v1 signature : 2FB2B15E
AccurateRip v2 signature : CA3194D8
->Accurately ripped (v1+v2, confidence 6+7/13)
Statistics
Read error : 0
Jitter error (maybe fixed) : 0
Retry sector count : 0
Damaged sector count : 0

Track 07
Filename : /Users/Maledeo/Desktop/aaaaa/XLD new files/07 - Shotgun.flac
/Users/Maledeo/Desktop/aaaaa/XLD new files/07 - Shotgun.mp3
Pre-gap length : 00:02:50

Track gain : -6.22 dB
Peak : 0.947906
CRC32 hash (test run) : F6FDACBB
CRC32 hash : F6FDACBB
CRC32 hash (skip zero) : E1FA31C9
AccurateRip v1 signature : C9EC17E8
AccurateRip v2 signature : F8BE6947
->Accurately ripped (v1+v2, confidence 6+6/12)
Statistics
Read error : 0
Jitter error (maybe fixed) : 0
Retry sector count : 0
Damaged sector count : 0

Track 08
Filename : /Users/Maledeo/Desktop/aaaaa/XLD new files/08 - Hot Cha.flac
/Users/Maledeo/Desktop/aaaaa/XLD new files/08 - Hot Cha.mp3
Pre-gap length : 00:03:08

Track gain : -5.29 dB
Peak : 0.864807
CRC32 hash (test run) : FCFFDFC2
CRC32 hash : FCFFDFC2
CRC32 hash (skip zero) : 285868C3
AccurateRip v1 signature : 3BC58A4E
AccurateRip v2 signature : DBD3F66B
->Accurately ripped (v1+v2, confidence 6+6/12)
Statistics
Read error : 0
Jitter error (maybe fixed) : 0
Retry sector count : 0
Damaged sector count : 0

Track 09
Filename : /Users/Maledeo/Desktop/aaaaa/XLD new files/09 - Do the Boomerang.flac
/Users/Maledeo/Desktop/aaaaa/XLD new files/09 - Do the Boomerang.mp3
Pre-gap length : 00:03:02

Track gain : -4.80 dB
Peak : 0.941864
CRC32 hash (test run) : 172BC79A
CRC32 hash : 172BC79A
CRC32 hash (skip zero) : 229513DB
AccurateRip v1 signature : E90A5B3E
AccurateRip v2 signature : C76254BC
->Accurately ripped (v1+v2, confidence 5+6/11)
Statistics
Read error : 0
Jitter error (maybe fixed) : 0
Retry sector count : 0
Damaged sector count : 0

Track 10
Filename : /Users/Maledeo/Desktop/aaaaa/XLD new files/10 - Shake and Fingerpop.flac
/Users/Maledeo/Desktop/aaaaa/XLD new files/10 - Shake and Fingerpop.mp3
Pre-gap length : 00:02:67

Track gain : -5.97 dB
Peak : 0.964813
CRC32 hash (test run) : 3ADB4A1D
CRC32 hash : 3ADB4A1D
CRC32 hash (skip zero) : B31EE36F
AccurateRip v1 signature : 3EB41DEB
AccurateRip v2 signature : B4D7F902
->Accurately ripped (v1+v2, confidence 6+6/12)
Statistics
Read error : 0
Jitter error (maybe fixed) : 0
Retry sector count : 0
Damaged sector count : 0

Track 11
Filename : /Users/Maledeo/Desktop/aaaaa/XLD new files/11 - Cleo's Back.flac
/Users/Maledeo/Desktop/aaaaa/XLD new files/11 - Cleo's Back.mp3
Pre-gap length : 00:02:68

Track gain : -4.99 dB
Peak : 0.872314
CRC32 hash (test run) : E105AF07
CRC32 hash : E105AF07
CRC32 hash (skip zero) : 01BF22AB
AccurateRip v1 signature : 89E480AF
AccurateRip v2 signature : BBBD3CB8
->Accurately ripped (v1+v2, confidence 6+7/13)
Statistics
Read error : 0
Jitter error (maybe fixed) : 0
Retry sector count : 0
Damaged sector count : 0

Track 12
Filename : /Users/Maledeo/Desktop/aaaaa/XLD new files/12 - (I'm a) Road Runner.flac
/Users/Maledeo/Desktop/aaaaa/XLD new files/12 - (I'm a) Road Runner.mp3
Pre-gap length : 00:02:60

Track gain : -5.81 dB
Peak : 0.885803
CRC32 hash (test run) : 9D68FC64
CRC32 hash : 9D68FC64
CRC32 hash (skip zero) : C8A92E03
AccurateRip v1 signature : 003309DF
AccurateRip v2 signature : 914CCAA1
->Accurately ripped (v1+v2, confidence 6+7/13)
Statistics
Read error : 0
Jitter error (maybe fixed) : 0
Retry sector count : 0
Damaged sector count : 0

Track 13
Filename : /Users/Maledeo/Desktop/aaaaa/XLD new files/13 - Baby You Know You Ain't Right.flac
/Users/Maledeo/Desktop/aaaaa/XLD new files/13 - Baby You Know You Ain't Right.mp3
Pre-gap length : 00:02:65

Track gain : -6.42 dB
Peak : 0.946625
CRC32 hash (test run) : 3AFE2762
CRC32 hash : 3AFE2762
CRC32 hash (skip zero) : 00DB0C1C
AccurateRip v1 signature : 7056D360
AccurateRip v2 signature : 8A459D35
->Accurately ripped (v1+v2, confidence 6+6/12)
Statistics
Read error : 0
Jitter error (maybe fixed) : 0
Retry sector count : 0
Damaged sector count : 0

Track 14
Filename : /Users/Maledeo/Desktop/aaaaa/XLD new files/14 - How Sweet It Is (to Be Loved By You).flac
/Users/Maledeo/Desktop/aaaaa/XLD new files/14 - How Sweet It Is (to Be Loved By You).mp3
Pre-gap length : 00:02:72

Track gain : -5.70 dB
Peak : 0.978485
CRC32 hash (test run) : 3B6F8F41
CRC32 hash : 3B6F8F41
CRC32 hash (skip zero) : E737F3B6
AccurateRip v1 signature : 0771A076
AccurateRip v2 signature : BD09360C
->Accurately ripped (v1+v2, confidence 6+6/12)
Statistics
Read error : 0
Jitter error (maybe fixed) : 0
Retry sector count : 0
Damaged sector count : 0

Track 15
Filename : /Users/Maledeo/Desktop/aaaaa/XLD new files/15 - Nothing But Soul.flac
/Users/Maledeo/Desktop/aaaaa/XLD new files/15 - Nothing But Soul.mp3
Pre-gap length : 00:02:68

Track gain : -5.27 dB
Peak : 0.808258
CRC32 hash (test run) : 39D79FA8
CRC32 hash : 39D79FA8
CRC32 hash (skip zero) : 6B10893F
AccurateRip v1 signature : D03F45FB
AccurateRip v2 signature : 78EB228C
->Accurately ripped (v1+v2, confidence 6+6/12)
Statistics
Read error : 0
Jitter error (maybe fixed) : 0
Retry sector count : 0
Damaged sector count : 0

Track 16
Filename : /Users/Maledeo/Desktop/aaaaa/XLD new files/16 - Money (That's What I Want) - Pt. 1.flac
/Users/Maledeo/Desktop/aaaaa/XLD new files/16 - Money (That's What I Want) - Pt. 1.mp3
Pre-gap length : 00:02:70

Track gain : -6.50 dB
Peak : 0.851288
CRC32 hash (test run) : AE9959D6
CRC32 hash : AE9959D6
CRC32 hash (skip zero) : F8C80996
AccurateRip v1 signature : 9D85B278
AccurateRip v2 signature : 47420EEC
->Accurately ripped (v1+v2, confidence 6+6/12)
Statistics
Read error : 0
Jitter error (maybe fixed) : 0
Retry sector count : 0
Damaged sector count : 0

Track 17
Filename : /Users/Maledeo/Desktop/aaaaa/XLD new files/17 - Pucker Up Buttercup.flac
/Users/Maledeo/Desktop/aaaaa/XLD new files/17 - Pucker Up Buttercup.mp3
Pre-gap length : 00:02:50

Track gain : -6.66 dB
Peak : 1.000000
CRC32 hash (test run) : 8F3F617E
CRC32 hash : 8F3F617E
CRC32 hash (skip zero) : 9711619E
AccurateRip v1 signature : C0782E9C
AccurateRip v2 signature : 601A5764
->Accurately ripped (v1+v2, confidence 6+6/12)
Statistics
Read error : 0
Jitter error (maybe fixed) : 0
Retry sector count : 0
Damaged sector count : 0

Track 18
Filename : /Users/Maledeo/Desktop/aaaaa/XLD new files/18 - Shoot Your Shot.flac
/Users/Maledeo/Desktop/aaaaa/XLD new files/18 - Shoot Your Shot.mp3
Pre-gap length : 00:03:10

Track gain : -5.84 dB
Peak : 0.999969
CRC32 hash (test run) : 0989A9B2
CRC32 hash : 0989A9B2
CRC32 hash (skip zero) : 077E5E1E
AccurateRip v1 signature : 4C2CE6AA
AccurateRip v2 signature : 69141E17
->Accurately ripped (v1+v2, confidence 6+7/13)
Statistics
Read error : 0
Jitter error (maybe fixed) : 0
Retry sector count : 0
Damaged sector count : 0

Track 19
Filename : /Users/Maledeo/Desktop/aaaaa/XLD new files/19 - Come See About Me.flac
/Users/Maledeo/Desktop/aaaaa/XLD new files/19 - Come See About Me.mp3
Pre-gap length : 00:02:63

Track gain : -6.50 dB
Peak : 1.000000
CRC32 hash (test run) : 30DFB9A8
CRC32 hash : 30DFB9A8
CRC32 hash (skip zero) : F8CF4D10
AccurateRip v1 signature : B7E70B77
AccurateRip v2 signature : 32A57DBD
->Accurately ripped (v1+v2, confidence 6+6/12)
Statistics
Read error : 0
Jitter error (maybe fixed) : 0
Retry sector count : 0
Damaged sector count : 0

Track 20
Filename : /Users/Maledeo/Desktop/aaaaa/XLD new files/20 - Sweet Soul.flac
/Users/Maledeo/Desktop/aaaaa/XLD new files/20 - Sweet Soul.mp3
Pre-gap length : 00:02:35

Track gain : -5.95 dB
Peak : 0.986969
CRC32 hash (test run) : 9E37D41B
CRC32 hash : 9E37D41B
CRC32 hash (skip zero) : 878E4950
AccurateRip v1 signature : 630773F8
AccurateRip v2 signature : D3DBE993
->Accurately ripped (v1+v2, confidence 6+6/12)
Statistics
Read error : 0
Jitter error (maybe fixed) : 0
Retry sector count : 0
Damaged sector count : 0

Track 21
Filename : /Users/Maledeo/Desktop/aaaaa/XLD new files/21 - Hip City - Pt. 2.flac
/Users/Maledeo/Desktop/aaaaa/XLD new files/21 - Hip City - Pt. 2.mp3
Pre-gap length : 00:02:63

Track gain : -5.99 dB
Peak : 0.999969
CRC32 hash (test run) : FAC897BC
CRC32 hash : FAC897BC
CRC32 hash (skip zero) : 1F575480
AccurateRip v1 signature : 89D644F0
AccurateRip v2 signature : C29FAB56
->Accurately ripped (v1+v2, confidence 5+6/11)
Statistics
Read error : 0
Jitter error (maybe fixed) : 0
Retry sector count : 0
Damaged sector count : 0

Track 22
Filename : /Users/Maledeo/Desktop/aaaaa/XLD new files/22 - Home Cookin'.flac
/Users/Maledeo/Desktop/aaaaa/XLD new files/22 - Home Cookin'.mp3
Pre-gap length : 00:02:70

Track gain : -4.29 dB
Peak : 0.999969
CRC32 hash (test run) : 35AE25B4
CRC32 hash : 35AE25B4
CRC32 hash (skip zero) : E15C38D5
AccurateRip v1 signature : 7F2F0E35
AccurateRip v2 signature : 1993F972
->Accurately ripped (v1+v2, confidence 6+5/11)
Statistics
Read error : 0
Jitter error (maybe fixed) : 0
Retry sector count : 0
Damaged sector count : 0

No errors occurred

End of status report

––-BEGIN XLD SIGNATURE––-
smwVmPvj29OcnAfw1n3SXeD.WKmikTthv34yER51NJtjJ3VJDAseWhCTwSnehOQG5sIdJ7AV2m6Z.iyW1jdbsRp.Rf7oXmouPhEFyYa
––-END XLD SIGNATURE––-


X Lossless Decoder version 20140504 (147.0)

XLD extraction logfile from 2017-05-08 16:38:56 -0700

Jr. Walker & the All Stars / Nothin' But Soul: The Singles 1962-1983 (Disc 2)

Used drive : HL-DT-ST BD-RE WH16NS40 (revision 1.00)
Media type : Pressed CD

Ripper mode : XLD Secure Ripper
Disable audio cache : OK for the drive with a cache less than 1375KiB
Make use of C2 pointers : NO
Read offset correction : 6
Max retry count : 100
Gap status : Analyzed, Appended (except HTOA)

TOC of the extracted CD
Track | Start | Length | Start sector | End sector
––––––––––––––––––––––––––––-
1 | 00:00:32 | 02:32:18 | 32 | 11449
2 | 02:32:50 | 03:40:30 | 11450 | 27979
3 | 06:13:05 | 03:38:57 | 27980 | 44386
4 | 09:51:62 | 03:33:63 | 44387 | 60424
5 | 13:25:50 | 03:16:55 | 60425 | 75179
6 | 16:42:30 | 03:18:32 | 75180 | 90061
7 | 20:00:62 | 03:17:60 | 90062 | 104896
8 | 23:18:47 | 03:12:43 | 104897 | 119339
9 | 26:31:15 | 03:14:52 | 119340 | 133941
10 | 29:45:67 | 04:13:68 | 133942 | 152984
11 | 33:59:60 | 02:37:50 | 152985 | 164809
12 | 36:37:35 | 03:30:52 | 164810 | 180611
13 | 40:08:12 | 02:47:45 | 180612 | 193181
14 | 42:55:57 | 03:08:33 | 193182 | 207314
15 | 46:04:15 | 03:26:42 | 207315 | 222806
16 | 49:30:57 | 03:25:10 | 222807 | 238191
17 | 52:55:67 | 03:45:08 | 238192 | 255074
18 | 56:41:00 | 04:08:60 | 255075 | 273734
19 | 60:49:60 | 04:00:47 | 273735 | 291781

List of alternate offset correction values
# | Absolute | Relative | Confidence
–––––––––––––––––––––
1 | 443 | 437 | 5

AccurateRip Summary (DiscID: 002b75be-026221de-000f3213)
Track 01 : OK (v1+v2, confidence 12/17)
Track 02 : OK (v1+v2, confidence 13/18)
Track 03 : OK (v1+v2, confidence 12/17)
Track 04 : OK (v1+v2, confidence 12/17)
Track 05 : OK (v1+v2, confidence 12/17)
Track 06 : OK (v1+v2, confidence 11/16)
Track 07 : OK (v1+v2, confidence 12/17)
Track 08 : OK (v1+v2, confidence 12/17)
Track 09 : OK (v1+v2, confidence 12/17)
Track 10 : OK (v1+v2, confidence 13/18)
Track 11 : OK (v1+v2, confidence 12/17)
Track 12 : OK (v1+v2, confidence 11/16)
Track 13 : OK (v1+v2, confidence 11/16)
Track 14 : OK (v1+v2, confidence 12/17)
Track 15 : OK (v1+v2, confidence 12/17)
Track 16 : OK (v1+v2, confidence 11/16)
Track 17 : OK (v1+v2, confidence 11/16)
Track 18 : OK (v1+v2, confidence 11/16)
Track 19 : OK (v1+v2, confidence 10/15)
->All tracks accurately ripped.

All Tracks
Album gain : -4.61 dB
Peak : 1.000000
Statistics
Read error : 0
Jitter error (maybe fixed) : 0
Retry sector count : 0
Damaged sector count : 0

Track 01
Filename : /Users/Maledeo/Desktop/aaaaa/XLD new files/01 - What Does It Take (to Win Your Love).flac
/Users/Maledeo/Desktop/aaaaa/XLD new files/01 - What Does It Take (to Win Your Love).mp3
Pre-gap length : 00:02:32

Track gain : -3.80 dB
Peak : 0.919159
CRC32 hash (test run) : E251DB43
CRC32 hash : E251DB43
CRC32 hash (skip zero) : AD5F6025
AccurateRip v1 signature : 5D5B2A4C
AccurateRip v2 signature : 9C2CF34D
->Accurately ripped (v1+v2, confidence 6+6/17)
Statistics
Read error : 0
Jitter error (maybe fixed) : 0
Retry sector count : 0
Damaged sector count : 0

Track 02
Filename : /Users/Maledeo/Desktop/aaaaa/XLD new files/02 - These Eyes.flac
/Users/Maledeo/Desktop/aaaaa/XLD new files/02 - These Eyes.mp3
Pre-gap length : 00:03:05

Track gain : -4.92 dB
Peak : 0.999969
CRC32 hash (test run) : A7E8B085
CRC32 hash : A7E8B085
CRC32 hash (skip zero) : C24FDEA6
AccurateRip v1 signature : F3DF2F34
AccurateRip v2 signature : 06A56E21
->Accurately ripped (v1+v2, confidence 6+7/18)
Statistics
Read error : 0
Jitter error (maybe fixed) : 0
Retry sector count : 0
Damaged sector count : 0

Track 03
Filename : /Users/Maledeo/Desktop/aaaaa/XLD new files/03 - Gotta Hold On to This Feeling.flac
/Users/Maledeo/Desktop/aaaaa/XLD new files/03 - Gotta Hold On to This Feeling.mp3
Pre-gap length : 00:03:03

Track gain : -4.10 dB
Peak : 0.998840
CRC32 hash (test run) : 3A23A733
CRC32 hash : 3A23A733
CRC32 hash (skip zero) : D6203B88
AccurateRip v1 signature : A2DC8A7D
AccurateRip v2 signature : A1C049A5
->Accurately ripped (v1+v2, confidence 6+6/17)
Statistics
Read error : 0
Jitter error (maybe fixed) : 0
Retry sector count : 0
Damaged sector count : 0

Track 04
Filename : /Users/Maledeo/Desktop/aaaaa/XLD new files/04 - Do You See My Love ( For You Growing).flac
/Users/Maledeo/Desktop/aaaaa/XLD new files/04 - Do You See My Love ( For You Growing).mp3
Pre-gap length : 00:03:10

Track gain : -5.82 dB
Peak : 1.000000
CRC32 hash (test run) : D4080683
CRC32 hash : D4080683
CRC32 hash (skip zero) : 0C5C274B
AccurateRip v1 signature : 384F623B
AccurateRip v2 signature : BE999897
->Accurately ripped (v1+v2, confidence 6+6/17)
Statistics
Read error : 0
Jitter error (maybe fixed) : 0
Retry sector count : 0
Damaged sector count : 0

Track 05
Filename : /Users/Maledeo/Desktop/aaaaa/XLD new files/05 - Holly Holy.flac
/Users/Maledeo/Desktop/aaaaa/XLD new files/05 - Holly Holy.mp3
Pre-gap length : 00:03:20

Track gain : -4.64 dB
Peak : 0.945801
CRC32 hash (test run) : 6480C452
CRC32 hash : 6480C452
CRC32 hash (skip zero) : 5C44D3C2
AccurateRip v1 signature : D04AAD21
AccurateRip v2 signature : 6C36A077
->Accurately ripped (v1+v2, confidence 6+6/17)
Statistics
Read error : 0
Jitter error (maybe fixed) : 0
Retry sector count : 0
Damaged sector count : 0

Track 06
Filename : /Users/Maledeo/Desktop/aaaaa/XLD new files/06 - Carry Your Own Load.flac
/Users/Maledeo/Desktop/aaaaa/XLD new files/06 - Carry Your Own Load.mp3
Pre-gap length : 00:02:73

Track gain : -3.73 dB
Peak : 0.724243
CRC32 hash (test run) : 8AD5C83C
CRC32 hash : 8AD5C83C
CRC32 hash (skip zero) : 9CC34ACE
AccurateRip v1 signature : 7152BAB4
AccurateRip v2 signature : 23254356
->Accurately ripped (v1+v2, confidence 5+6/16)
Statistics
Read error : 0
Jitter error (maybe fixed) : 0
Retry sector count : 0
Damaged sector count : 0

Track 07
Filename : /Users/Maledeo/Desktop/aaaaa/XLD new files/07 - Take Me Girl, I'm Ready.flac
/Users/Maledeo/Desktop/aaaaa/XLD new files/07 - Take Me Girl, I'm Ready.mp3
Pre-gap length : 00:02:50

Track gain : -4.82 dB
Peak : 0.979828
CRC32 hash (test run) : 5075665E
CRC32 hash : 5075665E
CRC32 hash (skip zero) : F0F2D9B6
AccurateRip v1 signature : 601DF5F6
AccurateRip v2 signature : 8314C0AC
->Accurately ripped (v1+v2, confidence 6+6/17)
Statistics
Read error : 0
Jitter error (maybe fixed) : 0
Retry sector count : 0
Damaged sector count : 0

Track 08
Filename : /Users/Maledeo/Desktop/aaaaa/XLD new files/08 - Right On Brother and Sisters.flac
/Users/Maledeo/Desktop/aaaaa/XLD new files/08 - Right On Brother and Sisters.mp3
Pre-gap length : 00:02:67

Track gain : -3.41 dB
Peak : 0.952271
CRC32 hash (test run) : 3E2A8390
CRC32 hash : 3E2A8390
CRC32 hash (skip zero) : 5E4C0F74
AccurateRip v1 signature : 4E096CA9
AccurateRip v2 signature : C2F14149
->Accurately ripped (v1+v2, confidence 6+6/17)
Statistics
Read error : 0
Jitter error (maybe fixed) : 0
Retry sector count : 0
Damaged sector count : 0

Track 09
Filename : /Users/Maledeo/Desktop/aaaaa/XLD new files/09 - Way Back Home.flac
/Users/Maledeo/Desktop/aaaaa/XLD new files/09 - Way Back Home.mp3
Pre-gap length : 00:03:55

Track gain : -4.04 dB
Peak : 0.903168
CRC32 hash (test run) : 776DB66B
CRC32 hash : 776DB66B
CRC32 hash (skip zero) : 4609A08D
AccurateRip v1 signature : 1950DDF3
AccurateRip v2 signature : B7894BB4
->Accurately ripped (v1+v2, confidence 6+6/17)
Statistics
Read error : 0
Jitter error (maybe fixed) : 0
Retry sector count : 0
Damaged sector count : 0

Track 10
Filename : /Users/Maledeo/Desktop/aaaaa/XLD new files/10 - Walk In the Night.flac
/Users/Maledeo/Desktop/aaaaa/XLD new files/10 - Walk In the Night.mp3
Pre-gap length : 00:03:10

Track gain : -2.64 dB
Peak : 0.998291
CRC32 hash (test run) : 32E3844C
CRC32 hash : 32E3844C
CRC32 hash (skip zero) : C7515308
AccurateRip v1 signature : DF9FB387
AccurateRip v2 signature : 4F0A1356
->Accurately ripped (v1+v2, confidence 6+7/18)
Statistics
Read error : 0
Jitter error (maybe fixed) : 0
Retry sector count : 0
Damaged sector count : 0

Track 11
Filename : /Users/Maledeo/Desktop/aaaaa/XLD new files/11 - Grove Thang.flac
/Users/Maledeo/Desktop/aaaaa/XLD new files/11 - Grove Thang.mp3
Pre-gap length : 00:03:20

Track gain : -4.29 dB
Peak : 0.956848
CRC32 hash (test run) : E4EB1F44
CRC32 hash : E4EB1F44
CRC32 hash (skip zero) : 2192E8CA
AccurateRip v1 signature : F812A0FC
AccurateRip v2 signature : D6479965
->Accurately ripped (v1+v2, confidence 6+6/17)
Statistics
Read error : 0
Jitter error (maybe fixed) : 0
Retry sector count : 0
Damaged sector count : 0

Track 12
Filename : /Users/Maledeo/Desktop/aaaaa/XLD new files/12 - Gimme That Beat - Pt. 1.flac
/Users/Maledeo/Desktop/aaaaa/XLD new files/12 - Gimme That Beat - Pt. 1.mp3
Pre-gap length : 00:03:45

Track gain : -4.43 dB
Peak : 0.999969
CRC32 hash (test run) : CA7FBCA6
CRC32 hash : CA7FBCA6
CRC32 hash (skip zero) : 1F4E6C2C
AccurateRip v1 signature : 7A3F5DC2
AccurateRip v2 signature : 68FBDDC2
->Accurately ripped (v1+v2, confidence 5+6/16)
Statistics
Read error : 0
Jitter error (maybe fixed) : 0
Retry sector count : 0
Damaged sector count : 0

Track 13
Filename : /Users/Maledeo/Desktop/aaaaa/XLD new files/13 - I Don't Need No Reason.flac
/Users/Maledeo/Desktop/aaaaa/XLD new files/13 - I Don't Need No Reason.mp3
Pre-gap length : 00:03:15

Track gain : -4.70 dB
Peak : 0.999969
CRC32 hash (test run) : 31C66178
CRC32 hash : 31C66178
CRC32 hash (skip zero) : 768BF07D
AccurateRip v1 signature : 8A14BD7D
AccurateRip v2 signature : FBFDA0B0
->Accurately ripped (v1+v2, confidence 6+5/16)
Statistics
Read error : 0
Jitter error (maybe fixed) : 0
Retry sector count : 0
Damaged sector count : 0

Track 14
Filename : /Users/Maledeo/Desktop/aaaaa/XLD new files/14 - Peace and Understanding (Is Hard to Find).flac
/Users/Maledeo/Desktop/aaaaa/XLD new files/14 - Peace and Understanding (Is Hard to Find).mp3
Pre-gap length : 00:02:47

Track gain : -4.89 dB
Peak : 1.000000
CRC32 hash (test run) : C9DFEEEB
CRC32 hash : C9DFEEEB
CRC32 hash (skip zero) : 2CB98C09
AccurateRip v1 signature : 87888149
AccurateRip v2 signature : A7199049
->Accurately ripped (v1+v2, confidence 6+6/17)
Statistics
Read error : 0
Jitter error (maybe fixed) : 0
Retry sector count : 0
Damaged sector count : 0

Track 15
Filename : /Users/Maledeo/Desktop/aaaaa/XLD new files/15 - Dancin' Like They Do On Soul Train.flac
/Users/Maledeo/Desktop/aaaaa/XLD new files/15 - Dancin' Like They Do On Soul Train.mp3
Pre-gap length : 00:03:00

Track gain : -6.14 dB
Peak : 0.999969
CRC32 hash (test run) : 7E714545
CRC32 hash : 7E714545
CRC32 hash (skip zero) : C089B94E
AccurateRip v1 signature : 13D692A5
AccurateRip v2 signature : BBF4DEFD
->Accurately ripped (v1+v2, confidence 6+6/17)
Statistics
Read error : 0
Jitter error (maybe fixed) : 0
Retry sector count : 0
Damaged sector count : 0

Track 16
Filename : /Users/Maledeo/Desktop/aaaaa/XLD new files/16 - I'm So Glad.flac
/Users/Maledeo/Desktop/aaaaa/XLD new files/16 - I'm So Glad.mp3
Pre-gap length : 00:03:25

Track gain : -4.41 dB
Peak : 0.941742
CRC32 hash (test run) : FC3AA434
CRC32 hash : FC3AA434
CRC32 hash (skip zero) : 7CCC0571
AccurateRip v1 signature : DC76800F
AccurateRip v2 signature : 459CBF0A
->Accurately ripped (v1+v2, confidence 6+5/16)
Statistics
Read error : 0
Jitter error (maybe fixed) : 0
Retry sector count : 0
Damaged sector count : 0

Track 17
Filename : /Users/Maledeo/Desktop/aaaaa/XLD new files/17 - You Ain't No Ordinary Woman.flac
/Users/Maledeo/Desktop/aaaaa/XLD new files/17 - You Ain't No Ordinary Woman.mp3
Pre-gap length : 00:02:55

Track gain : -4.65 dB
Peak : 0.999969
CRC32 hash (test run) : 04054882
CRC32 hash : 04054882
CRC32 hash (skip zero) : 58033CD1
AccurateRip v1 signature : 6DF10071
AccurateRip v2 signature : 70BD2088
->Accurately ripped (v1+v2, confidence 5+6/16)
Statistics
Read error : 0
Jitter error (maybe fixed) : 0
Retry sector count : 0
Damaged sector count : 0

Track 18
Filename : /Users/Maledeo/Desktop/aaaaa/XLD new files/18 - Hard Love.flac
/Users/Maledeo/Desktop/aaaaa/XLD new files/18 - Hard Love.mp3
Pre-gap length : 00:02:45

Track gain : -3.76 dB
Peak : 0.999969
CRC32 hash (test run) : 5901C79F
CRC32 hash : 5901C79F
CRC32 hash (skip zero) : 0153120E
AccurateRip v1 signature : EFEE05F8
AccurateRip v2 signature : 89D57E6A
->Accurately ripped (v1+v2, confidence 5+6/16)
Statistics
Read error : 0
Jitter error (maybe fixed) : 0
Retry sector count : 0
Damaged sector count : 0

Track 19
Filename : /Users/Maledeo/Desktop/aaaaa/XLD new files/19 - Blow the House Down .flac
/Users/Maledeo/Desktop/aaaaa/XLD new files/19 - Blow the House Down .mp3
Pre-gap length : 00:03:28

Track gain : -5.23 dB
Peak : 0.999969
CRC32 hash (test run) : 76EB1925
CRC32 hash : 76EB1925
CRC32 hash (skip zero) : 8CD401C1
AccurateRip v1 signature : 2DD66CC7
AccurateRip v2 signature : C5FBFEBA
->Accurately ripped (v1+v2, confidence 5+5/15)
Statistics
Read error : 0
Jitter error (maybe fixed) : 0
Retry sector count : 0
Damaged sector count : 0

No errors occurred

End of status report

––-BEGIN XLD SIGNATURE––-
dtbklgHnHiJR2q58r7.ys0_TJl2kn3FMX2HKh.OkU8Zkr4dscpIbjUOyujbIng4aS7cOVQAD0pG6rWnezMiwp8vK3oEjI6iD1qzZP8G
––-END XLD SIGNATURE––-