Subcategories
Tags
Language
Tags

Juan Luis Guerra - Bachata rosa (1990) {Karen}

Posted By: tiburon
Juan Luis Guerra - Bachata rosa (1990) {Karen}

Juan Luis Guerra - Bachata rosa (1990) {Karen}
EAC 1.5 | FLAC tracks level 8 | Cue+Log+M3U | Full Scans 300dpi | 279MB + 5% Recovery
MP3 CBR 320 Kbps | 108MB + 5% Recovery
Genre: Tropical Latin, Bachata
Juan Luis Guerra - Bachata rosa (1990) {Karen}

Bachata Rosa (English: Rose Bachata) is the fifth studioalbum by Dominican singer-songwriter Juan Luis Guerra and hisgroup 4.40. It was released on December 11, 1990, by KarenRecords. Written and produced by Guerra, the record sold overfive million copies worldwide. It brought bachata music into themainstream in the Dominican Republic and gave the genre aninternational audience. A Portuguese version of the record wasreleased in 1992 under the title Romance Rosa ; it was certifiedgold in Brazil. The album received a Grammy Award for BestTropical Latin Album and two Lo Nuestro Awards for TropicalAlbum of the Year and Tropical Group of the Year. Seven singles were released from the record, four of whichbecame top-ten hits on the Billboard Hot Latin Songs chart. Thealbum debuted at number one on the Billboard Tropical Albums. It remained the top-selling album on the chart for 24 weeks andwas certified platinum (Latin field) in the United States by the Recording Industry Association of America (RIAA). In Spain , thealbum spent eight weeks at the number one position on the chart.In the Netherlands , the record peaked at number two on the Mega Album Top 100 and was certified gold. Bachata Rosa waspraised by critics, who commended Guerra's songwriting and therecord's production, citing it as one of his most important works.
Track List
01 - Rosalia
02 - Como abeja al panal
03 - Carta de amor
04 - Estrellitas y duendes
05 - A pedir su mano
06 - La bilirrubina
07 - Burbujas de amor
08 - Bachata rosa
09 - Reforestame
10 - Acompaneme civil

Produced by Juan Luis Guerra


Exact Audio Copy V1.5 from 20. February 2020

EAC extraction logfile from 11. June 2021, 17:01

Juan Luis Guerra / Bachata rosa

Used drive : PLEXTOR CD-R PREMIUM2 Adapter: 1 ID: 1

Read mode : Secure
Utilize accurate stream : Yes
Defeat audio cache : Yes
Make use of C2 pointers : No

Read offset correction : 30
Overread into Lead-In and Lead-Out : No
Fill up missing offset samples with silence : Yes
Delete leading and trailing silent blocks : No
Null samples used in CRC calculations : Yes
Used interface : Native Win32 interface for Win NT & 2000
Gap handling : Appended to previous track

Used output format : User Defined Encoder
Selected bitrate : 128 kBit/s
Quality : High
Add ID3 tag : No
Command line compressor : C:\Program Files\Exact Audio Copy\Flac\flac.exe
Additional command line options : -8 -V -T "ARTIST=%artist%" -T "TITLE=%title%" -T "ALBUM=%albumtitle%" -T "DATE=%year%" -T "TRACKNUMBER=%tracknr%" -T "TOTALTRACKS=%numtracks%" -T "GENRE=%genre%" -T "ALBUMARTIST=%albumartist%" -T "ALBUM ARTIST=%albumartist%" -T "COMMENT=EAC Secure Mode, Test & Copy, AccurateRip, FLAC -8" %source%


TOC of the extracted CD

Track | Start | Length | Start sector | End sector
––––––––––––––––––––––––––––-
1 | 0:00.32 | 3:27.30 | 32 | 15586
2 | 3:27.62 | 4:07.28 | 15587 | 34139
3 | 7:35.15 | 4:41.70 | 34140 | 55284
4 | 12:17.10 | 4:28.12 | 55285 | 75396
5 | 16:45.22 | 4:55.48 | 75397 | 97569
6 | 21:40.70 | 4:06.37 | 97570 | 116056
7 | 25:47.32 | 4:14.45 | 116057 | 135151
8 | 30:02.02 | 4:20.35 | 135152 | 154686
9 | 34:22.37 | 4:09.43 | 154687 | 173404
10 | 38:32.05 | 4:58.70 | 173405 | 195824


Track 1

Filename c:\MyRip\01 - Rosalia.wav

Pre-gap length 0:00:02.32

Peak level 98.2 %
Extraction speed 3.2 X
Track quality 100.0 %
Test CRC 7779F452
Copy CRC 7779F452
Accurately ripped (confidence 7) [9D31847B] (AR v2)
Copy OK

Track 2

Filename c:\MyRip\02 - Como abeja al panal.wav

Pre-gap length 0:00:02.00

Peak level 98.4 %
Extraction speed 3.5 X
Track quality 100.0 %
Test CRC 372ED638
Copy CRC 372ED638
Accurately ripped (confidence 7) [8CCAC4F7] (AR v2)
Copy OK

Track 3

Filename c:\MyRip\03 - Carta de amor.wav

Pre-gap length 0:00:02.00

Peak level 100.0 %
Extraction speed 3.3 X
Track quality 100.0 %
Test CRC 7BC7E228
Copy CRC 7BC7E228
Accurately ripped (confidence 7) [2F6F5B0E] (AR v2)
Copy OK

Track 4

Filename c:\MyRip\04 - Estrellitas y duendes.wav

Pre-gap length 0:00:02.00

Peak level 73.6 %
Extraction speed 3.3 X
Track quality 100.0 %
Test CRC F6CFB16F
Copy CRC F6CFB16F
Accurately ripped (confidence 7) [B1D6EAC1] (AR v2)
Copy OK

Track 5

Filename c:\MyRip\05 - A pedir su mano.wav

Pre-gap length 0:00:02.00

Peak level 100.0 %
Extraction speed 3.4 X
Track quality 100.0 %
Test CRC B99C774A
Copy CRC B99C774A
Accurately ripped (confidence 7) [824ECB5E] (AR v2)
Copy OK

Track 6

Filename c:\MyRip\06 - La bilirrubina.wav

Pre-gap length 0:00:00.70

Peak level 94.2 %
Extraction speed 3.2 X
Track quality 100.0 %
Test CRC E106EB13
Copy CRC E106EB13
Accurately ripped (confidence 7) [78053593] (AR v2)
Copy OK

Track 7

Filename c:\MyRip\07 - Burbujas de amor.wav

Pre-gap length 0:00:02.00

Peak level 90.7 %
Extraction speed 2.8 X
Track quality 99.9 %
Test CRC EF7D15B8
Copy CRC EF7D15B8
Accurately ripped (confidence 7) [4049E782] (AR v2)
Copy OK

Track 8

Filename c:\MyRip\08 - Bachata rosa.wav

Pre-gap length 0:00:02.00

Peak level 96.2 %
Extraction speed 3.2 X
Track quality 100.0 %
Test CRC EEF7D183
Copy CRC EEF7D183
Accurately ripped (confidence 7) [86C052DD] (AR v2)
Copy OK

Track 9

Filename c:\MyRip\09 - Reforestame.wav

Pre-gap length 0:00:02.00

Peak level 72.0 %
Extraction speed 3.2 X
Track quality 100.0 %
Test CRC C4BD1B67
Copy CRC C4BD1B67
Accurately ripped (confidence 7) [46D0F0DA] (AR v2)
Copy OK

Track 10

Filename c:\MyRip\10 - Acompaneme civil.wav

Pre-gap length 0:00:02.00

Peak level 95.6 %
Extraction speed 3.5 X
Track quality 100.0 %
Test CRC ECA05EFE
Copy CRC ECA05EFE
Accurately ripped (confidence 8) [40839A5E] (AR v2)
Copy OK


All tracks accurately ripped

No errors occurred

End of status report

–– CUETools DB Plugin V2.1.6

[CTDB TOCID: wDcIEn5C01p8QU8ocaFBPB6NVqg-] found
Submit result: wDcIEn5C01p8QU8ocaFBPB6NVqg- has been confirmed
Track | CTDB Status
1 | (27/27) Accurately ripped
2 | (27/27) Accurately ripped
3 | (27/27) Accurately ripped
4 | (27/27) Accurately ripped
5 | (27/27) Accurately ripped
6 | (27/27) Accurately ripped
7 | (25/27) Accurately ripped
8 | (27/27) Accurately ripped
9 | (27/27) Accurately ripped
10 | (27/27) Accurately ripped


==== Log checksum D01E6B0C31ECCBA58DCA4441495734403C6913AB8E6455067FFE097A87B305D7 ====

Juan Luis Guerra - Bachata rosa (1990) {Karen}
Juan Luis Guerra - Bachata rosa (1990) {Karen}


Thanks to the original ripper